osu file format v14

[General]
AudioFilename: audio.mp3
AudioLeadIn: 0
PreviewTime: 178503
Countdown: 0
SampleSet: Soft
StackLeniency: 0.7
Mode: 0
LetterboxInBreaks: 0
WidescreenStoryboard: 1

[Editor]
Bookmarks: 37437
DistanceSpacing: 1.15
BeatDivisor: 4
GridSize: 4
TimelineZoom: 2.9

[Metadata]
Title:Q
TitleUnicode:Q
Artist:Kaede To Kyo Aki Ame Kuzu
ArtistUnicode:楓刀京明雨葛
Creator:Abelia
Version:Insane
Source:
Tags:ヤンキー組 yankee gumi 椎名もた shiina shina mota siinamota ぽわぽわp powapowap vtuber virtual バーチャルyoutuber 2434 にじさんじ nijisanji 樋口楓 higuchi kaede 剣持刀也 kenmochi toya touya 轟京子 todoroki kyoko kyouko 三枝明那 saegusa akina 葛葉 kuzuha 久遠千歳 kudou chitose 雨森小夜 amemori sayo japanese rock いちから ichikara j-rock jrock cover カバー
BeatmapID:2729314
BeatmapSetID:1316097

[Difficulty]
HPDrainRate:5.3
CircleSize:4
OverallDifficulty:7.5
ApproachRate:9.1
SliderMultiplier:1.6
SliderTickRate:1

[Events]
//Background and Video events
0,0,"bg_a.jpg",0,0
//Break Periods
2,141437,156437
//Storyboard Layer 0 (Background)
//Storyboard Layer 1 (Fail)
//Storyboard Layer 2 (Pass)
//Storyboard Layer 3 (Foreground)
//Storyboard Layer 4 (Overlay)
//Storyboard Sound Samples

[TimingPoints]
9437,250,4,2,1,80,1,0
29437,-125,4,2,1,50,0,0
53437,-100,4,2,1,80,0,1
67437,-100,4,2,1,80,0,0
68937,-100,4,2,1,60,0,0
69437,-100,4,2,1,80,0,1
81437,-119.047619047619,4,2,1,60,0,1
83687,-119.047619047619,4,2,1,70,0,1
83937,-119.047619047619,4,2,1,80,0,1
84437,-55.5555555555556,4,2,1,80,0,1
84499,-55.5555555555556,4,2,1,45,0,1
85437,-125,4,2,1,50,0,0
109437,-100,4,2,1,80,0,1
123437,-100,4,2,1,80,0,0
124937,-100,4,2,1,60,0,0
125437,-100,4,2,1,80,0,1
137437,-100,4,2,1,60,0,1
138437,-125,4,2,1,60,0,1
139687,-125,4,2,1,70,0,1
139937,-125,4,2,1,80,0,1
140437,-100,4,2,1,50,0,0
141437,-125,4,2,1,50,0,0
157437,-125,4,2,2,50,0,0
172437,-55.5555555555556,4,2,1,25,0,0
177312,-55.5555555555556,4,2,1,6,0,0
178503,250,4,2,1,50,1,0
179503,-100,4,2,1,80,0,1
193503,-100,4,2,1,80,0,0
195003,-100,4,2,1,60,0,0
195503,-100,4,2,1,80,0,1
207503,-90.9090909090909,4,2,1,80,0,1
208503,-125,4,2,1,60,0,1
209753,-125,4,2,1,70,0,1
210003,-125,4,2,1,80,0,1
210503,-133.333333333333,4,2,1,60,0,0
211503,-100,4,2,1,80,0,0
227503,-200,4,2,1,30,0,0

[Colours]
Combo1 : 239,239,239
Combo2 : 255,214,145
Combo3 : 96,96,96

[HitObjects]
160,91,13437,6,0,P|199:90|239:95,1,80,6|0,1:2|0:0,0:0:0:0:
363,155,13687,2,0,B|365:115|365:115|371:75,1,80,10|0,0:0|0:0,0:0:0:0:
278,180,13937,1,2,1:2:0:0:
204,173,14062,2,0,B|210:213|210:213|212:253,1,80,2|0,1:2|0:0,0:0:0:0:
317,333,14312,6,0,B|371:346|418:337|418:337|443:315|468:310,1,160,10|0,0:0|1:0,0:0:0:0:
444,231,14687,2,0,B|447:171|447:171|452:111,1,120,10|0,0:0|0:0,0:0:0:0:
427,85,14937,1,2,1:2:0:0:
356,59,15062,1,2,1:2:0:0:
306,115,15187,2,0,B|308:155|314:195,1,80,10|0,0:0|0:0,0:0:0:0:
282,42,15437,6,0,B|243:47|243:47|202:52,1,80,2|0,1:2|0:0,0:0:0:0:
72,24,15687,2,0,B|70:64|64:104,1,80,10|0,0:0|0:0,0:0:0:0:
209,129,15937,1,2,1:2:0:0:
136,138,16062,2,0,B|138:178|144:218,1,80,2|0,1:2|0:0,0:0:0:0:
190,337,16312,6,0,B|85:350|85:350|32:364,1,160,10|0,0:0|1:0,0:0:0:0:
34,279,16687,2,0,P|11:226|29:170,1,120,10|0,0:0|0:0,0:0:0:0:
23,135,16937,1,2,1:2:0:0:
99,130,17062,1,2,1:2:0:0:
139,65,17187,2,0,L|231:77,1,80,10|0,0:0|0:0,0:0:0:0:
336,32,17437,6,0,P|376:38|428:44,1,80,6|0,1:2|0:0,0:0:0:0:
293,124,17687,2,0,P|332:126|372:130,1,80,10|0,0:0|0:0,0:0:0:0:
512,177,17937,1,2,1:2:0:0:
457,238,18062,2,0,B|446:274|446:274|455:315,1,80,2|0,1:2|0:0,0:0:0:0:
337,360,18312,6,0,B|294:363|259:378|259:378|235:348|198:327,1,160,10|0,0:0|1:0,0:0:0:0:
125,355,18687,2,0,B|119:267,1,80,10|0,0:0|0:0,0:0:0:0:
138,201,18937,1,2,1:2:0:0:
66,177,19062,1,2,1:2:0:0:
29,113,19187,2,0,P|36:74|41:35,1,80,10|0,0:0|0:0,0:0:0:0:
126,124,19437,6,0,B|165:117|165:117|205:115,1,80,2|0,1:2|0:0,0:0:0:0:
323,90,19687,2,0,P|320:129|313:169,1,80,10|0,0:0|0:0,0:0:0:0:
253,43,19937,1,2,1:2:0:0:
315,6,20062,2,0,B|354:13|354:13|394:15,1,80,2|0,1:2|0:0,0:0:0:0:
397,166,20312,6,0,L|413:348,1,160,10|0,0:0|1:0,0:0:0:0:
487,231,20687,1,10,0:0:0:0:
487,231,20937,2,0,B|489:192|489:192|484:150,1,80,2|0,1:2|1:0,0:0:0:0:
312,169,21187,2,0,B|313:210|313:210|321:248,1,80,10|0,0:0|0:0,0:0:0:0:
250,338,21437,6,0,L|235:259,1,80,6|0,1:2|0:0,0:0:0:0:
183,139,21687,2,0,B|158:104|158:104|130:78,1,80,10|0,0:0|0:0,0:0:0:0:
173,216,21937,1,2,1:2:0:0:
119,269,22062,2,0,P|118:308|119:355,1,80,2|0,1:2|0:0,0:0:0:0:
250,338,22312,6,0,B|330:322|330:322|405:302,1,160,10|0,0:0|1:0,0:0:0:0:
372,227,22687,2,0,L|375:147,1,80,10|0,0:0|0:0,0:0:0:0:
357,74,22937,1,2,1:2:0:0:
299,123,23062,1,2,1:2:0:0:
237,79,23187,2,0,P|243:39|248:0,1,80,10|0,0:0|0:0,0:0:0:0:
117,61,23437,6,0,L|125:141,1,80,2|0,1:2|0:0,0:0:0:0:
92,265,23687,2,0,P|53:258|30:226,1,80,10|0,0:0|0:0,0:0:0:0:
171,223,23937,1,2,1:2:0:0:
163,299,24062,2,0,B|203:293|203:293|243:291,1,80,2|0,1:2|0:0,0:0:0:0:
323,176,24312,6,0,B|403:185|403:185|481:201,1,160,10|0,0:0|1:0,0:0:0:0:
475,116,24687,2,0,L|353:96,1,120,10|0,0:0|0:0,0:0:0:0:
334,68,24937,1,2,1:2:0:0:
271,111,25062,1,2,1:2:0:0:
195,117,25187,2,0,P|201:78|205:38,1,80,10|0,0:0|0:0,0:0:0:0:
323,176,25437,6,0,P|316:215|312:255,1,80,6|0,1:2|0:0,0:0:0:0:
395,342,25687,2,0,B|356:347|356:347|316:356,1,80,10|0,0:0|0:0,0:0:0:0:
227,247,25937,1,2,1:2:0:0:
243,322,26062,2,0,L|144:310,1,80,2|0,1:2|0:0,0:0:0:0:
45,359,26312,6,0,B|31:298|31:298|43:202,1,160,10|0,0:0|1:0,0:0:0:0:
13,118,26687,2,0,P|52:123|92:127,1,80,10|0,0:0|0:0,0:0:0:0:
124,57,26937,1,2,1:2:0:0:
169,119,27062,1,2,1:2:0:0:
199,47,27187,2,0,P|238:50|278:56,1,80,10|0,0:0|0:0,0:0:0:0:
389,103,27437,6,0,P|400:65|393:26,1,80,2|0,1:2|0:0,0:0:0:0:
308,139,27687,2,0,L|315:229,1,80,10|0,0:0|0:0,0:0:0:0:
386,337,27937,1,2,1:2:0:0:
420,269,28062,2,0,B|425:229|425:229|426:189,1,80,2|0,1:2|0:0,0:0:0:0:
319,294,28312,6,0,B|241:282|241:282|160:272,1,160,10|0,0:0|1:0,0:0:0:0:
38,305,28687,1,10,0:0:0:0:
38,305,28937,2,0,B|45:264|45:264|48:225,1,80,2|0,1:2|1:0,0:0:0:0:
138,118,29187,2,0,B|130:158|130:158|127:197,1,80,10|0,0:0|0:0,0:0:0:0:
167,349,29437,6,0,B|243:361|243:361|265:348|289:341,1,128,6|10,1:2|0:0,0:0:0:0:
374,374,29812,1,10,0:0:0:0:
374,373,29937,2,0,B|377:310|377:310|373:299|372:246,1,128,2|10,0:0|0:0,0:0:0:0:
455,273,30312,6,0,B|452:210|452:210|456:199|457:146,1,128,2|2,0:0|0:0,0:0:0:0:
413,75,30687,2,0,P|381:78|349:80,1,64,10|10,0:0|0:0,0:0:0:0:
290,170,30937,2,0,P|321:166|353:164,1,64,2|0,0:0|1:2,0:0:0:0:
255,81,31187,1,10,0:0:0:0:
66,22,31437,6,0,P|63:85|59:149,1,128,2|10,1:2|0:0,0:0:0:0:
19,219,31812,1,10,0:0:0:0:
19,219,31937,2,0,P|77:241|134:215,1,128,2|10,0:0|0:0,0:0:0:0:
156,144,32312,1,2,0:0:0:0:
226,171,32437,6,0,P|228:139|231:107,1,64,2|2,1:2|0:0,0:0:0:0:
302,211,32687,2,0,P|304:179|307:147,1,64,10|10,0:0|0:0,0:0:0:0:
235,247,32937,2,0,B|229:278|229:278|229:310,1,64,2|0,0:0|1:2,0:0:0:0:
358,322,33187,1,10,0:0:0:0:
474,170,33437,6,0,B|479:125|472:110|472:110|467:106|462:42,1,128,2|10,1:2|0:0,0:0:0:0:
388,76,33812,1,10,0:0:0:0:
388,76,33937,2,0,P|382:45|379:13,1,64,2|2,0:0|1:2,0:0:0:0:
313,100,34187,1,10,0:0:0:0:
313,100,34312,6,0,B|307:67|307:67|303:36,1,64,2|0,0:0|1:2,0:0:0:0:
229,20,34562,1,2,0:0:0:0:
229,20,34687,2,0,B|197:22|197:22|165:28,1,64,10|10,0:0|0:0,0:0:0:0:
125,114,34937,2,0,B|157:112|157:112|189:106,1,64,2|0,0:0|1:2,0:0:0:0:
79,37,35187,1,10,0:0:0:0:
24,210,35437,6,0,P|27:255|100:283,1,128,2|10,1:2|0:0,0:0:0:0:
173,313,35812,1,10,0:0:0:0:
173,313,35937,2,0,P|175:282|177:250,1,64,2|2,0:0|1:2,0:0:0:0:
252,339,36187,1,10,0:0:0:0:
252,339,36312,6,0,P|254:307|256:275,1,64,2|0,0:0|1:2,0:0:0:0:
240,192,36562,2,0,P|304:197|368:201,1,128,2|10,0:0|0:0,0:0:0:0:
444,121,36937,2,0,B|412:120|412:120|380:116,1,64,2|0,0:0|1:2,0:0:0:0:
454,213,37187,1,10,0:0:0:0:
480,34,37437,6,0,B|420:8|420:8|412:15|360:26,1,128,2|10,0:0|0:0,0:0:0:0:
284,22,37812,1,10,0:0:0:0:
284,22,37937,2,0,P|282:53|278:85,1,64,2|2,0:0|1:2,0:0:0:0:
209,151,38187,1,10,0:0:0:0:
209,151,38312,6,0,P|204:119|202:87,1,64,2|0,0:0|1:2,0:0:0:0:
206,13,38562,1,2,0:0:0:0:
139,46,38687,2,0,B|107:43|107:43|76:35,1,64,10|10,0:0|0:0,0:0:0:0:
2,17,38937,2,0,L|10:95,1,64,2|2,0:0|1:2,0:0:0:0:
80,121,39187,2,0,B|77:153|77:153|69:184,1,64,10|0,0:0|0:0,0:0:0:0:
10,254,39437,6,0,B|42:270|71:276|71:276|78:269|130:255,1,128,2|10,1:2|0:0,0:0:0:0:
210,242,39812,1,10,0:0:0:0:
210,242,39937,2,0,P|207:273|204:305,1,64,2|2,0:0|1:2,0:0:0:0:
275,377,40187,1,10,0:0:0:0:
275,377,40312,6,0,B|284:345|284:345|286:313,1,64,2|0,0:0|1:2,0:0:0:0:
288,239,40562,1,2,0:0:0:0:
354,277,40687,2,0,P|385:275|417:270,1,64,10|10,0:0|0:0,0:0:0:0:
478,196,40937,2,0,P|446:194|414:189,1,64,2|2,0:0|1:2,0:0:0:0:
339,177,41187,2,0,L|334:113,1,64,10|0,0:0|0:0,0:0:0:0:
346,30,41437,6,0,B|312:26|312:26|283:17,1,64,2|2,1:2|0:0,0:0:0:0:
209,56,41687,2,0,L|136:60,1,64,10|10,0:0|0:0,0:0:0:0:
61,40,41937,1,2,0:0:0:0:
61,40,42062,2,0,B|56:73|56:73|59:103,1,64,2|8,1:2|0:0,0:0:0:0:
96,181,42312,2,0,B|93:202|91:214|91:214|94:244,1,64,2|0,0:0|1:2,0:0:0:0:
51,334,42562,6,0,B|102:325|102:325|130:330|130:330|178:330,1,128,2|10,0:0|0:0,0:0:0:0:
261,335,42937,1,2,0:0:0:0:
261,335,43062,1,2,1:2:0:0:
261,335,43187,1,10,0:0:0:0:
420,286,43437,6,0,P|421:254|425:222,1,64,2|2,1:2|0:0,0:0:0:0:
398,143,43687,2,0,B|398:111|398:111|403:79,1,64,10|10,0:0|0:0,0:0:0:0:
359,8,43937,1,2,0:0:0:0:
359,8,44062,2,0,P|327:12|295:16,1,64,2|10,1:2|0:0,0:0:0:0:
214,28,44312,6,0,B|214:60|214:60|208:91,1,64,2|0,0:0|1:2,0:0:0:0:
166,164,44562,2,0,L|171:235,2,64,2|10|10,0:0|0:0|0:0,0:0:0:0:
134,97,44937,1,2,0:0:0:0:
134,97,45062,1,2,1:2:0:0:
134,97,45187,1,10,0:0:0:0:
36,292,45437,6,0,B|78:278|113:279|113:279|130:299|155:303,1,128,6|8,1:2|0:0,0:0:0:0:
225,275,45812,1,10,0:0:0:0:
293,305,45937,2,0,P|290:336|292:368,1,64,2|0,0:0|1:2,0:0:0:0:
422,341,46187,1,10,0:0:0:0:
422,341,46437,6,0,B|424:289|424:289|432:266|432:266|435:213,1,128,2|8,1:2|0:0,0:0:0:0:
390,159,46812,1,8,0:0:0:0:
390,159,46937,1,2,0:0:0:0:
426,96,47062,1,0,1:2:0:0:
393,35,47187,1,10,0:0:0:0:
393,35,47437,6,0,B|326:40|326:40|302:54|269:60,1,128,2|8,1:2|0:0,0:0:0:0:
203,24,47812,1,8,0:0:0:0:
183,97,47937,2,0,P|152:91|121:85,1,64,2|0,0:0|1:2,0:0:0:0:
28,3,48187,1,10,0:0:0:0:
28,3,48437,6,0,P|20:66|24:130,1,128,2|8,1:2|0:0,0:0:0:0:
76,192,48812,1,8,0:0:0:0:
76,192,48937,1,2,0:0:0:0:
29,247,49062,1,0,1:2:0:0:
79,306,49187,1,10,0:0:0:0:
79,306,49437,6,0,B|143:295|143:295|206:306,1,128,6|8,1:2|0:0,0:0:0:0:
272,340,49812,1,8,0:0:0:0:
339,305,49937,2,0,P|336:274|338:242,1,64,2|0,0:0|1:2,0:0:0:0:
334,113,50187,1,10,0:0:0:0:
334,113,50437,6,0,P|397:116|461:110,1,128,2|8,1:2|0:0,0:0:0:0:
472,37,50812,1,8,0:0:0:0:
472,37,50937,1,2,0:0:0:0:
398,19,51062,1,0,1:2:0:0:
327,38,51187,1,10,0:0:0:0:
384,204,51437,5,10,0:0:0:0:
384,204,52937,5,2,0:0:0:0:
384,204,53437,6,0,B|382:176|371:146|371:146|388:108|372:47,1,160,6|8,1:2|0:0,0:0:0:0:
289,203,53812,2,0,B|184:187|184:187|130:185,1,160,0|0,1:2|1:2,0:0:0:0:
277,32,54187,2,0,P|283:72|287:112,1,80,10|0,0:0|0:0,0:0:0:0:
384,204,54437,6,0,P|461:185|463:104,2,160,2|10|2,1:2|0:0|0:0,0:0:0:0:
294,285,55062,1,0,1:2:0:0:
228,235,55187,2,0,B|215:267|201:286|201:286|215:308|227:343,1,120,10|0,0:0|0:0,0:0:0:0:
182,362,55437,6,0,P|142:356|102:354,1,80,2|0,1:2|0:0,0:0:0:0:
147,218,55687,1,10,0:0:0:0:
170,136,55812,2,0,P|110:142|50:147,1,120,2|0,1:2|0:0,0:0:0:0:
19,170,56062,2,0,B|23:61|67:122|73:25,1,160,2|2,1:2|0:0,0:0:0:0:
201,52,56437,6,0,P|240:60|279:67,1,80,2|0,1:2|0:0,0:0:0:0:
353,36,56687,1,8,0:0:0:0:
411,90,56812,1,0,1:2:0:0:
339,124,56937,1,2,0:0:0:0:
279,67,57062,1,0,1:2:0:0:
201,52,57187,2,0,P|204:110|211:171,1,120,8|0,0:0|0:0,0:0:0:0:
247,189,57437,6,0,B|151:205|151:205|126:191|92:184,1,160,6|8,1:2|0:0,0:0:0:0:
195,282,57812,2,0,B|236:275|267:268|267:268|290:274|313:275,1,120,0|0,1:2|0:0,0:0:0:0:
358,297,58062,1,0,1:2:0:0:
434,323,58187,2,0,P|444:284|435:245,1,80,10|0,0:0|0:0,0:0:0:0:
317,184,58437,6,0,B|330:104|330:104|336:25,2,160,2|10|2,1:2|0:0|0:0,0:0:0:0:
198,166,59062,1,0,1:2:0:0:
249,105,59187,2,0,B|244:65|244:65|244:25,1,80,10|0,0:0|0:0,0:0:0:0:
121,146,59437,6,0,P|120:223|215:233,1,160,2|8,1:2|0:0,0:0:0:0:
339,297,59812,2,0,P|280:296|234:332,1,120,2|0,1:2|0:0,0:0:0:0:
220,357,60062,2,0,P|298:357|364:314,1,160,2|2,1:2|0:0,0:0:0:0:
441,195,60437,6,0,B|443:234|443:234|448:274,1,80,2|0,1:2|0:0,0:0:0:0:
367,226,60687,1,8,0:0:0:0:
378,152,60812,1,0,1:2:0:0:
366,79,60937,1,2,0:0:0:0:
373,4,61062,1,0,1:2:0:0:
303,30,61187,2,0,P|254:34|179:29,1,120,8|0,0:0|0:0,0:0:0:0:
133,8,61437,6,0,P|89:70|122:138,1,160,6|8,1:2|0:0,0:0:0:0:
287,193,61812,2,0,B|242:191|210:185|210:185|187:227|140:230,1,160,0|0,1:2|1:2,0:0:0:0:
54,283,62187,2,0,L|61:203,1,80,10|0,0:0|0:0,0:0:0:0:
182,90,62437,6,0,P|264:99|353:113,2,160,2|10|2,1:2|0:0|0:0,0:0:0:0:
166,190,63062,1,0,1:2:0:0:
180,265,63187,2,0,P|239:255|298:246,1,120,10|0,0:0|0:0,0:0:0:0:
356,235,63437,6,0,P|354:274|347:314,1,80,2|0,1:2|0:0,0:0:0:0:
473,332,63687,1,10,0:0:0:0:
435,262,63812,2,0,B|434:226|437:202|437:202|431:177|429:142,1,120,2|0,1:2|0:0,0:0:0:0:
455,133,64062,2,0,L|295:123,1,160,2|0,1:2|0:0,0:0:0:0:
215,42,64437,6,0,B|253:40|253:40|294:34,1,80,2|0,1:2|0:0,0:0:0:0:
218,121,64687,1,8,0:0:0:0:
145,135,64812,1,0,1:2:0:0:
91,83,64937,1,2,0:0:0:0:
17,81,65062,1,0,1:2:0:0:
31,155,65187,2,0,P|27:214|30:274,1,120,8|0,0:0|0:0,0:0:0:0:
0,319,65437,6,0,B|51:310|89:295|89:295|116:316|159:329,1,160,6|8,1:2|0:0,0:0:0:0:
299,356,65812,2,0,B|297:308|297:308|304:288|304:288|301:238,1,120,0|0,1:2|0:0,0:0:0:0:
273,215,66062,1,0,1:2:0:0:
197,247,66187,2,0,L|192:167,1,80,10|0,0:0|0:0,0:0:0:0:
341,143,66437,6,0,B|423:153|423:153|501:158,2,160,2|10|2,1:2|0:0|0:0,0:0:0:0:
409,77,67062,1,0,1:2:0:0:
439,0,67187,2,0,P|400:5|360:6,1,80,10|0,0:0|0:0,0:0:0:0:
248,40,67437,5,10,0:0:0:0:
260,114,67562,1,10,0:0:0:0:
256,192,67812,5,10,0:0:0:0:
256,192,68062,1,10,0:0:0:0:
249,269,68312,5,10,0:0:0:0:
264,343,68437,1,10,0:0:0:0:
264,343,68937,5,2,0:0:0:0:
249,269,69187,1,2,0:0:0:0:
328,288,69437,6,0,P|367:280|400:259,1,80,6|0,1:2|0:0,0:0:0:0:
444,108,69687,1,8,0:0:0:0:
444,108,69812,1,2,0:0:0:0:
472,188,69937,2,0,B|434:185|434:185|392:179,1,80,0|0,1:2|0:0,0:0:0:0:
276,105,70187,2,0,B|284:66|284:66|288:25,1,80,10|0,0:0|0:0,0:0:0:0:
142,53,70437,6,0,P|108:123|127:199,1,160,2|8,1:2|0:0,0:0:0:0:
267,278,70812,1,2,0:0:0:0:
193,245,70937,2,0,P|189:284|183:324,1,80,2|0,1:2|0:0,0:0:0:0:
65,324,71187,2,0,P|59:284|55:244,1,80,8|0,0:0|0:0,0:0:0:0:
197,166,71437,6,0,B|236:173|236:173|276:176,1,80,2|0,1:2|0:0,0:0:0:0:
350,82,71687,2,0,B|310:89|310:89|270:92,1,80,8|0,0:0|0:0,0:0:0:0:
364,170,71937,1,0,1:2:0:0:
364,170,72062,1,2,0:0:0:0:
437,197,72187,2,0,P|441:157|443:117,1,80,10|0,0:0|0:0,0:0:0:0:
326,241,72437,6,0,P|327:280|332:320,1,80,2|0,1:2|0:0,0:0:0:0:
413,276,72687,2,0,B|418:315|418:315|419:355,1,80,10|0,0:0|0:0,0:0:0:0:
303,221,72937,2,0,P|304:260|309:300,1,80,2|0,1:2|0:0,0:0:0:0:
431,254,73187,2,0,B|436:293|436:293|437:333,1,80,10|0,0:0|0:0,0:0:0:0:
498,187,73437,6,0,P|490:107|488:27,1,160,6|8,1:2|0:0,0:0:0:0:
332,36,73812,1,2,0:0:0:0:
408,69,73937,2,0,P|409:108|413:148,1,80,0|0,1:2|0:0,0:0:0:0:
303,221,74187,2,0,B|263:213|263:213|223:209,1,80,10|0,0:0|0:0,0:0:0:0:
221,71,74437,6,0,P|144:85|95:146,1,160,2|8,1:2|0:0,0:0:0:0:
122,294,74812,1,2,0:0:0:0:
50,270,74937,2,0,B|48:310|48:310|43:349,1,80,2|0,1:2|0:0,0:0:0:0:
204,346,75187,2,0,B|199:306|199:306|197:266,1,80,8|0,0:0|0:0,0:0:0:0:
273,147,75437,6,0,B|313:154|313:154|352:158,1,80,2|0,1:2|0:0,0:0:0:0:
483,207,75687,2,0,P|442:207|414:236,1,80,8|0,0:0|0:0,0:0:0:0:
362,352,75937,1,0,1:2:0:0:
362,352,76062,1,2,0:0:0:0:
293,310,76187,2,0,B|295:277|295:277|302:261|302:261|305:230,1,80,10|0,0:0|0:0,0:0:0:0:
326,74,76437,6,0,P|366:80|405:84,1,80,2|0,1:2|0:0,0:0:0:0:
352,158,76687,2,0,B|313:154|313:154|273:147,1,80,10|0,0:0|0:0,0:0:0:0:
314,47,76937,2,0,P|354:53|393:57,1,80,2|0,1:2|0:0,0:0:0:0:
376,178,77187,2,0,B|337:174|337:174|297:167,1,80,10|0,0:0|0:0,0:0:0:0:
230,51,77437,6,0,B|150:59|150:59|70:64,1,160,6|8,1:2|0:0,0:0:0:0:
82,196,77812,1,2,0:0:0:0:
9,177,77937,2,0,P|4:216|3:256,1,80,0|0,1:2|0:0,0:0:0:0:
127,286,78187,2,0,P|162:268|177:232,1,80,10|0,0:0|0:0,0:0:0:0:
173,92,78437,6,0,B|254:100|254:100|332:106,1,160,2|8,1:2|0:0,0:0:0:0:
468,127,78812,1,2,0:0:0:0:
414,73,78937,2,0,P|442:48|481:52,1,80,2|0,1:2|0:0,0:0:0:0:
507,198,79187,2,0,B|503:239|503:239|503:277,1,80,8|0,0:0|0:0,0:0:0:0:
414,358,79437,6,0,B|418:317|418:317|418:279,1,80,2|0,1:2|0:0,0:0:0:0:
398,159,79687,1,8,0:0:0:0:
398,159,79812,1,2,0:0:0:0:
360,229,79937,2,0,L|281:242,1,80,0|0,1:2|0:0,0:0:0:0:
308,114,80187,2,0,B|304:73|304:73|304:35,1,80,10|0,0:0|0:0,0:0:0:0:
243,167,80437,6,0,P|203:163|164:153,1,80,2|0,1:2|0:0,0:0:0:0:
137,234,80687,2,0,B|98:224|98:224|58:220,1,80,10|0,0:0|0:0,0:0:0:0:
229,140,80937,2,0,P|189:136|150:126,1,80,2|0,1:2|0:0,0:0:0:0:
157,259,81187,2,0,B|118:249|118:249|78:245,1,80,10|0,0:0|0:0,0:0:0:0:
85,75,81437,5,6,1:2:0:0:
85,75,81937,1,2,0:0:0:0:
85,75,82437,6,0,B|120:80|151:69|151:69|175:89|213:94,1,134.399995898438,2|0,1:2|0:0,0:0:0:0:
266,157,82812,2,0,P|313:123|267:61,1,134.399995898438,2|0,1:2|0:0,0:0:0:0:
189,168,83187,2,0,B|190:199|190:199|193:235,1,67.1999979492188,2|0,1:2|0:0,0:0:0:0:
212,311,83437,5,10,0:0:0:0:
279,348,83562,1,8,0:0:0:0:
347,312,83687,1,8,0:0:0:0:
342,234,83812,1,8,0:0:0:0:
411,267,83937,1,8,0:0:0:0:
413,189,84062,1,8,0:0:0:0:
447,119,84187,1,8,0:0:0:0:
282,46,84437,6,0,L|278:87,30,35.9999989013672,4|0|0|0|0|0|0|0|0|0|0|0|0|0|0|0|0|0|0|0|0|0|0|0|0|0|0|0|0|0|0,1:2|0:0|0:0|0:0|0:0|0:0|0:0|0:0|0:0|0:0|0:0|0:0|0:0|0:0|0:0|0:0|0:0|0:0|0:0|0:0|0:0|0:0|0:0|0:0|0:0|0:0|0:0|0:0|0:0|0:0|0:0,0:0:0:0:
239,20,85437,6,0,B|245:68|251:96|251:96|237:115|231:142,1,128,6|10,1:2|0:0,0:0:0:0:
214,230,85812,1,10,0:0:0:0:
214,230,85937,2,0,B|276:215|276:215|290:219|363:214,1,128,2|10,0:0|0:0,0:0:0:0:
308,296,86312,6,0,B|358:292|372:295|372:295|434:281,1,128,2|2,0:0|0:0,0:0:0:0:
492,222,86687,2,0,B|488:189|488:189|486:158,1,64,10|8,0:0|0:0,0:0:0:0:
409,89,86937,2,0,B|407:120|407:120|403:153,1,64,2|2,0:0|1:2,0:0:0:0:
498,65,87187,1,10,0:0:0:0:
317,145,87437,6,0,P|320:176|324:208,1,64,2|2,1:2|0:0,0:0:0:0:
236,162,87687,2,0,B|237:192|237:192|244:225,1,64,10|10,0:0|0:0,0:0:0:0:
262,307,87937,2,0,P|206:334|142:323,1,128,2|10,0:0|0:0,0:0:0:0:
59,340,88312,6,0,P|71:278|65:202,1,128,2|2,0:0|0:0,0:0:0:0:
13,155,88687,2,0,P|21:125|24:91,1,64,10|10,0:0|0:0,0:0:0:0:
116,39,88937,2,0,L|108:116,1,64,2|2,0:0|1:2,0:0:0:0:
35,3,89187,1,10,0:0:0:0:
207,13,89437,6,0,B|238:19|238:19|270:20,1,64,2|2,1:2|0:0,0:0:0:0:
348,1,89687,2,0,L|420:9,1,64,10|10,0:0|0:0,0:0:0:0:
451,94,89937,1,2,0:0:0:0:
451,94,90062,2,0,P|410:88|379:83,1,64,2|8,1:2|0:0,0:0:0:0:
336,150,90312,6,0,P|304:142|273:139,1,64,2|0,0:0|1:2,0:0:0:0:
199,109,90562,2,0,L|191:172,1,64,2|10,0:0|0:0,0:0:0:0:
112,219,90812,1,10,0:0:0:0:
116,223,90937,2,0,P|114:191|111:159,1,64,2|2,0:0|1:2,0:0:0:0:
103,79,91187,1,10,0:0:0:0:
10,247,91437,6,0,P|22:306|81:321,1,128,2|10,1:2|0:0,0:0:0:0:
156,364,91812,1,10,0:0:0:0:
156,363,91937,2,0,P|158:332|159:300,1,64,2|2,0:0|1:2,0:0:0:0:
238,338,92187,1,10,0:0:0:0:
238,338,92312,6,0,P|238:306|241:274,1,64,2|0,0:0|1:2,0:0:0:0:
212,192,92562,1,2,0:0:0:0:
216,196,92687,2,0,B|248:194|248:194|279:199,1,64,10|10,0:0|0:0,0:0:0:0:
358,237,92937,1,2,0:0:0:0:
358,237,93062,1,2,1:2:0:0:
358,237,93187,1,10,0:0:0:0:
467,79,93437,6,0,B|437:63|405:61|405:61|385:81|347:87,1,128,2|10,1:2|0:0,0:0:0:0:
277,123,93812,1,10,0:0:0:0:
277,123,93937,2,0,L|269:44,1,64,2|2,0:0|1:2,0:0:0:0:
193,0,94187,1,10,0:0:0:0:
197,0,94312,6,0,P|195:31|189:63,1,64,2|0,0:0|1:2,0:0:0:0:
166,135,94562,1,2,0:0:0:0:
117,76,94687,2,0,B|85:79|85:79|54:87,1,64,10|10,0:0|0:0,0:0:0:0:
18,156,94937,2,0,P|19:187|25:219,1,64,2|2,0:0|1:2,0:0:0:0:
87,270,95187,2,0,B|84:302|84:302|76:333,1,64,10|0,0:0|0:0,0:0:0:0:
153,352,95437,6,0,B|183:336|215:334|215:334|235:354|273:360,1,128,2|10,1:2|0:0,0:0:0:0:
353,366,95812,1,10,0:0:0:0:
353,366,95937,2,0,B|348:334|348:334|346:302,1,64,2|2,0:0|1:2,0:0:0:0:
415,235,96187,1,10,0:0:0:0:
419,239,96312,6,0,P|422:270|429:302,1,64,2|0,0:0|1:2,0:0:0:0:
504,284,96562,1,2,0:0:0:0:
490,209,96687,2,0,P|494:177|495:145,1,64,10|10,0:0|0:0,0:0:0:0:
444,81,96937,2,0,P|413:79|381:74,1,64,2|2,0:0|1:2,0:0:0:0:
371,152,97187,2,0,L|307:157,1,64,10|0,0:0|0:0,0:0:0:0:
236,198,97437,6,0,B|229:166|229:166|229:134,1,64,2|2,1:2|0:0,0:0:0:0:
271,63,97687,2,0,L|264:-1,1,64,10|10,0:0|0:0,0:0:0:0:
191,31,97937,1,2,0:0:0:0:
191,31,98062,2,0,B|157:36|157:36|127:35,1,64,2|8,1:2|0:0,0:0:0:0:
79,99,98312,6,0,B|45:104|45:104|15:103,1,64,2|0,0:0|1:2,0:0:0:0:
17,185,98562,1,2,0:0:0:0:
21,189,98687,2,0,B|54:183|54:183|84:184,1,64,10|10,0:0|0:0,0:0:0:0:
157,145,98937,1,2,0:0:0:0:
157,145,99062,1,2,1:2:0:0:
157,145,99187,1,10,0:0:0:0:
273,295,99437,6,0,P|238:291|187:291,1,64,2|2,1:2|0:0,0:0:0:0:
133,325,99687,2,0,B|101:320|101:320|70:323,1,64,10|10,0:0|0:0,0:0:0:0:
41,253,99937,1,2,0:0:0:0:
41,253,100062,2,0,L|45:189,1,64,2|10,1:2|0:0,0:0:0:0:
125,185,100312,6,0,L|122:121,1,64,2|0,0:0|1:2,0:0:0:0:
118,41,100562,2,0,B|86:46|86:46|55:43,2,64,2|10|10,0:0|0:0|0:0,0:0:0:0:
196,82,100937,1,2,0:0:0:0:
196,82,101062,1,2,1:2:0:0:
196,82,101187,1,10,0:0:0:0:
323,203,101437,6,0,B|280:205|246:194|246:194|224:210|192:213,1,128,6|8,1:2|0:0,0:0:0:0:
122,210,101812,1,8,0:0:0:0:
52,177,101937,2,0,P|46:208|44:240,1,64,2|0,0:0|1:2,0:0:0:0:
83,359,102187,1,10,0:0:0:0:
83,359,102437,6,0,B|134:352|134:352|158:357|158:357|211:351,1,128,2|8,1:2|0:0,0:0:0:0:
279,319,102812,1,8,0:0:0:0:
279,319,102937,1,2,0:0:0:0:
351,332,103062,1,0,1:2:0:0:
422,309,103187,1,10,0:0:0:0:
422,309,103437,6,0,B|413:243|413:243|416:235|413:181,1,128,6|8,1:2|0:0,0:0:0:0:
413,106,103812,1,8,0:0:0:0:
349,146,103937,2,0,B|316:145|316:145|285:140,1,64,2|0,0:0|1:2,0:0:0:0:
260,16,104187,1,10,0:0:0:0:
259,16,104437,6,0,P|198:34|135:46,1,128,2|8,1:2|0:0,0:0:0:0:
62,36,104812,1,8,0:0:0:0:
62,36,104937,1,2,0:0:0:0:
83,106,105062,1,0,1:2:0:0:
15,132,105187,1,10,0:0:0:0:
200,134,105437,6,0,B|233:136|252:141|252:141|282:129|326:135,1,128,6|8,1:2|0:0,0:0:0:0:
392,175,105812,1,8,0:0:0:0:
465,153,105937,2,0,L|471:216,1,64,2|0,0:0|1:2,0:0:0:0:
413,321,106187,1,10,0:0:0:0:
413,321,106437,6,0,P|351:313|275:326,1,128,2|8,1:2|0:0,0:0:0:0:
276,242,106812,1,8,0:0:0:0:
280,246,106937,1,2,0:0:0:0:
352,231,107062,1,0,1:2:0:0:
425,245,107187,1,10,0:0:0:0:
209,296,107437,5,10,0:0:0:0:
210,295,108937,5,2,0:0:0:0:
210,295,109437,6,0,B|237:300|263:299|263:299|309:309|309:309|334:301|367:297,1,160,6|8,1:2|0:0,0:0:0:0:
239,212,109812,2,0,B|236:169|216:136|216:136|234:110|245:63,1,160,0|0,1:2|1:2,0:0:0:0:
394,193,110187,2,0,P|358:210|319:219,1,80,10|0,0:0|0:0,0:0:0:0:
166,231,110437,6,0,P|94:205|40:258,2,160,2|10|2,1:2|0:0|0:0,0:0:0:0:
158,353,111062,1,0,1:2:0:0:
229,372,111187,2,0,B|246:323|246:323|240:256,1,120,10|0,0:0|0:0,0:0:0:0:
297,234,111437,6,0,P|300:274|305:313,1,80,2|0,1:2|0:0,0:0:0:0:
421,360,111687,1,10,0:0:0:0:
494,338,111812,2,0,P|501:278|506:218,1,120,2|0,1:2|0:0,0:0:0:0:
450,213,112062,2,0,P|388:170|408:97,1,160,2|2,1:2|0:0,0:0:0:0:
482,23,112437,6,0,B|442:20|442:20|402:13,1,80,2|0,1:2|0:0,0:0:0:0:
261,25,112687,1,8,0:0:0:0:
334,56,112812,1,0,1:2:0:0:
287,122,112937,1,2,0:0:0:0:
215,88,113062,1,0,1:2:0:0:
139,63,113187,2,0,P|135:122|133:182,1,120,8|0,0:0|0:0,0:0:0:0:
100,204,113437,6,0,B|137:209|158:199|158:199|211:218|259:196,1,160,6|8,1:2|0:0,0:0:0:0:
391,167,113812,2,0,B|389:222|389:222|392:286,1,120,0|0,1:2|0:0,0:0:0:0:
448,259,114062,1,0,1:2:0:0:
467,184,114187,2,0,P|462:144|463:104,1,80,10|0,0:0|0:0,0:0:0:0:
357,12,114437,6,0,B|278:19|278:19|198:33,2,160,2|10|2,1:2|0:0|0:0,0:0:0:0:
372,153,115062,1,0,1:2:0:0:
326,91,115187,2,0,P|287:100|247:103,1,80,10|0,0:0|0:0,0:0:0:0:
122,12,115437,6,0,B|108:111|108:111|113:133|118:171,1,160,2|10,1:2|0:0,0:0:0:0:
35,155,115812,2,0,L|24:258,1,80,2|0,1:2|0:0,0:0:0:0:
96,328,116062,2,0,L|107:225,1,80,2|8,1:2|0:0,0:0:0:0:
220,214,116312,1,2,0:0:0:0:
287,250,116437,6,0,P|289:289|295:329,1,80,2|0,1:2|0:0,0:0:0:0:
370,349,116687,1,8,0:0:0:0:
381,272,116812,1,0,1:2:0:0:
369,196,116937,1,2,0:0:0:0:
372,119,117062,1,0,1:2:0:0:
363,42,117187,2,0,B|304:44|304:44|243:42,1,120,8|0,0:0|0:0,0:0:0:0:
219,6,117437,6,0,P|175:66|213:131,1,160,6|8,1:2|0:0,0:0:0:0:
168,223,117812,2,0,B|244:236|244:236|267:204|317:196,1,160,0|0,1:2|1:2,0:0:0:0:
433,130,118187,2,0,P|393:129|353:125,1,80,10|0,0:0|0:0,0:0:0:0:
319,282,118437,6,0,P|398:281|478:272,2,160,2|10|2,1:2|0:0|0:0,0:0:0:0:
282,166,119062,1,0,1:2:0:0:
251,237,119187,2,0,P|191:243|131:243,1,120,10|0,0:0|0:0,0:0:0:0:
106,260,119437,6,0,L|114:180,1,80,2|0,1:2|0:0,0:0:0:0:
125,106,119687,1,10,0:0:0:0:
139,29,119812,2,0,P|99:35|52:44,1,80,2|2,1:2|0:0,0:0:0:0:
113,180,120062,2,0,B|190:169|190:169|271:155,1,160,2|2,1:2|0:0,0:0:0:0:
341,76,120437,6,0,B|300:75|300:75|261:70,1,80,2|0,1:2|0:0,0:0:0:0:
346,150,120687,1,8,0:0:0:0:
423,154,120812,1,0,1:2:0:0:
493,116,120937,1,2,0:0:0:0:
512,192,121062,1,0,1:2:0:0:
445,231,121187,2,0,P|449:290|446:350,1,120,8|0,0:0|0:0,0:0:0:0:
486,361,121437,6,0,B|396:338|396:338|327:373,1,160,2|8,1:2|0:0,0:0:0:0:
255,273,121812,2,0,L|271:153,1,120,0|0,1:2|0:0,0:0:0:0:
255,120,122062,1,0,1:2:0:0:
185,155,122187,2,0,P|180:194|175:234,1,80,10|0,0:0|0:0,0:0:0:0:
25,319,122437,6,0,B|20:241|20:241|10:159,2,160,2|10|2,1:2|0:0|0:0,0:0:0:0:
84,375,123062,1,0,1:2:0:0:
102,300,123187,2,0,B|142:304|142:304|181:310,1,80,10|0,0:0|0:0,0:0:0:0:
301,344,123437,5,10,0:0:0:0:
309,268,123562,1,10,0:0:0:0:
301,191,123812,5,10,0:0:0:0:
301,191,124062,1,10,0:0:0:0:
288,113,124312,5,10,0:0:0:0:
298,38,124437,1,10,0:0:0:0:
298,38,124937,5,2,0:0:0:0:
288,113,125187,1,2,0:0:0:0:
219,62,125437,6,0,P|180:65|145:88,1,80,6|0,1:2|0:0,0:0:0:0:
113,243,125687,1,8,0:0:0:0:
113,243,125812,1,2,0:0:0:0:
65,169,125937,2,0,B|103:165|103:165|144:163,1,80,0|0,1:2|0:0,0:0:0:0:
256,255,126187,2,0,B|252:294|252:294|245:334,1,80,10|0,0:0|0:0,0:0:0:0:
338,380,126437,6,0,P|373:310|355:234,1,160,2|8,1:2|0:0,0:0:0:0:
275,108,126812,1,2,0:0:0:0:
345,129,126937,2,0,B|350:89|350:89|350:49,1,80,2|0,1:2|0:0,0:0:0:0:
201,52,127187,2,0,B|201:91|201:91|206:131,1,80,8|0,0:0|0:0,0:0:0:0:
101,223,127437,6,0,B|139:215|139:215|180:211,1,80,2|0,1:2|0:0,0:0:0:0:
268,301,127687,2,0,B|227:298|227:298|188:299,1,80,8|0,0:0|0:0,0:0:0:0:
268,221,127937,1,0,1:2:0:0:
268,221,128062,1,2,0:0:0:0:
334,187,128187,2,0,B|333:148|333:148|336:108,1,80,10|0,0:0|0:0,0:0:0:0:
481,197,128437,6,0,P|478:237|473:277,1,80,2|0,1:2|0:0,0:0:0:0:
398,238,128687,2,0,B|392:278|392:278|391:317,1,80,10|0,0:0|0:0,0:0:0:0:
506,221,128937,2,0,P|504:261|500:301,1,80,2|0,1:2|0:0,0:0:0:0:
365,255,129187,2,0,B|359:295|359:295|358:334,1,80,10|0,0:0|0:0,0:0:0:0:
297,207,129437,6,0,P|305:127|307:47,1,160,6|8,1:2|0:0,0:0:0:0:
162,49,129812,1,2,0:0:0:0:
231,82,129937,2,0,P|227:122|226:162,1,80,0|0,1:2|0:0,0:0:0:0:
138,263,130187,2,0,B|98:255|98:255|58:252,1,80,10|0,0:0|0:0,0:0:0:0:
70,335,130437,6,0,P|138:296|217:301,1,160,2|8,1:2|0:0,0:0:0:0:
355,347,130812,1,2,0:0:0:0:
335,271,130937,2,0,B|341:230|342:191,1,80,2|0,1:2|0:0,0:0:0:0:
476,195,131187,2,0,B|477:233|483:274,1,80,8|0,0:0|0:0,0:0:0:0:
410,143,131437,6,0,L|414:63,1,80,2|0,1:2|0:0,0:0:0:0:
262,112,131687,2,0,P|298:96|334:111,1,80,8|0,0:0|0:0,0:0:0:0:
265,245,131937,1,0,1:2:0:0:
265,245,132062,1,2,0:0:0:0:
223,179,132187,2,0,B|193:181|193:181|177:188|177:188|144:190,1,80,10|0,0:0|0:0,0:0:0:0:
68,34,132437,6,0,P|108:38|148:37,1,80,2|0,1:2|0:0,0:0:0:0:
28,116,132687,2,0,B|67:116|67:116|115:122,1,80,10|0,0:0|0:0,0:0:0:0:
93,15,132937,2,0,P|133:19|173:18,1,80,2|0,1:2|0:0,0:0:0:0:
12,139,133187,2,0,B|51:139|51:139|91:143,1,80,10|0,0:0|0:0,0:0:0:0:
200,107,133437,6,0,P|283:102|381:93,1,160,6|8,1:2|0:0,0:0:0:0:
379,230,133812,1,2,0:0:0:0:
304,211,133937,2,0,P|298:250|298:290,1,80,0|0,1:2|0:0,0:0:0:0:
423,320,134187,2,0,B|457:299|457:299|472:263,1,80,10|0,0:0|0:0,0:0:0:0:
445,130,134437,6,0,B|366:126|366:126|285:117,1,160,2|8,1:2|0:0,0:0:0:0:
152,100,134812,1,2,0:0:0:0:
220,60,134937,2,0,P|197:29|159:19,1,80,2|0,1:2|0:0,0:0:0:0:
97,160,135187,2,0,B|99:200|99:200|104:239,1,80,8|0,0:0|0:0,0:0:0:0:
35,342,135437,6,0,B|33:302|33:302|27:262,1,80,2|0,1:2|0:0,0:0:0:0:
165,298,135687,1,8,0:0:0:0:
165,298,135812,1,2,0:0:0:0:
177,223,135937,2,0,P|216:228|256:231,1,80,0|0,1:2|0:0,0:0:0:0:
335,343,136187,2,0,B|337:303|337:303|342:263,1,80,10|0,0:0|0:0,0:0:0:0:
328,129,136437,6,0,P|368:125|407:115,1,80,2|0,1:2|0:0,0:0:0:0:
434,196,136687,2,0,B|473:186|473:186|513:182,1,80,10|0,0:0|0:0,0:0:0:0:
342,102,136937,2,0,P|382:98|421:88,1,80,2|0,1:2|0:0,0:0:0:0:
414,221,137187,2,0,B|453:211|453:211|493:207,1,80,10|0,0:0|0:0,0:0:0:0:
501,101,137437,5,6,1:2:0:0:
501,101,137937,1,2,0:0:0:0:
501,101,138437,6,0,B|424:90|424:90|374:102,1,128,2|0,1:2|0:0,0:0:0:0:
300,65,138812,2,0,P|298:128|301:192,1,128,2|0,1:2|0:0,0:0:0:0:
378,178,139187,2,0,P|377:209|378:241,1,64,2|0,1:2|0:0,0:0:0:0:
414,305,139437,5,10,0:0:0:0:
347,335,139562,1,8,0:0:0:0:
279,305,139687,1,8,0:0:0:0:
244,239,139812,1,8,0:0:0:0:
177,271,139937,1,8,0:0:0:0:
135,210,140062,1,8,0:0:0:0:
189,160,140187,1,8,0:0:0:0:
71,301,140437,5,4,1:2:0:0:
203,197,157437,6,0,B|252:194|268:196|268:196|288:191|331:189,1,128,2|8,1:2|0:0,0:0:0:0:
403,203,157812,1,8,0:0:0:0:
394,60,158062,1,0,1:2:0:0:
394,60,158187,1,10,0:0:0:0:
403,203,158437,6,0,P|375:258|309:261,1,128,2|8,1:2|0:0,0:0:0:0:
242,285,158812,2,0,P|250:221|253:157,1,128,8|0,0:0|1:2,0:0:0:0:
241,86,159187,1,8,0:0:0:0:
241,86,159437,6,0,P|198:71|111:110,1,128,2|8,1:2|0:0,0:0:0:0:
78,161,159812,1,8,0:0:0:0:
95,23,160062,1,0,1:2:0:0:
95,23,160187,1,10,0:0:0:0:
78,161,160437,6,0,L|72:224,1,64,2|0,1:2|0:0,0:0:0:0:
113,289,160687,2,0,L|107:352,1,64,10|8,0:0|0:0,0:0:0:0:
38,293,161062,1,0,1:2:0:0:
38,293,161187,1,10,0:0:0:0:
144,220,161437,6,0,B|207:225|207:225|271:232,1,128,2|8,1:2|0:0,0:0:0:0:
344,240,161812,1,8,0:0:0:0:
356,102,162062,1,0,1:2:0:0:
356,102,162187,1,10,0:0:0:0:
344,240,162437,6,0,B|398:271|467:247,1,128,2|8,1:2|0:0,0:0:0:0:
508,185,162812,2,0,B|454:154|384:177,1,128,8|0,0:0|1:2,0:0:0:0:
312,169,163187,1,8,0:0:0:0:
312,169,163437,6,0,B|319:99|319:99|322:41,1,128,2|8,1:2|0:0,0:0:0:0:
250,32,163812,1,8,0:0:0:0:
237,165,164062,1,0,1:2:0:0:
237,165,164187,1,10,0:0:0:0:
250,32,164437,6,0,L|186:39,1,64,2|0,1:2|0:0,0:0:0:0:
118,74,164687,2,0,L|54:81,1,64,10|8,0:0|0:0,0:0:0:0:
125,0,165062,1,0,1:2:0:0:
125,0,165187,1,10,0:0:0:0:
186,116,165437,6,0,L|171:243,1,128,2|8,1:2|0:0,0:0:0:0:
162,320,165812,1,8,0:0:0:0:
310,299,166062,1,0,1:2:0:0:
310,299,166187,1,10,0:0:0:0:
161,320,166437,6,0,P|105:296|96:236,1,128,2|8,1:2|0:0,0:0:0:0:
117,163,166812,2,0,P|169:181|257:153,1,128,8|0,0:0|1:2,0:0:0:0:
314,179,167187,1,8,0:0:0:0:
314,179,167437,6,0,L|309:30,1,128,2|8,1:2|0:0,0:0:0:0:
385,57,167812,1,8,0:0:0:0:
237,67,168062,1,0,1:2:0:0:
237,67,168187,1,10,0:0:0:0:
385,57,168437,6,0,P|406:116|389:176,1,128,2|10,1:2|0:0,0:0:0:0:
329,138,168812,2,0,P|346:198|324:257,1,128,8|0,0:0|1:2,0:0:0:0:
338,334,169187,1,10,0:0:0:0:
338,334,169437,6,0,B|274:328|274:328|210:323,1,128,2|8,1:2|0:0,0:0:0:0:
136,318,169812,1,8,0:0:0:0:
155,176,170062,1,0,1:2:0:0:
155,176,170187,1,8,0:0:0:0:
136,318,170437,6,0,P|81:294|86:234,1,128,2|8,1:2|0:0,0:0:0:0:
79,159,170812,2,0,B|89:93|89:93|93:31,1,128,8|0,0:0|1:2,0:0:0:0:
169,43,171187,1,8,0:0:0:0:
169,43,171437,5,2,1:2:0:0:
171,124,171687,1,8,0:0:0:0:
171,124,171812,1,8,0:0:0:0:
158,200,172062,1,0,1:2:0:0:
158,200,172187,1,8,0:0:0:0:
166,339,172437,6,0,L|123:336,46,35.9999989013672
256,192,173937,12,0,177374,0:0:0:0:
257,213,179003,5,2,0:0:0:0:
257,213,179503,6,0,B|256:184|271:152|271:152|260:118|260:118|262:90|254:57,1,160,6|8,1:2|0:0,0:0:0:0:
345,203,179878,2,0,B|403:217|403:217|501:197,1,160,0|0,1:2|1:2,0:0:0:0:
378,55,180253,2,0,P|350:82|346:122,1,80,10|0,0:0|0:0,0:0:0:0:
313,284,180503,6,0,P|374:330|450:312,2,160,2|10|2,1:2|0:0|0:0,0:0:0:0:
269,148,181128,1,0,1:2:0:0:
260,224,181253,2,0,B|188:217|188:217|165:222|141:227,1,120,10|0,0:0|0:0,0:0:0:0:
111,272,181503,6,0,P|71:274|31:278,1,80,2|0,1:2|0:0,0:0:0:0:
138,144,181753,1,10,0:0:0:0:
155,70,181878,2,0,P|95:66|35:60,1,120,2|0,1:2|0:0,0:0:0:0:
71,47,182128,2,0,L|236:34,1,160,2|2,1:2|0:0,0:0:0:0:
368,106,182503,6,0,P|370:66|376:26,1,80,2|0,1:2|0:0,0:0:0:0:
293,135,182753,1,8,0:0:0:0:
237,189,182878,1,0,1:2:0:0:
297,239,183003,1,2,0:0:0:0:
355,186,183128,1,0,1:2:0:0:
432,179,183253,2,0,P|440:238|444:298,1,120,8|0,0:0|0:0,0:0:0:0:
437,312,183503,6,0,P|491:277|508:182,1,160,6|8,1:2|0:0,0:0:0:0:
444,56,183878,2,0,B|369:49|369:49|326:60,1,120,0|0,1:2|0:0,0:0:0:0:
277,79,184128,1,0,1:2:0:0:
207,59,184253,2,0,P|204:98|206:138,1,80,10|0,0:0|0:0,0:0:0:0:
200,282,184503,6,0,B|279:274|279:274|359:272,2,160,2|10|2,1:2|0:0|0:0,0:0:0:0:
206,138,185128,1,0,1:2:0:0:
258,197,185253,2,0,B|298:197|298:197|338:192,1,80,10|0,0:0|0:0,0:0:0:0:
250,67,185503,6,0,P|174:58|124:119,1,160,2|10,1:2|0:0,0:0:0:0:
47,95,185878,2,0,B|44:134|44:134|40:174,1,80,2|0,1:2|0:0,0:0:0:0:
114,193,186128,2,0,B|109:233|109:233|107:272,1,80,2|8,1:2|0:0,0:0:0:0:
37,302,186378,1,2,0:0:0:0:
107,366,186503,6,0,B|69:373|69:373|27:377,1,80,2|0,1:2|0:0,0:0:0:0:
173,319,186753,1,8,0:0:0:0:
248,306,186878,1,0,1:2:0:0:
323,323,187003,1,2,0:0:0:0:
398,309,187128,1,0,1:2:0:0:
474,319,187253,2,0,P|478:259|474:198,1,120,8|0,0:0|0:0,0:0:0:0:
448,155,187503,6,0,P|377:129|334:190,1,160,6|8,1:2|0:0,0:0:0:0:
216,267,187878,2,0,B|207:242|195:217|195:217|205:168|209:112,1,160,0|0,1:2|1:2,0:0:0:0:
71,169,188253,2,0,P|75:129|79:89,1,80,10|0,0:0|0:0,0:0:0:0:
195,11,188503,6,0,P|274:17|354:22,2,160,2|10|2,1:2|0:0|0:0,0:0:0:0:
209,112,189128,1,0,1:2:0:0:
183,184,189253,2,0,P|242:179|302:170,1,120,10|0,0:0|0:0,0:0:0:0:
346,200,189503,6,0,B|343:238|343:238|345:279,1,80,2|0,1:2|0:0,0:0:0:0:
477,284,189753,1,10,0:0:0:0:
425,225,189878,2,0,B|432:165|432:165|428:139|429:104,1,120,2|0,1:2|0:0,0:0:0:0:
449,83,190128,2,0,P|369:93|290:83,1,160,2|2,1:2|0:0,0:0:0:0:
204,9,190503,6,0,B|245:8|245:8|283:3,1,80,2|0,1:2|0:0,0:0:0:0:
214,86,190753,1,8,0:0:0:0:
139,93,190878,1,0,1:2:0:0:
74,54,191003,1,2,0:0:0:0:
23,109,191128,1,0,1:2:0:0:
86,152,191253,2,0,P|82:211|85:271,1,120,8|0,0:0|0:0,0:0:0:0:
33,293,191503,6,0,B|65:302|92:323|92:323|130:308|181:299,1,160,6|8,1:2|0:0,0:0:0:0:
312,352,191878,2,0,B|316:320|315:304|315:304|325:285|325:285|324:263|328:235,1,120,0|0,1:2|0:0,0:0:0:0:
315,209,192128,1,0,1:2:0:0:
244,237,192253,2,0,P|241:197|240:157,1,80,10|0,0:0|0:0,0:0:0:0:
402,108,192503,6,0,B|404:190|404:190|412:268,2,160,2|10|2,1:2|0:0|0:0,0:0:0:0:
454,51,193128,1,0,1:2:0:0:
397,0,193253,2,0,B|355:2|355:2|317:9,1,80,10|0,0:0|0:0,0:0:0:0:
205,36,193503,5,10,0:0:0:0:
213,112,193628,1,10,0:0:0:0:
203,189,193878,5,10,0:0:0:0:
203,189,194128,1,10,0:0:0:0:
190,265,194378,5,10,0:0:0:0:
198,340,194503,1,10,0:0:0:0:
198,340,195003,5,2,0:0:0:0:
190,265,195253,1,2,0:0:0:0:
270,291,195503,6,0,P|311:282|345:261,1,80,6|0,1:2|0:0,0:0:0:0:
368,112,195753,1,8,0:0:0:0:
368,112,195878,1,2,0:0:0:0:
394,194,196003,2,0,B|354:186|354:186|314:182,1,80,0|0,1:2|0:0,0:0:0:0:
181,185,196253,2,0,B|186:224|186:224|189:264,1,80,10|0,0:0|0:0,0:0:0:0:
61,229,196503,6,0,P|31:156|55:81,1,160,2|8,1:2|0:0,0:0:0:0:
184,31,196878,1,2,0:0:0:0:
254,63,197003,2,0,P|251:102|247:142,1,80,2|0,1:2|0:0,0:0:0:0:
378,144,197253,2,0,P|373:104|371:64,1,80,8|0,0:0|0:0,0:0:0:0:
278,223,197503,6,0,P|317:225|357:225,1,80,2|0,1:2|0:0,0:0:0:0:
424,311,197753,2,0,P|384:310|344:313,1,80,8|0,0:0|0:0,0:0:0:0:
442,231,198003,1,0,1:2:0:0:
442,231,198128,1,0,0:0:0:0:
512,219,198253,2,0,B|509:257|509:257|504:298,1,80,8|0,0:0|0:0,0:0:0:0:
384,141,198503,6,0,P|388:101|390:61,1,80,2|0,1:2|0:0,0:0:0:0:
298,169,198753,2,0,B|299:129|299:129|304:89,1,80,10|0,0:0|0:0,0:0:0:0:
405,163,199003,2,0,P|409:123|411:83,1,80,2|0,1:2|0:0,0:0:0:0:
278,192,199253,2,0,B|279:152|279:152|284:112,1,80,10|0,0:0|0:0,0:0:0:0:
163,69,199503,6,0,B|158:148|158:148|148:229,1,160,6|8,1:2|0:0,0:0:0:0:
0,210,199878,1,2,0:0:0:0:
73,204,200003,2,0,B|68:244|68:244|66:284,1,80,0|0,1:2|0:0,0:0:0:0:
186,365,200253,2,0,P|225:357|264:348,1,80,10|0,0:0|0:0,0:0:0:0:
271,207,200503,6,0,P|343:239|422:240,1,160,2|8,1:2|0:0,0:0:0:0:
435,100,200878,1,2,0:0:0:0:
505,136,201003,2,0,B|510:97|510:97|512:57,1,80,2|0,1:2|0:0,0:0:0:0:
359,58,201253,2,0,B|361:98|361:98|366:137,1,80,8|0,0:0|0:0,0:0:0:0:
296,258,201503,6,0,B|256:251|256:251|217:247,1,80,2|0,1:2|0:0,0:0:0:0:
242,89,201753,2,0,P|222:125|235:163,1,80,8|0,0:0|0:0,0:0:0:0:
138,288,202003,1,0,1:2:0:0:
138,288,202128,1,2,0:0:0:0:
60,296,202253,2,0,B|65:263|65:263|62:246|62:246|66:215,1,80,10|0,0:0|0:0,0:0:0:0:
51,40,202503,6,0,P|91:38|131:32,1,80,2|0,1:2|0:0,0:0:0:0:
82,122,202753,2,0,B|122:115|122:115|161:113,1,80,10|0,0:0|0:0,0:0:0:0:
77,17,203003,2,0,P|116:14|156:8,1,80,2|0,1:2|0:0,0:0:0:0:
64,145,203253,2,0,B|104:138|104:138|143:136,1,80,10|0,0:0|0:0,0:0:0:0:
245,47,203503,6,0,B|325:41|325:41|404:32,1,160,6|8,1:2|0:0,0:0:0:0:
422,165,203878,1,2,0:0:0:0:
496,141,204003,2,0,P|494:180|489:219,1,80,0|0,1:2|0:0,0:0:0:0:
358,251,204253,2,0,P|325:228|317:190,1,80,10|0,0:0|0:0,0:0:0:0:
331,58,204503,6,0,B|251:67|251:67|171:72,1,160,2|8,1:2|0:0,0:0:0:0:
21,70,204878,1,2,0:0:0:0:
62,9,205003,2,0,P|89:36|94:75,1,80,2|0,1:2|0:0,0:0:0:0:
49,194,205253,2,0,B|45:233|45:233|40:279,1,80,8|0,0:0|0:0,0:0:0:0:
111,362,205503,6,0,B|115:323|115:323|120:277,1,80,2|0,1:2|0:0,0:0:0:0:
126,152,205753,1,8,0:0:0:0:
126,152,205878,1,2,0:0:0:0:
163,218,206003,2,0,P|202:215|241:223,1,80,0|0,1:2|0:0,0:0:0:0:
361,332,206253,2,0,B|322:340|322:340|281:342,1,80,10|0,0:0|0:0,0:0:0:0:
346,216,206503,6,0,P|351:176|358:137,1,80,2|0,1:2|0:0,0:0:0:0:
433,233,206753,2,0,B|442:195|442:195|446:155,1,80,10|0,0:0|0:0,0:0:0:0:
323,193,207003,2,0,P|328:153|335:114,1,80,2|0,1:2|0:0,0:0:0:0:
465,218,207253,2,0,B|473:179|473:179|477:139,1,80,10|0,0:0|0:0,0:0:0:0:
356,30,207503,5,6,1:2:0:0:
356,30,208003,1,2,0:0:0:0:
356,30,208503,6,0,B|291:31|291:31|229:50,1,128,2|0,1:2|0:0,0:0:0:0:
161,8,208878,2,0,P|146:68|186:115,1,128,2|0,1:2|0:0,0:0:0:0:
257,187,209253,2,0,L|267:110,1,64,2|0,1:2|0:0,0:0:0:0:
181,193,209503,5,10,0:0:0:0:
195,268,209628,1,8,0:0:0:0:
266,297,209753,1,8,0:0:0:0:
309,360,209878,1,8,0:0:0:0:
375,320,210003,1,8,0:0:0:0:
400,247,210128,1,8,0:0:0:0:
379,177,210253,1,8,0:0:0:0:
388,0,210503,6,0,L|268:12,1,120.000004577637,6|2,0:0|0:0,0:0:0:0:
363,86,211003,2,0,L|243:98,1,120.000004577637,2|2,0:0|0:0,0:0:0:0:
48,45,211503,6,0,P|87:46|127:55,1,80,6|0,1:2|0:0,0:0:0:0:
154,213,211753,2,0,B|156:172|156:172|163:133,1,80,10|0,0:0|0:0,0:0:0:0:
65,204,212003,1,2,1:2:0:0:
24,266,212128,2,0,B|30:306|30:306|32:346,1,80,2|0,1:2|0:0,0:0:0:0:
175,330,212378,6,0,B|223:312|272:323|272:323|296:309|330:307,1,160,10|0,0:0|1:2,0:0:0:0:
467,344,212753,2,0,B|464:283|464:283|466:223,1,120,10|0,0:0|0:0,0:0:0:0:
474,189,213003,1,2,1:2:0:0:
398,183,213128,1,2,1:2:0:0:
329,215,213253,2,0,P|323:175|320:135,1,80,10|0,0:0|0:0,0:0:0:0:
409,60,213503,6,0,B|371:59|371:59|329:54,1,80,2|0,1:2|0:0,0:0:0:0:
182,19,213753,2,0,B|180:59|174:99,1,80,10|0,0:0|0:0,0:0:0:0:
160,250,214003,1,2,1:2:0:0:
130,180,214128,2,0,P|169:175|209:173,1,80,2|0,1:2|0:0,0:0:0:0:
255,273,214378,1,8,0:0:0:0:
207,331,214503,6,0,P|167:329|127:323,1,80,2|0,0:0|1:2,0:0:0:0:
79,251,214753,2,0,P|39:249|-1:243,1,80,10|0,0:0|0:0,0:0:0:0:
168,359,215003,2,0,P|128:357|89:352,1,80,2|0,1:2|1:2,0:0:0:0:
118,223,215253,2,0,P|79:222|39:216,1,80,10|0,0:0|0:0,0:0:0:0:
202,278,215503,6,0,P|202:238|209:198,1,80,6|0,1:2|0:0,0:0:0:0:
296,109,215753,2,0,B|256:119|256:119|239:111|219:106,1,80,10|0,0:0|0:0,0:0:0:0:
287,258,216003,1,2,1:2:0:0:
362,244,216128,2,0,B|402:234|402:234|419:242|438:246,1,80,2|0,1:2|0:0,0:0:0:0:
512,144,216378,6,0,B|432:137|432:137|415:153|354:164,1,160,10|0,0:0|1:2,0:0:0:0:
337,32,216753,2,0,P|277:28|217:23,1,120,10|0,0:0|0:0,0:0:0:0:
181,18,217003,1,2,1:2:0:0:
107,36,217128,1,2,1:2:0:0:
71,103,217253,2,0,B|75:140|75:140|79:181,1,80,10|0,0:0|0:0,0:0:0:0:
85,301,217503,6,0,B|44:292|44:292|8:303,1,80,2|0,1:2|0:0,0:0:0:0:
159,243,217753,2,0,L|321:268,1,160,10|2,0:0|1:2,0:0:0:0:
374,331,218128,1,2,1:2:0:0:
442,280,218253,2,0,P|438:240|436:200,1,80,2|8,0:0|0:0,0:0:0:0:
359,64,218503,6,0,B|357:103|357:103|361:143,1,80,2|0,0:0|1:2,0:0:0:0:
444,7,218753,2,0,B|448:46|448:46|446:86,1,80,10|0,0:0|0:0,0:0:0:0:
333,39,219003,2,0,B|331:78|331:78|335:118,1,80,2|0,1:2|1:2,0:0:0:0:
470,36,219253,2,0,B|474:75|474:75|472:115,1,80,10|0,0:0|0:0,0:0:0:0:
366,221,219503,6,0,P|325:221|286:212,1,80,6|0,1:2|0:0,0:0:0:0:
170,135,219753,2,0,P|209:132|249:129,1,80,10|0,0:0|0:0,0:0:0:0:
192,236,220003,1,2,1:2:0:0:
214,313,220128,2,0,P|174:309|134:307,1,80,2|0,1:2|0:0,0:0:0:0:
35,202,220378,6,0,B|51:122|51:122|59:44,1,160,10|0,0:0|1:2,0:0:0:0:
197,23,220753,2,0,P|255:34|314:44,1,120,10|0,0:0|0:0,0:0:0:0:
349,51,221003,1,2,1:2:0:0:
424,33,221128,1,2,1:2:0:0:
405,109,221253,2,0,P|401:155|402:190,1,80,10|0,0:0|0:0,0:0:0:0:
443,318,221503,6,0,B|481:300|481:300|504:271,1,80,2|0,1:2|0:0,0:0:0:0:
365,270,221753,2,0,L|197:299,1,160,10|2,0:0|1:2,0:0:0:0:
127,314,222128,1,2,1:2:0:0:
49,291,222253,2,0,P|59:253|67:214,1,80,2|8,0:0|0:0,0:0:0:0:
112,54,222503,6,0,L|210:46,1,80,2|0,1:2|1:2,0:0:0:0:
149,133,222753,2,0,L|247:125,1,80,10|0,0:0|0:0,0:0:0:0:
137,22,223003,2,0,L|235:14,1,80,2|0,1:2|1:2,0:0:0:0:
121,162,223253,2,0,L|200:155,1,80,10|0,0:0|0:0,0:0:0:0:
330,239,223503,6,0,B|386:223|386:223|419:238|419:238|447:231|484:229,2,160,6|8|2,1:2|0:0|1:2,0:0:0:0:
331,160,224128,2,0,P|326:120|329:80,1,80,2|0,1:2|0:0,0:0:0:0:
261,199,224378,1,10,0:0:0:0:
192,234,224503,6,0,P|197:274|194:314,1,80,2|0,0:0|1:2,0:0:0:0:
39,333,224753,2,0,P|34:273|42:213,1,120,10|0,0:0|0:0,0:0:0:0:
65,186,225003,1,2,1:2:0:0:
116,244,225128,1,2,1:2:0:0:
139,169,225253,2,0,B|136:129|136:129|141:89,1,80,10|0,0:0|0:0,0:0:0:0:
266,32,225503,6,0,B|296:27|308:30|308:30|319:26|345:24,1,80,2|0,1:2|0:0,0:0:0:0:
230,121,225753,2,0,B|255:118|267:115|267:115|279:117|309:113,1,80,10|0,0:0|0:0,0:0:0:0:
457,100,226003,1,2,1:2:0:0:
387,144,226128,2,0,P|390:183|401:222,1,80,2|0,1:2|0:0,0:0:0:0:
482,341,226378,1,10,0:0:0:0:
412,302,226503,6,0,B|372:296|372:296|332:296,1,80,2|0,0:0|1:2,0:0:0:0:
181,343,226753,2,0,L|285:355,1,80,10|0,0:0|0:0,0:0:0:0:
281,222,227003,2,0,L|201:212,1,80,2|0,1:2|1:2,0:0:0:0:
57,250,227253,2,0,B|95:261|95:261|135:266,1,80,10|0,0:0|0:0,0:0:0:0:
238,116,227503,5,6,1:2:0:0:
238,116,228253,1,2,0:0:0:0:
238,116,228503,2,0,P|158:124|79:136,2,160,2|2|2,0:0|0:0|0:0,0:0:0:0:
238,116,230503,6,0,B|235:75|235:75|241:33,1,80,2|2,0:0|0:0,0:0:0:0:
318,40,231003,2,0,B|321:81|321:81|315:123,1,80,2|2,0:0|0:0,0:0:0:0:
273,187,231503,1,2,0:0:0:0:
273,187,232253,5,2,0:0:0:0:
315,119,232503,2,0,P|394:123|474:120,2,160,2|2|2,0:0|0:0|0:0,0:0:0:0:
315,119,234253,5,2,0:0:0:0:
243,93,234503,2,0,L|246:183,1,80,2|2,0:0|0:0,0:0:0:0:
307,221,235003,2,0,P|307:260|310:300,1,80,2|2,0:0|0:0,0:0:0:0:
254,351,235503,1,2,0:0:0:0:
254,351,236253,5,2,0:0:0:0:
191,308,236503,2,0,P|185:229|190:149,2,160,2|2|2,0:0|0:0|0:0,0:0:0:0:
191,308,238253,5,2,0:0:0:0:
229,238,238503,2,0,P|234:199|229:152,1,80,2|2,0:0|0:0,0:0:0:0:
151,159,239003,2,0,P|147:198|152:238,1,80,2|2,0:0|0:0,0:0:0:0:
191,308,239503,6,0,P|267:309|308:244,1,160,2|2,0:0|0:0,0:0:0:0:
368,175,240503,2,0,P|298:143|288:67,1,160,2|2,0:0|0:0,0:0:0:0:
256,192,241503,12,0,242503,0:0:0:0:
