osu file format v14

[General]
AudioFilename: audio.mp3
AudioLeadIn: 0
PreviewTime: 47298
Countdown: 0
SampleSet: Soft
StackLeniency: 0.7
Mode: 3
LetterboxInBreaks: 0
SpecialStyle: 0
WidescreenStoryboard: 1

[Editor]
DistanceSpacing: 1.4
BeatDivisor: 4
GridSize: 32
TimelineZoom: 0.9000001

[Metadata]
Title:Kyunrious (TV Size)
TitleUnicode:キュンリアス (TV Size)
Artist:Kaede Higuchi
ArtistUnicode:樋口楓
Creator:SReisen
Version:HS
Source:転生したら第七王子だったので、気ままに魔術を極めます
Tags:I Was Reincarnated as the 7th Prince so I Can Take My Time Perfecting My Magical Ability Sasa Ando Hajime Mitsumasu opening op japanese j-pop jpop Kaederon かえでろーん Deron でろーん Shu Tensei shitara Dainana Ouji Datta node, Kimama ni Majutsu wo Kiwamemasu shikinohollow
BeatmapID:4576013
BeatmapSetID:2164393

[Difficulty]
HPDrainRate:6.5
CircleSize:5
OverallDifficulty:6.5
ApproachRate:5
SliderMultiplier:1.4
SliderTickRate:1

[Events]
//Background and Video events
0,0,"bg.jpg",0,0
Video,-30,"intro.mp4"
//Break Periods
//Storyboard Layer 0 (Background)
//Storyboard Layer 1 (Fail)
//Storyboard Layer 2 (Pass)
//Storyboard Layer 3 (Foreground)
//Storyboard Layer 4 (Overlay)
//Storyboard Sound Samples

[TimingPoints]
182,368.098159509202,4,2,1,40,1,0
47298,-100,4,2,1,40,0,1
70672,-100,4,2,1,40,0,0
84660,413.793103448276,4,2,1,40,1,0
84660,-89.2857142857143,4,2,1,40,0,0

[HitObjects]
64,192,4875,5,2,0:0:0:0:
64,192,5151,1,2,0:0:0:0:
64,192,5335,1,2,0:0:0:0:
64,192,5519,1,2,0:0:0:0:
64,192,5611,1,2,0:0:0:0:
64,192,5795,1,2,0:0:0:0:
256,192,5887,1,8,0:0:0:0:
64,192,5979,1,2,0:0:0:0:
64,192,6071,1,2,0:0:0:0:
448,192,6071,1,4,0:0:0:0:
64,192,6347,1,2,0:0:0:0:
256,192,6439,1,8,0:0:0:0:
64,192,6623,1,2,0:0:0:0:
64,192,6991,1,2,0:0:0:0:
256,192,7175,1,8,0:0:0:0:
64,192,7543,1,2,0:0:0:0:
64,192,7820,1,2,0:0:0:0:
256,192,7912,1,8,0:0:0:0:
64,192,8096,1,2,0:0:0:0:
64,192,8464,1,2,0:0:0:0:
256,192,8648,1,8,0:0:0:0:
64,192,8740,1,2,0:0:0:0:
64,192,9016,1,2,0:0:0:0:
64,192,9292,1,2,0:0:0:0:
256,192,9384,1,8,0:0:0:0:
64,192,9568,1,2,0:0:0:0:
64,192,9936,1,2,0:0:0:0:
256,192,10120,1,8,0:0:0:0:
64,192,10488,1,2,0:0:0:0:
64,192,10764,1,2,0:0:0:0:
256,192,10856,1,8,0:0:0:0:
64,192,11040,1,2,0:0:0:0:
256,192,11132,1,8,0:0:0:0:
256,192,11224,1,8,0:0:0:0:
256,192,11316,1,8,0:0:0:0:
64,192,11408,1,2,0:0:0:0:
64,192,11501,1,2,0:0:0:0:
64,192,11593,1,2,0:0:0:0:
64,192,11777,1,2,0:0:0:0:
448,192,11777,1,4,0:0:0:0:
64,192,12145,1,2,0:0:0:0:
256,192,12329,1,8,0:0:0:0:
256,192,12697,1,8,0:0:0:0:
64,192,12881,1,2,0:0:0:0:
256,192,13065,1,8,0:0:0:0:
64,192,13249,1,2,0:0:0:0:
256,192,13433,1,8,0:0:0:0:
64,192,13617,1,2,0:0:0:0:
256,192,13801,1,8,0:0:0:0:
64,192,13985,1,2,0:0:0:0:
256,192,14169,1,8,0:0:0:0:
64,192,14353,1,2,0:0:0:0:
256,192,14537,1,8,0:0:0:0:
64,192,14721,1,2,0:0:0:0:
256,192,14905,1,8,0:0:0:0:
256,192,15274,1,8,0:0:0:0:
64,192,15458,1,2,0:0:0:0:
256,192,15642,1,8,0:0:0:0:
64,192,15826,1,2,0:0:0:0:
256,192,16010,1,8,0:0:0:0:
64,192,16194,1,2,0:0:0:0:
256,192,16378,1,8,0:0:0:0:
64,192,16562,1,2,0:0:0:0:
256,192,16746,1,8,0:0:0:0:
64,192,16930,1,2,0:0:0:0:
256,192,17114,1,8,0:0:0:0:
64,192,17206,1,2,0:0:0:0:
64,192,17390,1,2,0:0:0:0:
256,192,17482,1,8,0:0:0:0:
64,192,17666,1,2,0:0:0:0:
448,192,17666,1,4,0:0:0:0:
64,192,18034,1,2,0:0:0:0:
256,192,18218,1,8,0:0:0:0:
256,192,18586,1,8,0:0:0:0:
64,192,18770,1,2,0:0:0:0:
256,192,18955,1,8,0:0:0:0:
64,192,19139,1,2,0:0:0:0:
256,192,19323,1,8,0:0:0:0:
64,192,19507,1,2,0:0:0:0:
256,192,19691,1,8,0:0:0:0:
64,192,19875,1,2,0:0:0:0:
256,192,20059,1,8,0:0:0:0:
64,192,20243,1,2,0:0:0:0:
256,192,20427,1,8,0:0:0:0:
64,192,20611,1,2,0:0:0:0:
256,192,20795,1,8,0:0:0:0:
64,192,20979,1,2,0:0:0:0:
256,192,21163,1,8,0:0:0:0:
64,192,21347,1,2,0:0:0:0:
256,192,21531,1,8,0:0:0:0:
64,192,21899,1,2,0:0:0:0:
256,192,22083,1,8,0:0:0:0:
64,192,22267,1,2,0:0:0:0:
256,192,22451,1,8,0:0:0:0:
64,192,22635,1,2,0:0:0:0:
256,192,22635,1,8,0:0:0:0:
256,192,22820,1,8,0:0:0:0:
64,192,23004,1,2,0:0:0:0:
256,192,23096,1,8,0:0:0:0:
256,192,23188,1,8,0:0:0:0:
256,192,23280,1,8,0:0:0:0:
256,192,23372,1,8,0:0:0:0:
64,192,23556,1,2,0:0:0:0:
448,192,23556,1,4,0:0:0:0:
64,192,23924,1,2,0:0:0:0:
256,192,24108,1,8,0:0:0:0:
256,192,24384,1,8,0:0:0:0:
64,192,24476,1,2,0:0:0:0:
64,192,24660,1,2,0:0:0:0:
256,192,24844,1,8,0:0:0:0:
64,192,25028,1,2,0:0:0:0:
64,192,25396,1,2,0:0:0:0:
256,192,25580,1,8,0:0:0:0:
64,192,25948,1,2,0:0:0:0:
64,192,26132,1,2,0:0:0:0:
256,192,26316,1,8,0:0:0:0:
64,192,26501,1,2,0:0:0:0:
64,192,26869,1,2,0:0:0:0:
256,192,27053,1,8,0:0:0:0:
256,192,27329,1,8,0:0:0:0:
64,192,27421,1,2,0:0:0:0:
64,192,27605,1,2,0:0:0:0:
256,192,27789,1,8,0:0:0:0:
64,192,27973,1,2,0:0:0:0:
64,192,28341,1,2,0:0:0:0:
256,192,28525,1,8,0:0:0:0:
64,192,28893,1,2,0:0:0:0:
64,192,29077,1,2,0:0:0:0:
256,192,29261,1,8,0:0:0:0:
64,192,29445,1,2,0:0:0:0:
448,192,29445,1,4,0:0:0:0:
64,192,29813,1,2,0:0:0:0:
256,192,29997,1,8,0:0:0:0:
256,192,30274,1,8,0:0:0:0:
64,192,30366,1,2,0:0:0:0:
64,192,30550,1,2,0:0:0:0:
256,192,30734,1,8,0:0:0:0:
64,192,30918,1,2,0:0:0:0:
64,192,31286,1,2,0:0:0:0:
256,192,31470,1,8,0:0:0:0:
64,192,31838,1,2,0:0:0:0:
64,192,32022,1,2,0:0:0:0:
256,192,32206,1,8,0:0:0:0:
64,192,32390,1,2,0:0:0:0:
64,192,32758,1,2,0:0:0:0:
256,192,32942,1,8,0:0:0:0:
64,192,33310,1,2,0:0:0:0:
64,192,33494,1,2,0:0:0:0:
256,192,33678,1,8,0:0:0:0:
64,192,33862,1,2,0:0:0:0:
64,192,34231,1,2,0:0:0:0:
256,192,34415,1,8,0:0:0:0:
64,192,34599,1,2,0:0:0:0:
64,192,34967,1,2,0:0:0:0:
64,192,35151,1,2,0:0:0:0:
64,192,35335,1,2,0:0:0:0:
64,192,35519,1,2,0:0:0:0:
256,192,35519,1,8,0:0:0:0:
256,192,36255,1,8,0:0:0:0:
64,192,36255,1,2,0:0:0:0:
64,192,36531,1,2,0:0:0:0:
256,192,36531,1,8,0:0:0:0:
256,192,36807,1,8,0:0:0:0:
64,192,36807,1,2,0:0:0:0:
460,192,37359,1,4,0:0:0:0:
64,192,37728,1,2,0:0:0:0:
448,192,37728,1,4,0:0:0:0:
64,192,38004,1,2,0:0:0:0:
64,192,38280,1,2,0:0:0:0:
256,192,38280,1,8,0:0:0:0:
256,192,38832,1,8,0:0:0:0:
64,192,39200,1,2,0:0:0:0:
448,192,39200,1,4,0:0:0:0:
64,192,39476,1,2,0:0:0:0:
256,192,39752,1,8,0:0:0:0:
64,192,39752,1,2,0:0:0:0:
64,192,40120,1,2,0:0:0:0:
256,192,40304,1,8,0:0:0:0:
64,192,40672,1,2,0:0:0:0:
64,192,40948,1,2,0:0:0:0:
64,192,41224,1,2,0:0:0:0:
448,192,41224,1,4,0:0:0:0:
256,192,42145,1,8,0:0:0:0:
64,192,42697,1,2,0:0:0:0:
64,192,43433,1,2,0:0:0:0:
256,192,43617,1,8,0:0:0:0:
64,192,44169,1,2,0:0:0:0:
448,192,44169,1,4,0:0:0:0:
64,192,44537,1,2,0:0:0:0:
256,192,44721,1,8,0:0:0:0:
64,192,45089,1,2,0:0:0:0:
64,192,45274,1,2,0:0:0:0:
64,192,45458,1,2,0:0:0:0:
256,192,45642,1,8,0:0:0:0:
64,192,45826,1,2,0:0:0:0:
256,192,46010,1,8,0:0:0:0:
64,192,46010,1,2,0:0:0:0:
64,192,46194,1,2,0:0:0:0:
256,192,46194,1,8,0:0:0:0:
256,192,46378,1,8,0:0:0:0:
64,192,46378,1,2,0:0:0:0:
64,192,46930,1,2,0:0:0:0:
64,192,47298,1,2,0:0:0:0:
448,192,47298,1,4,0:0:0:0:
256,192,47666,1,8,0:0:0:0:
256,192,47942,1,8,0:0:0:0:
64,192,48034,1,2,0:0:0:0:
256,192,48402,1,8,0:0:0:0:
64,192,48770,1,2,0:0:0:0:
256,192,49139,1,8,0:0:0:0:
64,192,49507,1,2,0:0:0:0:
256,192,49875,1,8,0:0:0:0:
64,192,50243,1,2,0:0:0:0:
256,192,50611,1,8,0:0:0:0:
256,192,50887,1,8,0:0:0:0:
64,192,50979,1,2,0:0:0:0:
256,192,51347,1,8,0:0:0:0:
64,192,51715,1,2,0:0:0:0:
256,192,52083,1,8,0:0:0:0:
64,192,52451,1,2,0:0:0:0:
51,192,52635,1,2,0:0:0:0:
256,192,52820,1,8,0:0:0:0:
64,192,53188,1,2,0:0:0:0:
256,192,53556,1,8,0:0:0:0:
256,192,53832,1,8,0:0:0:0:
64,192,53924,1,2,0:0:0:0:
256,192,54292,1,8,0:0:0:0:
64,192,54660,1,2,0:0:0:0:
256,192,55028,1,8,0:0:0:0:
256,192,55304,1,8,0:0:0:0:
64,192,55396,1,2,0:0:0:0:
256,192,55764,1,8,0:0:0:0:
64,192,56132,1,2,0:0:0:0:
256,192,56501,1,8,0:0:0:0:
64,192,56869,1,2,0:0:0:0:
256,192,57237,1,8,0:0:0:0:
256,192,57421,1,8,0:0:0:0:
64,192,57421,1,2,0:0:0:0:
64,192,57605,1,2,0:0:0:0:
256,192,57789,1,8,0:0:0:0:
64,192,57789,1,2,0:0:0:0:
256,192,57973,1,8,0:0:0:0:
64,192,57973,1,2,0:0:0:0:
256,192,58157,1,8,0:0:0:0:
64,192,58157,1,2,0:0:0:0:
64,192,58341,1,2,0:0:0:0:
256,192,58525,1,8,0:0:0:0:
64,192,58525,1,2,0:0:0:0:
256,192,58709,1,8,0:0:0:0:
64,192,58709,1,2,0:0:0:0:
448,192,59077,1,4,0:0:0:0:
64,192,59077,1,2,0:0:0:0:
256,192,59445,1,8,0:0:0:0:
256,192,59721,1,8,0:0:0:0:
64,192,59813,1,2,0:0:0:0:
256,192,60181,1,8,0:0:0:0:
64,192,60550,1,2,0:0:0:0:
256,192,60918,1,8,0:0:0:0:
64,192,61286,1,2,0:0:0:0:
256,192,61654,1,8,0:0:0:0:
256,192,61930,1,8,0:0:0:0:
64,192,62022,1,2,0:0:0:0:
256,192,62390,1,8,0:0:0:0:
256,192,62666,1,8,0:0:0:0:
64,192,62758,1,2,0:0:0:0:
256,192,63126,1,8,0:0:0:0:
64,192,63494,1,2,0:0:0:0:
256,192,63862,1,8,0:0:0:0:
256,192,64139,1,8,0:0:0:0:
64,192,64231,1,2,0:0:0:0:
64,192,64415,1,2,0:0:0:0:
256,192,64599,1,8,0:0:0:0:
64,192,64783,1,2,0:0:0:0:
448,192,64783,1,4,0:0:0:0:
256,192,65059,1,8,0:0:0:0:
64,192,65151,1,2,0:0:0:0:
256,192,65335,1,8,0:0:0:0:
256,192,65611,1,8,0:0:0:0:
64,192,65703,1,2,0:0:0:0:
64,192,65887,1,2,0:0:0:0:
256,192,66071,1,8,0:0:0:0:
64,192,66255,1,2,0:0:0:0:
256,192,66531,1,8,0:0:0:0:
64,192,66623,1,2,0:0:0:0:
256,192,66807,1,8,0:0:0:0:
256,192,66991,1,8,0:0:0:0:
64,192,67175,1,2,0:0:0:0:
64,192,67451,1,2,0:0:0:0:
256,192,67543,1,8,0:0:0:0:
64,192,67728,1,2,0:0:0:0:
256,192,68004,1,8,0:0:0:0:
64,192,68096,1,2,0:0:0:0:
256,192,68280,1,8,0:0:0:0:
256,192,68556,1,8,0:0:0:0:
64,192,68648,1,2,0:0:0:0:
64,192,68832,1,2,0:0:0:0:
256,192,69016,1,8,0:0:0:0:
64,192,69200,1,2,0:0:0:0:
448,192,69200,1,4,0:0:0:0:
64,192,69568,1,2,0:0:0:0:
256,192,69752,1,8,0:0:0:0:
256,192,69936,1,8,0:0:0:0:
256,192,70028,1,8,0:0:0:0:
256,192,70120,1,8,0:0:0:0:
256,192,70212,1,8,0:0:0:0:
64,192,70304,1,2,0:0:0:0:
64,192,70488,1,2,0:0:0:0:
64,192,70672,1,2,0:0:0:0:
64,192,72145,1,2,0:0:0:0:
256,192,72145,1,8,0:0:0:0:
64,192,72513,1,2,0:0:0:0:
256,192,72513,1,8,0:0:0:0:
64,192,72881,1,2,0:0:0:0:
256,192,72881,1,8,0:0:0:0:
256,192,73065,1,8,0:0:0:0:
64,192,73065,1,2,0:0:0:0:
64,192,73433,1,2,0:0:0:0:
448,192,73801,1,4,0:0:0:0:
64,192,73801,1,2,0:0:0:0:
256,192,74169,1,8,0:0:0:0:
256,192,74905,1,8,0:0:0:0:
64,192,75274,1,2,0:0:0:0:
64,192,75550,1,2,0:0:0:0:
256,192,75642,1,8,0:0:0:0:
64,192,76194,1,2,0:0:0:0:
256,192,76378,1,8,0:0:0:0:
64,192,76746,1,2,0:0:0:0:
256,192,77114,1,8,0:0:0:0:
64,192,77666,1,2,0:0:0:0:
256,192,77850,1,8,0:0:0:0:
64,192,78218,1,2,0:0:0:0:
64,192,78494,1,2,0:0:0:0:
256,192,78586,1,8,0:0:0:0:
64,192,78770,1,2,0:0:0:0:
64,192,79139,1,2,0:0:0:0:
256,192,79323,1,8,0:0:0:0:
64,192,79691,1,2,0:0:0:0:
448,192,79691,1,4,0:0:0:0:
64,192,79967,1,2,0:0:0:0:
256,192,80059,1,8,0:0:0:0:
64,192,80243,1,2,0:0:0:0:
64,192,80611,1,2,0:0:0:0:
256,192,80795,1,8,0:0:0:0:
64,192,81163,1,2,0:0:0:0:
64,192,81439,1,2,0:0:0:0:
256,192,81531,1,8,0:0:0:0:
64,192,81715,1,2,0:0:0:0:
64,192,82083,1,2,0:0:0:0:
256,192,82267,1,8,0:0:0:0:
64,192,82635,1,2,0:0:0:0:
64,192,82912,1,2,0:0:0:0:
256,192,83004,1,8,0:0:0:0:
64,192,83188,1,2,0:0:0:0:
64,192,83556,1,2,0:0:0:0:
256,192,83740,1,8,0:0:0:0:
256,192,83924,1,8,0:0:0:0:
448,192,83924,1,4,0:0:0:0:
64,192,84108,1,2,0:0:0:0:
64,192,84292,1,2,0:0:0:0:
256,192,84384,1,8,0:0:0:0:
64,192,84476,1,2,0:0:0:0:
51,192,84660,1,2,0:0:0:0:
64,192,84866,1,2,0:0:0:0:
64,192,85073,1,2,0:0:0:0:
256,192,85073,1,8,0:0:0:0:
64,192,85487,1,2,0:0:0:0:
448,192,85487,1,4,0:0:0:0:
