osu file format v14

[General]
AudioFilename: audio.mp3
AudioLeadIn: 0
PreviewTime: 47298
Countdown: 0
SampleSet: Soft
StackLeniency: 0.7
Mode: 3
LetterboxInBreaks: 0
SpecialStyle: 0
WidescreenStoryboard: 1

[Editor]
DistanceSpacing: 1.4
BeatDivisor: 4
GridSize: 32
TimelineZoom: 1

[Metadata]
Title:Kyunrious (TV Size)
TitleUnicode:キュンリアス (TV Size)
Artist:Kaede Higuchi
ArtistUnicode:樋口楓
Creator:SReisen
Version:HD
Source:転生したら第七王子だったので、気ままに魔術を極めます
Tags:I Was Reincarnated as the 7th Prince so I Can Take My Time Perfecting My Magical Ability Sasa Ando Hajime Mitsumasu opening op japanese j-pop jpop Kaederon かえでろーん Deron でろーん Shu Tensei shitara Dainana Ouji Datta node, Kimama ni Majutsu wo Kiwamemasu shikinohollow
BeatmapID:4565272
BeatmapSetID:2164393

[Difficulty]
HPDrainRate:7.5
CircleSize:4
OverallDifficulty:7.5
ApproachRate:5
SliderMultiplier:1.4
SliderTickRate:1

[Events]
//Background and Video events
0,0,"bg.jpg",0,0
Video,-30,"intro.mp4"
//Break Periods
//Storyboard Layer 0 (Background)
//Storyboard Layer 1 (Fail)
//Storyboard Layer 2 (Pass)
//Storyboard Layer 3 (Foreground)
//Storyboard Layer 4 (Overlay)
//Storyboard Sound Samples

[TimingPoints]
182,368.098159509202,4,2,1,30,1,0
35519,-80,4,2,1,30,0,0
35703,-117.647058823529,4,2,1,30,0,0
35887,-100,4,2,1,30,0,0
36254,-117.647058823529,4,2,1,30,0,0
36439,-80,4,2,1,30,0,0
36531,-117.647058823529,4,2,1,30,0,0
36623,-80,4,2,1,30,0,0
36715,-117.647058823529,4,2,1,30,0,0
36807,-100,4,2,1,30,0,0
37728,-117.647058823529,4,2,1,30,0,0
37912,-80,4,2,1,30,0,0
38004,-117.647058823529,4,2,1,30,0,0
38096,-80,4,2,1,30,0,0
38188,-117.647058823529,4,2,1,30,0,0
38280,-100,4,2,1,30,0,0
39200,-117.647058823529,4,2,1,30,0,0
39384,-80,4,2,1,30,0,0
39476,-117.647058823529,4,2,1,30,0,0
39568,-80,4,2,1,30,0,0
39660,-117.647058823529,4,2,1,30,0,0
39752,-100,4,2,1,30,0,0
40672,-117.647058823529,4,2,1,30,0,0
40856,-80,4,2,1,30,0,0
40948,-117.647058823529,4,2,1,30,0,0
41040,-80,4,2,1,30,0,0
41132,-117.647058823529,4,2,1,30,0,0
41224,-100,4,2,1,30,0,0
46378,-80,4,2,1,30,0,0
46746,-117.647058823529,4,2,1,30,0,0
46930,-100,4,2,1,30,0,0
47298,-100,4,2,1,30,0,1
70672,-100,4,2,1,30,0,0
72145,-80,4,2,1,30,0,0
72329,-117.647058823529,4,2,1,30,0,0
72513,-80,4,2,1,30,0,0
72697,-117.647058823529,4,2,1,30,0,0
72881,-100,4,2,1,30,0,0
84660,413.793103448276,4,2,1,30,1,0
84660,-89.2857142857143,4,2,1,30,0,0

[HitObjects]
320,192,182,128,0,366:0:0:0:0:
320,192,734,128,0,1102:0:0:0:0:
64,192,1102,1,0,0:0:0:0:
448,192,1286,128,0,1470:0:0:0:0:
320,192,1470,1,0,0:0:0:0:
192,192,1562,1,0,0:0:0:0:
64,192,1654,128,0,1838:0:0:0:0:
448,192,2022,1,0,0:0:0:0:
320,192,2206,128,0,2574:0:0:0:0:
192,192,2574,1,0,0:0:0:0:
64,192,2758,128,0,2942:0:0:0:0:
192,192,2942,1,0,0:0:0:0:
320,192,3034,1,0,0:0:0:0:
448,192,3126,128,0,3310:0:0:0:0:
320,192,3494,1,0,0:0:0:0:
192,192,3678,128,0,4047:0:0:0:0:
64,192,4047,1,0,0:0:0:0:
448,192,4231,128,0,4415:0:0:0:0:
320,192,4415,1,0,0:0:0:0:
192,192,4507,1,0,0:0:0:0:
64,192,4599,128,0,4783:0:0:0:0:
320,192,4875,1,2,0:0:0:0:
192,192,5151,1,2,0:0:0:0:
448,192,5151,128,0,5519:0:0:0:0:
64,192,5335,1,2,0:0:0:0:
320,192,5519,1,2,0:0:0:0:
192,192,5611,1,2,0:0:0:0:
448,192,5795,1,2,0:0:0:0:
64,192,5887,1,8,0:0:0:0:
192,192,5979,1,2,0:0:0:0:
64,192,6071,1,2,0:0:0:0:
320,192,6071,1,4,0:0:0:0:
448,192,6071,1,0,0:0:0:0:
192,192,6255,1,0,0:0:0:0:
64,192,6347,1,2,0:0:0:0:
320,192,6439,1,8,0:0:0:0:
448,192,6439,1,0,0:0:0:0:
64,192,6623,1,2,0:0:0:0:
192,192,6623,1,0,0:0:0:0:
320,192,6807,1,0,0:0:0:0:
192,192,6991,1,2,0:0:0:0:
448,192,6991,1,0,0:0:0:0:
64,192,7175,1,8,0:0:0:0:
320,192,7175,1,0,0:0:0:0:
192,192,7359,1,0,0:0:0:0:
320,192,7543,1,2,0:0:0:0:
448,192,7543,1,0,0:0:0:0:
64,192,7728,1,0,0:0:0:0:
192,192,7820,1,2,0:0:0:0:
64,192,7912,1,8,0:0:0:0:
448,192,7912,1,0,0:0:0:0:
192,192,8096,1,2,0:0:0:0:
320,192,8096,1,0,0:0:0:0:
448,192,8280,1,0,0:0:0:0:
64,192,8464,1,2,0:0:0:0:
320,192,8464,1,0,0:0:0:0:
192,192,8648,1,8,0:0:0:0:
448,192,8648,1,0,0:0:0:0:
320,192,8740,1,2,0:0:0:0:
192,192,8832,1,0,0:0:0:0:
64,192,9016,1,2,0:0:0:0:
448,192,9016,1,0,0:0:0:0:
192,192,9200,1,0,0:0:0:0:
320,192,9292,1,2,0:0:0:0:
64,192,9384,1,8,0:0:0:0:
192,192,9384,1,0,0:0:0:0:
64,192,9568,1,2,0:0:0:0:
448,192,9568,1,0,0:0:0:0:
192,192,9752,1,0,0:0:0:0:
320,192,9936,1,2,0:0:0:0:
448,192,9936,1,0,0:0:0:0:
64,192,10120,1,8,0:0:0:0:
192,192,10120,1,0,0:0:0:0:
320,192,10304,1,0,0:0:0:0:
64,192,10488,1,2,0:0:0:0:
448,192,10488,1,0,0:0:0:0:
320,192,10672,1,0,0:0:0:0:
192,192,10764,1,2,0:0:0:0:
320,192,10856,1,8,0:0:0:0:
448,192,10856,1,0,0:0:0:0:
64,192,11040,1,2,0:0:0:0:
192,192,11040,1,0,0:0:0:0:
448,192,11132,1,8,0:0:0:0:
320,192,11224,1,8,0:0:0:0:
192,192,11316,1,8,0:0:0:0:
64,192,11408,1,2,0:0:0:0:
448,192,11408,1,0,0:0:0:0:
320,192,11501,1,2,0:0:0:0:
192,192,11593,1,2,0:0:0:0:
320,192,11685,1,0,0:0:0:0:
64,192,11777,128,2,12145:0:0:0:0:
192,192,11777,1,4,0:0:0:0:
448,192,11777,1,0,0:0:0:0:
192,192,12145,1,2,0:0:0:0:
320,192,12237,1,0,0:0:0:0:
448,192,12329,128,8,12513:0:0:0:0:
64,192,12329,1,0,0:0:0:0:
320,192,12513,1,0,0:0:0:0:
192,192,12605,1,0,0:0:0:0:
64,192,12697,128,8,12881:0:0:0:0:
448,192,12697,1,0,0:0:0:0:
320,192,12881,1,2,0:0:0:0:
192,192,12973,1,0,0:0:0:0:
448,192,13065,1,8,0:0:0:0:
320,192,13065,1,0,0:0:0:0:
64,192,13249,1,2,0:0:0:0:
192,192,13249,128,0,13617:0:0:0:0:
448,192,13433,1,8,0:0:0:0:
320,192,13433,1,0,0:0:0:0:
64,192,13617,1,2,0:0:0:0:
320,192,13801,128,8,14169:0:0:0:0:
448,192,13801,1,0,0:0:0:0:
192,192,13985,1,2,0:0:0:0:
64,192,14169,1,8,0:0:0:0:
448,192,14169,1,0,0:0:0:0:
192,192,14261,1,0,0:0:0:0:
320,192,14353,1,2,0:0:0:0:
64,192,14537,1,8,0:0:0:0:
192,192,14537,1,0,0:0:0:0:
320,192,14721,1,2,0:0:0:0:
448,192,14721,128,0,15089:0:0:0:0:
64,192,14905,1,8,0:0:0:0:
192,192,14905,1,0,0:0:0:0:
320,192,15089,1,0,0:0:0:0:
192,192,15181,1,0,0:0:0:0:
64,192,15274,128,8,15458:0:0:0:0:
448,192,15274,1,0,0:0:0:0:
192,192,15458,1,2,0:0:0:0:
320,192,15550,1,0,0:0:0:0:
448,192,15642,128,8,15826:0:0:0:0:
64,192,15642,1,0,0:0:0:0:
192,192,15826,1,2,0:0:0:0:
320,192,15918,1,0,0:0:0:0:
64,192,16010,1,8,0:0:0:0:
192,192,16010,1,0,0:0:0:0:
320,192,16194,1,2,0:0:0:0:
448,192,16194,128,0,16562:0:0:0:0:
64,192,16378,1,8,0:0:0:0:
192,192,16378,1,0,0:0:0:0:
192,192,16562,1,2,0:0:0:0:
320,192,16562,1,0,0:0:0:0:
64,192,16746,1,8,0:0:0:0:
448,192,16746,1,0,0:0:0:0:
192,192,16930,128,2,17298:0:0:0:0:
320,192,16930,1,0,0:0:0:0:
448,192,17114,1,8,0:0:0:0:
320,192,17206,1,2,0:0:0:0:
64,192,17298,1,0,0:0:0:0:
448,192,17390,1,2,0:0:0:0:
192,192,17482,1,8,0:0:0:0:
320,192,17482,1,0,0:0:0:0:
64,192,17666,128,2,18034:0:0:0:0:
192,192,17666,1,4,0:0:0:0:
448,192,17666,1,0,0:0:0:0:
320,192,18034,1,2,0:0:0:0:
192,192,18126,1,0,0:0:0:0:
448,192,18218,1,8,0:0:0:0:
320,192,18218,128,0,18402:0:0:0:0:
64,192,18402,1,0,0:0:0:0:
448,192,18494,1,0,0:0:0:0:
64,192,18586,1,8,0:0:0:0:
192,192,18586,128,0,18770:0:0:0:0:
320,192,18770,1,2,0:0:0:0:
448,192,18862,1,0,0:0:0:0:
192,192,18955,1,8,0:0:0:0:
64,192,18955,1,0,0:0:0:0:
320,192,19139,1,2,0:0:0:0:
448,192,19139,128,0,19507:0:0:0:0:
192,192,19323,1,8,0:0:0:0:
64,192,19323,1,0,0:0:0:0:
64,192,19507,1,2,0:0:0:0:
320,192,19691,128,8,20059:0:0:0:0:
448,192,19691,1,0,0:0:0:0:
192,192,19875,1,2,0:0:0:0:
64,192,20059,1,8,0:0:0:0:
448,192,20059,1,0,0:0:0:0:
192,192,20151,1,0,0:0:0:0:
320,192,20243,1,2,0:0:0:0:
64,192,20427,1,8,0:0:0:0:
448,192,20427,1,0,0:0:0:0:
320,192,20611,1,2,0:0:0:0:
192,192,20611,128,0,20979:0:0:0:0:
320,192,20795,1,8,0:0:0:0:
448,192,20795,1,0,0:0:0:0:
64,192,20979,1,2,0:0:0:0:
320,192,21071,1,0,0:0:0:0:
64,192,21163,1,8,0:0:0:0:
448,192,21163,128,0,21347:0:0:0:0:
192,192,21347,1,2,0:0:0:0:
64,192,21439,1,0,0:0:0:0:
448,192,21531,1,8,0:0:0:0:
320,192,21531,128,0,21715:0:0:0:0:
192,192,21715,1,0,0:0:0:0:
448,192,21807,1,0,0:0:0:0:
320,192,21899,1,2,0:0:0:0:
64,192,21899,1,0,0:0:0:0:
64,192,22083,128,8,23188:0:0:0:0:
192,192,22083,1,0,0:0:0:0:
320,192,22267,1,2,0:0:0:0:
192,192,22451,1,8,0:0:0:0:
448,192,22451,1,0,0:0:0:0:
448,192,22635,1,2,0:0:0:0:
320,192,22635,1,8,0:0:0:0:
192,192,22820,1,8,0:0:0:0:
320,192,22820,1,0,0:0:0:0:
448,192,23004,1,2,0:0:0:0:
320,192,23096,1,8,0:0:0:0:
192,192,23188,1,8,0:0:0:0:
448,192,23280,1,8,0:0:0:0:
64,192,23372,1,8,0:0:0:0:
320,192,23372,1,0,0:0:0:0:
64,192,23556,1,2,0:0:0:0:
192,192,23556,1,4,0:0:0:0:
448,192,23556,1,0,0:0:0:0:
192,192,23740,1,0,0:0:0:0:
320,192,23924,1,2,0:0:0:0:
448,192,23924,1,0,0:0:0:0:
64,192,24108,1,8,0:0:0:0:
192,192,24108,1,0,0:0:0:0:
320,192,24292,1,0,0:0:0:0:
192,192,24384,1,8,0:0:0:0:
320,192,24476,1,2,0:0:0:0:
448,192,24476,1,0,0:0:0:0:
64,192,24660,1,2,0:0:0:0:
192,192,24660,1,0,0:0:0:0:
64,192,24844,1,8,0:0:0:0:
448,192,24844,1,0,0:0:0:0:
192,192,25028,1,2,0:0:0:0:
320,192,25028,1,0,0:0:0:0:
448,192,25212,1,0,0:0:0:0:
64,192,25396,1,2,0:0:0:0:
320,192,25396,1,0,0:0:0:0:
192,192,25580,1,8,0:0:0:0:
448,192,25580,1,0,0:0:0:0:
320,192,25764,1,0,0:0:0:0:
64,192,25948,1,2,0:0:0:0:
192,192,25948,1,0,0:0:0:0:
320,192,26132,1,2,0:0:0:0:
448,192,26132,1,0,0:0:0:0:
64,192,26316,1,8,0:0:0:0:
192,192,26316,1,0,0:0:0:0:
64,192,26501,1,2,0:0:0:0:
448,192,26501,1,0,0:0:0:0:
192,192,26685,1,0,0:0:0:0:
320,192,26869,1,2,0:0:0:0:
448,192,26869,1,0,0:0:0:0:
64,192,27053,1,8,0:0:0:0:
192,192,27053,1,0,0:0:0:0:
448,192,27237,1,0,0:0:0:0:
320,192,27329,1,8,0:0:0:0:
64,192,27421,1,2,0:0:0:0:
192,192,27421,1,0,0:0:0:0:
320,192,27605,1,2,0:0:0:0:
448,192,27605,1,0,0:0:0:0:
64,192,27789,1,8,0:0:0:0:
448,192,27789,1,0,0:0:0:0:
192,192,27973,1,2,0:0:0:0:
320,192,27973,1,0,0:0:0:0:
448,192,28157,1,0,0:0:0:0:
64,192,28341,1,2,0:0:0:0:
320,192,28341,1,0,0:0:0:0:
192,192,28525,1,8,0:0:0:0:
448,192,28525,1,0,0:0:0:0:
64,192,28709,1,0,0:0:0:0:
320,192,28893,1,2,0:0:0:0:
448,192,28893,1,0,0:0:0:0:
64,192,29077,1,2,0:0:0:0:
192,192,29077,1,0,0:0:0:0:
320,192,29261,1,8,0:0:0:0:
448,192,29261,1,0,0:0:0:0:
64,192,29445,1,2,0:0:0:0:
192,192,29445,1,4,0:0:0:0:
448,192,29445,1,0,0:0:0:0:
320,192,29629,1,0,0:0:0:0:
64,192,29813,1,2,0:0:0:0:
192,192,29813,1,0,0:0:0:0:
64,192,29997,1,8,0:0:0:0:
448,192,29997,1,0,0:0:0:0:
192,192,30181,1,0,0:0:0:0:
320,192,30274,1,8,0:0:0:0:
64,192,30366,1,2,0:0:0:0:
448,192,30366,1,0,0:0:0:0:
192,192,30550,1,2,0:0:0:0:
320,192,30550,1,0,0:0:0:0:
64,192,30734,1,8,0:0:0:0:
448,192,30734,1,0,0:0:0:0:
64,192,30918,1,2,0:0:0:0:
192,192,30918,1,0,0:0:0:0:
320,192,31102,1,0,0:0:0:0:
64,192,31286,1,2,0:0:0:0:
448,192,31286,1,0,0:0:0:0:
192,192,31470,1,8,0:0:0:0:
320,192,31470,1,0,0:0:0:0:
64,192,31654,1,0,0:0:0:0:
320,192,31838,1,2,0:0:0:0:
448,192,31838,1,0,0:0:0:0:
64,192,32022,1,2,0:0:0:0:
192,192,32022,1,0,0:0:0:0:
320,192,32206,1,8,0:0:0:0:
448,192,32206,1,0,0:0:0:0:
64,192,32390,1,2,0:0:0:0:
448,192,32390,1,0,0:0:0:0:
320,192,32574,1,0,0:0:0:0:
192,192,32758,1,2,0:0:0:0:
448,192,32758,1,0,0:0:0:0:
64,192,32942,1,8,0:0:0:0:
320,192,32942,1,0,0:0:0:0:
448,192,33126,1,0,0:0:0:0:
64,192,33310,1,2,0:0:0:0:
192,192,33310,1,0,0:0:0:0:
320,192,33494,1,2,0:0:0:0:
448,192,33494,1,0,0:0:0:0:
64,192,33678,1,8,0:0:0:0:
448,192,33678,1,0,0:0:0:0:
192,192,33862,1,2,0:0:0:0:
320,192,33862,128,0,34231:0:0:0:0:
64,192,34231,1,2,0:0:0:0:
192,192,34231,128,0,34599:0:0:0:0:
64,192,34415,1,8,0:0:0:0:
448,192,34415,1,0,0:0:0:0:
320,192,34599,1,2,0:0:0:0:
448,192,34599,128,0,34967:0:0:0:0:
64,192,34967,1,2,0:0:0:0:
192,192,34967,1,0,0:0:0:0:
320,192,35151,1,2,0:0:0:0:
448,192,35151,1,0,0:0:0:0:
192,192,35335,1,2,0:0:0:0:
320,192,35335,1,0,0:0:0:0:
64,192,35519,1,2,0:0:0:0:
448,192,35519,1,8,0:0:0:0:
320,192,35887,128,0,36255:0:0:0:0:
64,192,36255,1,8,0:0:0:0:
192,192,36255,1,2,0:0:0:0:
320,192,36531,1,2,0:0:0:0:
448,192,36531,1,8,0:0:0:0:
64,192,36807,1,8,0:0:0:0:
448,192,36807,1,2,0:0:0:0:
192,192,37175,128,0,37728:0:0:0:0:
320,192,37359,1,4,0:0:0:0:
64,192,37728,1,2,0:0:0:0:
320,192,37728,1,4,0:0:0:0:
448,192,37728,1,0,0:0:0:0:
192,192,38004,1,2,0:0:0:0:
320,192,38004,1,0,0:0:0:0:
64,192,38280,1,2,0:0:0:0:
448,192,38280,1,8,0:0:0:0:
320,192,38648,1,0,0:0:0:0:
192,192,38740,1,0,0:0:0:0:
64,192,38832,1,8,0:0:0:0:
448,192,38832,1,0,0:0:0:0:
320,192,38924,1,0,0:0:0:0:
192,192,39016,1,0,0:0:0:0:
64,192,39200,1,2,0:0:0:0:
320,192,39200,1,4,0:0:0:0:
448,192,39200,1,0,0:0:0:0:
192,192,39476,1,2,0:0:0:0:
320,192,39476,1,0,0:0:0:0:
64,192,39752,1,8,0:0:0:0:
448,192,39752,1,2,0:0:0:0:
320,192,39936,1,0,0:0:0:0:
64,192,40120,1,2,0:0:0:0:
448,192,40120,1,0,0:0:0:0:
192,192,40304,1,8,0:0:0:0:
320,192,40304,1,0,0:0:0:0:
64,192,40488,1,0,0:0:0:0:
320,192,40672,1,2,0:0:0:0:
448,192,40672,1,0,0:0:0:0:
64,192,40948,1,2,0:0:0:0:
192,192,40948,1,0,0:0:0:0:
64,192,41224,1,2,0:0:0:0:
320,192,41224,1,4,0:0:0:0:
448,192,41224,1,0,0:0:0:0:
192,192,41408,1,0,0:0:0:0:
320,192,41593,1,0,0:0:0:0:
64,192,41777,1,0,0:0:0:0:
448,192,41869,1,0,0:0:0:0:
320,192,41961,1,0,0:0:0:0:
192,192,42053,1,0,0:0:0:0:
64,192,42145,1,8,0:0:0:0:
448,192,42145,1,0,0:0:0:0:
320,192,42329,1,0,0:0:0:0:
192,192,42513,1,0,0:0:0:0:
320,192,42697,1,2,0:0:0:0:
448,192,42697,1,0,0:0:0:0:
64,192,42881,1,0,0:0:0:0:
192,192,43065,1,0,0:0:0:0:
64,192,43249,1,0,0:0:0:0:
320,192,43433,1,2,0:0:0:0:
448,192,43433,1,0,0:0:0:0:
64,192,43617,1,8,0:0:0:0:
192,192,43617,1,0,0:0:0:0:
320,192,43801,1,0,0:0:0:0:
192,192,43985,1,0,0:0:0:0:
64,192,44169,1,2,0:0:0:0:
320,192,44169,1,4,0:0:0:0:
448,192,44169,1,0,0:0:0:0:
64,192,44353,1,0,0:0:0:0:
320,192,44537,1,2,0:0:0:0:
448,192,44537,1,0,0:0:0:0:
64,192,44721,1,8,0:0:0:0:
192,192,44721,1,0,0:0:0:0:
320,192,44905,1,0,0:0:0:0:
64,192,45089,1,2,0:0:0:0:
192,192,45089,1,0,0:0:0:0:
448,192,45181,1,0,0:0:0:0:
320,192,45274,1,2,0:0:0:0:
192,192,45366,1,0,0:0:0:0:
64,192,45458,1,2,0:0:0:0:
448,192,45458,1,0,0:0:0:0:
320,192,45642,1,8,0:0:0:0:
448,192,45642,1,0,0:0:0:0:
64,192,45826,1,2,0:0:0:0:
192,192,45826,1,0,0:0:0:0:
64,192,46010,1,8,0:0:0:0:
320,192,46010,1,2,0:0:0:0:
192,192,46194,1,2,0:0:0:0:
448,192,46194,1,8,0:0:0:0:
64,192,46378,1,8,0:0:0:0:
448,192,46378,1,2,0:0:0:0:
192,192,46930,128,2,47298:0:0:0:0:
320,192,46930,1,0,0:0:0:0:
320,192,47298,1,4,0:0:0:0:
448,192,47298,1,0,0:0:0:0:
64,192,47298,1,2,0:0:0:0:
192,192,47482,1,0,0:0:0:0:
320,192,47666,1,8,0:0:0:0:
448,192,47666,1,0,0:0:0:0:
192,192,47850,1,0,0:0:0:0:
320,192,47942,1,8,0:0:0:0:
448,192,48034,1,2,0:0:0:0:
64,192,48034,1,0,0:0:0:0:
192,192,48218,1,0,0:0:0:0:
320,192,48402,1,8,0:0:0:0:
448,192,48402,1,0,0:0:0:0:
64,192,48586,1,0,0:0:0:0:
320,192,48770,1,2,0:0:0:0:
192,192,48770,1,0,0:0:0:0:
448,192,48955,1,0,0:0:0:0:
64,192,49139,1,8,0:0:0:0:
192,192,49139,1,0,0:0:0:0:
320,192,49323,1,0,0:0:0:0:
64,192,49507,1,2,0:0:0:0:
448,192,49507,1,0,0:0:0:0:
192,192,49691,1,0,0:0:0:0:
320,192,49875,1,8,0:0:0:0:
448,192,49875,1,0,0:0:0:0:
192,192,50059,1,0,0:0:0:0:
320,192,50243,1,2,0:0:0:0:
64,192,50243,1,0,0:0:0:0:
448,192,50427,1,0,0:0:0:0:
320,192,50611,1,8,0:0:0:0:
192,192,50611,1,0,0:0:0:0:
448,192,50795,1,0,0:0:0:0:
320,192,50887,1,8,0:0:0:0:
192,192,50979,1,2,0:0:0:0:
64,192,50979,1,0,0:0:0:0:
448,192,51163,1,0,0:0:0:0:
64,192,51347,1,8,0:0:0:0:
320,192,51347,1,0,0:0:0:0:
192,192,51531,1,0,0:0:0:0:
448,192,51715,1,0,0:0:0:0:
320,192,51715,1,2,0:0:0:0:
192,192,51899,1,0,0:0:0:0:
64,192,52083,1,8,0:0:0:0:
320,192,52083,1,0,0:0:0:0:
448,192,52267,1,0,0:0:0:0:
192,192,52451,1,2,0:0:0:0:
320,192,52451,1,0,0:0:0:0:
64,192,52635,1,2,0:0:0:0:
320,192,52820,1,8,0:0:0:0:
64,192,52820,1,0,0:0:0:0:
192,192,53004,1,0,0:0:0:0:
320,192,53188,1,2,0:0:0:0:
448,192,53188,1,0,0:0:0:0:
192,192,53372,1,0,0:0:0:0:
64,192,53556,1,8,0:0:0:0:
448,192,53556,1,0,0:0:0:0:
192,192,53740,1,0,0:0:0:0:
320,192,53832,1,8,0:0:0:0:
64,192,53924,1,2,0:0:0:0:
192,192,53924,1,0,0:0:0:0:
448,192,54108,1,0,0:0:0:0:
192,192,54292,1,8,0:0:0:0:
320,192,54292,1,0,0:0:0:0:
448,192,54476,1,0,0:0:0:0:
64,192,54660,1,0,0:0:0:0:
192,192,54660,1,2,0:0:0:0:
320,192,54844,1,0,0:0:0:0:
64,192,55028,1,8,0:0:0:0:
448,192,55028,1,0,0:0:0:0:
320,192,55212,1,0,0:0:0:0:
192,192,55304,1,8,0:0:0:0:
320,192,55396,1,2,0:0:0:0:
448,192,55396,1,0,0:0:0:0:
64,192,55580,1,0,0:0:0:0:
192,192,55764,1,8,0:0:0:0:
320,192,55764,1,0,0:0:0:0:
64,192,55948,1,0,0:0:0:0:
448,192,56132,1,0,0:0:0:0:
320,192,56132,1,2,0:0:0:0:
192,192,56316,1,0,0:0:0:0:
64,192,56501,1,8,0:0:0:0:
448,192,56501,1,0,0:0:0:0:
320,192,56685,1,0,0:0:0:0:
192,192,56869,1,0,0:0:0:0:
64,192,56869,1,2,0:0:0:0:
448,192,57053,1,0,0:0:0:0:
320,192,57237,1,8,0:0:0:0:
192,192,57237,1,0,0:0:0:0:
64,192,57421,1,8,0:0:0:0:
448,192,57421,1,2,0:0:0:0:
192,192,57605,1,2,0:0:0:0:
320,192,57789,1,8,0:0:0:0:
448,192,57789,1,2,0:0:0:0:
64,192,57973,1,8,0:0:0:0:
192,192,57973,1,2,0:0:0:0:
320,192,58157,1,8,0:0:0:0:
448,192,58157,1,2,0:0:0:0:
192,192,58341,1,2,0:0:0:0:
64,192,58525,1,8,0:0:0:0:
448,192,58525,1,2,0:0:0:0:
320,192,58709,1,8,0:0:0:0:
448,192,58709,1,2,0:0:0:0:
64,192,58801,1,0,0:0:0:0:
192,192,58893,1,0,0:0:0:0:
320,192,58985,1,0,0:0:0:0:
64,192,59077,1,4,0:0:0:0:
192,192,59077,1,2,0:0:0:0:
448,192,59077,128,0,60181:0:0:0:0:
320,192,59261,1,0,0:0:0:0:
64,192,59445,1,8,0:0:0:0:
192,192,59445,1,0,0:0:0:0:
192,192,59629,1,0,0:0:0:0:
320,192,59721,1,8,0:0:0:0:
64,192,59813,1,2,0:0:0:0:
320,192,59997,1,0,0:0:0:0:
64,192,60181,1,8,0:0:0:0:
192,192,60181,1,0,0:0:0:0:
320,192,60366,1,0,0:0:0:0:
192,192,60458,1,0,0:0:0:0:
64,192,60550,128,2,61654:0:0:0:0:
448,192,60550,1,0,0:0:0:0:
192,192,60734,1,0,0:0:0:0:
320,192,60918,1,8,0:0:0:0:
448,192,60918,1,0,0:0:0:0:
192,192,61102,1,0,0:0:0:0:
320,192,61286,1,2,0:0:0:0:
448,192,61470,1,0,0:0:0:0:
192,192,61654,1,8,0:0:0:0:
320,192,61654,1,0,0:0:0:0:
448,192,61838,1,0,0:0:0:0:
320,192,61930,1,8,0:0:0:0:
64,192,62022,1,2,0:0:0:0:
192,192,62022,128,0,63126:0:0:0:0:
448,192,62206,1,0,0:0:0:0:
320,192,62390,1,8,0:0:0:0:
64,192,62390,1,0,0:0:0:0:
320,192,62574,1,0,0:0:0:0:
448,192,62666,1,8,0:0:0:0:
64,192,62758,1,2,0:0:0:0:
320,192,62942,1,0,0:0:0:0:
448,192,63126,1,8,0:0:0:0:
64,192,63126,1,0,0:0:0:0:
192,192,63310,1,0,0:0:0:0:
320,192,63402,1,0,0:0:0:0:
64,192,63494,1,2,0:0:0:0:
448,192,63494,128,0,64231:0:0:0:0:
192,192,63678,1,0,0:0:0:0:
64,192,63862,1,8,0:0:0:0:
320,192,63862,1,0,0:0:0:0:
192,192,64047,1,0,0:0:0:0:
64,192,64139,1,8,0:0:0:0:
192,192,64231,128,2,64599:0:0:0:0:
320,192,64231,1,0,0:0:0:0:
64,192,64415,1,2,0:0:0:0:
320,192,64599,1,8,0:0:0:0:
448,192,64599,1,0,0:0:0:0:
64,192,64783,128,2,66071:0:0:0:0:
192,192,64783,1,4,0:0:0:0:
448,192,64783,1,0,0:0:0:0:
320,192,64967,1,0,0:0:0:0:
192,192,65059,1,8,0:0:0:0:
448,192,65151,1,2,0:0:0:0:
192,192,65335,1,8,0:0:0:0:
320,192,65335,1,0,0:0:0:0:
448,192,65519,1,0,0:0:0:0:
192,192,65611,1,8,0:0:0:0:
320,192,65703,1,2,0:0:0:0:
448,192,65887,1,2,0:0:0:0:
192,192,66071,1,8,0:0:0:0:
320,192,66071,1,0,0:0:0:0:
320,192,66255,128,2,67359:0:0:0:0:
448,192,66255,1,0,0:0:0:0:
64,192,66439,1,0,0:0:0:0:
192,192,66531,1,8,0:0:0:0:
448,192,66623,1,2,0:0:0:0:
64,192,66807,1,8,0:0:0:0:
192,192,66807,1,0,0:0:0:0:
64,192,66991,1,8,0:0:0:0:
448,192,66991,1,0,0:0:0:0:
192,192,67175,1,2,0:0:0:0:
448,192,67359,1,0,0:0:0:0:
64,192,67451,1,2,0:0:0:0:
448,192,67543,1,8,0:0:0:0:
320,192,67543,1,0,0:0:0:0:
64,192,67728,1,2,0:0:0:0:
192,192,67728,128,0,68832:0:0:0:0:
320,192,67912,1,0,0:0:0:0:
448,192,68004,1,8,0:0:0:0:
64,192,68096,1,2,0:0:0:0:
320,192,68280,1,8,0:0:0:0:
448,192,68280,1,0,0:0:0:0:
64,192,68464,1,0,0:0:0:0:
320,192,68556,1,8,0:0:0:0:
448,192,68648,1,2,0:0:0:0:
64,192,68832,1,2,0:0:0:0:
448,192,68924,1,0,0:0:0:0:
320,192,69016,1,8,0:0:0:0:
192,192,69108,1,0,0:0:0:0:
64,192,69200,128,2,69568:0:0:0:0:
320,192,69200,1,4,0:0:0:0:
448,192,69200,1,0,0:0:0:0:
192,192,69568,1,2,0:0:0:0:
448,192,69568,1,0,0:0:0:0:
320,192,69660,1,0,0:0:0:0:
64,192,69752,1,8,0:0:0:0:
448,192,69752,128,0,69936:0:0:0:0:
320,192,69936,1,8,0:0:0:0:
192,192,70028,1,8,0:0:0:0:
64,192,70120,1,8,0:0:0:0:
448,192,70120,1,0,0:0:0:0:
320,192,70212,1,8,0:0:0:0:
192,192,70304,1,2,0:0:0:0:
64,192,70396,1,0,0:0:0:0:
320,192,70488,1,2,0:0:0:0:
192,192,70580,1,0,0:0:0:0:
64,192,70672,1,2,0:0:0:0:
448,192,70672,1,0,0:0:0:0:
320,192,71040,1,0,0:0:0:0:
64,192,71224,1,0,0:0:0:0:
192,192,71408,1,0,0:0:0:0:
448,192,71593,1,0,0:0:0:0:
320,192,71777,1,0,0:0:0:0:
64,192,72145,1,2,0:0:0:0:
192,192,72145,1,8,0:0:0:0:
320,192,72513,1,2,0:0:0:0:
448,192,72513,1,8,0:0:0:0:
192,192,72881,1,2,0:0:0:0:
320,192,72881,1,8,0:0:0:0:
64,192,73065,1,8,0:0:0:0:
448,192,73065,1,2,0:0:0:0:
192,192,73433,128,2,73801:0:0:0:0:
320,192,73433,1,0,0:0:0:0:
64,192,73801,1,4,0:0:0:0:
320,192,73801,1,2,0:0:0:0:
448,192,73801,128,0,73985:0:0:0:0:
64,192,74169,1,8,0:0:0:0:
320,192,74169,1,0,0:0:0:0:
448,192,74353,128,0,74721:0:0:0:0:
192,192,74537,1,0,0:0:0:0:
320,192,74721,1,0,0:0:0:0:
64,192,74905,1,8,0:0:0:0:
448,192,74905,128,0,75089:0:0:0:0:
320,192,75089,1,0,0:0:0:0:
192,192,75181,1,0,0:0:0:0:
64,192,75274,128,2,75458:0:0:0:0:
448,192,75274,1,0,0:0:0:0:
320,192,75458,1,0,0:0:0:0:
192,192,75550,1,2,0:0:0:0:
320,192,75642,1,8,0:0:0:0:
448,192,75642,1,0,0:0:0:0:
64,192,75826,128,0,76194:0:0:0:0:
192,192,76010,1,0,0:0:0:0:
320,192,76194,1,2,0:0:0:0:
448,192,76194,1,0,0:0:0:0:
64,192,76378,128,8,76562:0:0:0:0:
448,192,76378,1,0,0:0:0:0:
192,192,76562,1,0,0:0:0:0:
320,192,76654,1,0,0:0:0:0:
64,192,76746,1,2,0:0:0:0:
448,192,76746,128,0,76930:0:0:0:0:
192,192,76930,1,0,0:0:0:0:
64,192,77114,1,8,0:0:0:0:
320,192,77114,1,0,0:0:0:0:
448,192,77298,128,0,77666:0:0:0:0:
192,192,77482,1,0,0:0:0:0:
64,192,77666,1,2,0:0:0:0:
320,192,77666,1,0,0:0:0:0:
192,192,77850,1,8,0:0:0:0:
448,192,77850,128,0,78034:0:0:0:0:
320,192,78034,1,0,0:0:0:0:
192,192,78126,1,0,0:0:0:0:
64,192,78218,128,2,78402:0:0:0:0:
448,192,78218,1,0,0:0:0:0:
192,192,78402,1,0,0:0:0:0:
320,192,78494,1,2,0:0:0:0:
192,192,78586,1,8,0:0:0:0:
448,192,78586,1,0,0:0:0:0:
64,192,78770,128,2,79139:0:0:0:0:
320,192,78770,1,0,0:0:0:0:
448,192,78955,1,0,0:0:0:0:
192,192,79139,1,2,0:0:0:0:
320,192,79139,1,0,0:0:0:0:
448,192,79323,1,0,0:0:0:0:
64,192,79323,1,8,0:0:0:0:
192,192,79507,1,0,0:0:0:0:
64,192,79691,1,2,0:0:0:0:
320,192,79691,1,4,0:0:0:0:
448,192,79691,1,0,0:0:0:0:
192,192,79875,1,0,0:0:0:0:
320,192,79967,1,2,0:0:0:0:
192,192,80059,1,8,0:0:0:0:
448,192,80059,1,0,0:0:0:0:
64,192,80243,1,2,0:0:0:0:
448,192,80243,1,0,0:0:0:0:
192,192,80427,1,0,0:0:0:0:
64,192,80611,1,2,0:0:0:0:
320,192,80611,1,0,0:0:0:0:
192,192,80795,1,8,0:0:0:0:
448,192,80795,1,0,0:0:0:0:
320,192,80979,1,0,0:0:0:0:
64,192,81163,1,2,0:0:0:0:
192,192,81163,1,0,0:0:0:0:
448,192,81347,1,0,0:0:0:0:
320,192,81439,1,2,0:0:0:0:
192,192,81531,1,8,0:0:0:0:
448,192,81531,1,0,0:0:0:0:
64,192,81715,1,2,0:0:0:0:
320,192,81715,1,0,0:0:0:0:
192,192,81899,1,0,0:0:0:0:
320,192,82083,1,2,0:0:0:0:
448,192,82083,1,0,0:0:0:0:
64,192,82267,1,8,0:0:0:0:
192,192,82267,1,0,0:0:0:0:
320,192,82451,1,0,0:0:0:0:
64,192,82635,1,2,0:0:0:0:
448,192,82635,1,0,0:0:0:0:
320,192,82820,1,0,0:0:0:0:
192,192,82912,1,2,0:0:0:0:
320,192,83004,1,8,0:0:0:0:
448,192,83004,1,0,0:0:0:0:
64,192,83188,1,2,0:0:0:0:
192,192,83188,1,0,0:0:0:0:
448,192,83372,1,0,0:0:0:0:
192,192,83556,1,2,0:0:0:0:
320,192,83556,1,0,0:0:0:0:
64,192,83740,1,8,0:0:0:0:
448,192,83740,1,0,0:0:0:0:
192,192,83924,1,8,0:0:0:0:
320,192,83924,1,0,0:0:0:0:
64,192,83924,1,4,0:0:0:0:
320,192,84108,1,2,0:0:0:0:
448,192,84108,1,0,0:0:0:0:
64,192,84292,1,2,0:0:0:0:
192,192,84384,1,8,0:0:0:0:
320,192,84476,1,2,0:0:0:0:
448,192,84476,1,0,0:0:0:0:
64,192,84568,1,0,0:0:0:0:
192,192,84660,1,2,0:0:0:0:
448,192,84660,1,0,0:0:0:0:
320,192,84866,1,2,0:0:0:0:
64,192,84866,1,0,0:0:0:0:
448,192,85073,1,2,0:0:0:0:
192,192,85073,1,8,0:0:0:0:
320,192,85280,128,0,85487:0:0:0:0:
192,192,85487,1,2,0:0:0:0:
64,192,85487,128,4,89004:0:0:0:0:
448,192,85487,128,0,89004:0:0:0:0:
