osu file format v14

[General]
AudioFilename: Pretty Fly (For A White Guy).mp3
AudioLeadIn: 0
PreviewTime: 45751
Countdown: 0
SampleSet: Soft
StackLeniency: 0.7
Mode: 0
LetterboxInBreaks: 1
WidescreenStoryboard: 1

[Editor]
Bookmarks: 3751,23894
DistanceSpacing: 0.8
BeatDivisor: 2
GridSize: 4
TimelineZoom: 1.7

[Metadata]
Title:Pretty Fly (For A White Guy)
TitleUnicode:Pretty Fly (For A White Guy)
Artist:Kadowaki Mai
ArtistUnicode:門脇舞以
Creator:Saten
Version:Norumaru
Source:
Tags:Saten-san Liiraye the Offspring engrish かどわき まい マイタ プロフィール まいた
BeatmapID:756279
BeatmapSetID:341075

[Difficulty]
HPDrainRate:4
CircleSize:3
OverallDifficulty:4
ApproachRate:5
SliderMultiplier:1.4
SliderTickRate:1

[Events]
//Background and Video events
0,0,"white.jpg",0,0
//Break Periods
2,128465,140980
//Storyboard Layer 0 (Background)
//Storyboard Layer 1 (Fail)
//Storyboard Layer 2 (Pass)
//Storyboard Layer 3 (Foreground)
//Storyboard Sound Samples

[TimingPoints]
3323,428.571428571429,4,2,1,60,1,0
18751,-100,4,2,1,60,0,0
46180,-100,4,2,1,70,0,1
71894,-100,4,2,1,60,0,0
72323,-100,4,2,1,50,0,0
73608,-100,4,2,1,60,0,0
86037,-100,4,2,1,40,0,0
87323,-100,4,2,1,60,0,0
101037,-100,4,2,1,70,0,1
126751,-100,4,2,1,60,0,0
128465,-133.333333333333,4,2,1,60,0,0
142180,-100,4,2,1,60,0,0
155894,-100,4,2,1,70,0,1
188465,-100,4,2,1,60,0,0
188894,-100,4,2,1,50,0,0

[Colours]
Combo1 : 172,89,255
Combo2 : 255,139,83
Combo3 : 47,151,255
Combo4 : 180,180,180

[HitObjects]
452,41,3323,6,0,P|383:41|327:81,1,140,6|2,0:0|0:0,0:0:0:0:
243,82,4180,2,0,P|276:148|348:163,1,140,2|2,0:0|0:0,0:0:0:0:
419,159,5037,2,0,L|402:298,1,140,2|8,0:0|2:3,0:0:0:0:
332,344,5894,2,0,B|273:356|273:356|193:347,1,140,0|8,0:0|2:3,0:0:0:0:
132,288,6751,1,2,0:0:0:0:
197,235,7180,2,0,L|269:230,1,70,8|2,2:3|0:0,0:0:0:0:
300,153,7823,2,0,L|230:148,1,70,2|8,0:0|2:3,0:0:0:0:
147,163,8465,6,0,L|131:13,1,140,2|8,0:0|2:3,0:0:0:0:
213,42,9323,2,0,P|282:57|351:50,1,140,0|8,0:0|2:3,0:0:0:0:
405,114,10180,1,2,0:0:0:0:
347,175,10608,2,0,L|340:244,1,70,8|2,2:3|0:0,0:0:0:0:
261,275,11251,2,0,L|254:205,1,70,2|8,0:0|2:3,0:0:0:0:
244,121,11894,6,0,P|185:153|171:219,1,140,2|8,0:0|2:3,0:0:0:0:
178,303,12751,2,0,P|117:331|55:302,1,140,0|8,0:0|2:3,0:0:0:0:
32,222,13608,1,2,0:0:0:0:
88,159,14037,2,0,L|80:89,1,70,8|2,2:3|0:0,0:0:0:0:
164,90,14680,2,0,L|171:20,2,70,2|8|0,0:0|2:3|0:0,0:0:0:0:
201,121,15323,6,0,P|270:132|339:135,2,140,2|8|0,0:0|2:3|0:0,0:0:0:0:
165,197,16608,2,0,L|176:266,2,70,8|0|2,2:3|0:0|0:0,0:0:0:0:
104,138,17465,1,0,0:0:0:0:
127,57,17894,1,8,2:3:0:0:
209,37,18323,1,8,2:3:0:0:
288,64,18751,6,0,B|365:187|217:205|286:328,1,280,6|2,0:0|0:0,0:0:0:0:
205,352,20037,1,8,0:0:0:0:
124,328,20465,2,0,B|201:205|53:187|122:64,1,280,2|2,0:0|0:0,0:0:0:0:
198,31,21751,1,8,0:0:0:0:
279,52,22180,6,0,B|324:73|324:126|280:150|255:140|255:140|206:161|206:161|181:136|181:136|153:140|130:130,1,280,2|2,0:0|0:0,0:0:0:0:
89,203,23465,1,8,0:0:0:0:
130,275,23894,2,0,B|153:264|181:268|181:268|205:243|205:243|254:264|254:264|279:254|323:279|323:331|278:353,1,280,2|2,0:0|0:0,0:0:0:0:
194,366,25180,1,8,0:0:0:0:
110,354,25608,6,0,P|77:339|53:305,2,70,2|0|8,0:0|0:0|0:0,0:0:0:0:
134,311,26251,2,0,B|144:172|144:172|127:89,1,210,0|8,0:0|0:0,0:0:0:0:
197,52,27323,2,0,P|229:37|281:36,2,70,2|0|8,0:0|0:0|0:0,0:0:0:0:
210,99,27965,2,0,B|240:234|240:234|274:296,1,210,0|8,0:0|0:0,0:0:0:0:
354,323,29037,5,2,0:0:0:0:
386,245,29465,1,8,0:0:0:0:
417,167,29894,1,2,0:0:0:0:
350,115,30323,2,0,L|343:35,1,70,8|0,0:0|0:0,0:0:0:0:
296,35,30751,2,0,B|236:27|236:27|152:44,1,140,2|0,0:0|0:0,0:0:0:0:
94,98,31608,2,0,P|76:68|73:33,2,70,2|2|2,0:0|0:0|0:0,0:0:0:0:
160,149,32465,6,0,B|183:237|183:237|176:286,1,140,6|8,0:0|0:0,0:0:0:0:
102,242,33323,2,0,P|224:216|241:342,1,280,2|2,0:0|0:0,0:0:0:0:
160,359,34608,1,8,0:0:0:0:
87,315,35037,2,0,L|71:170,1,140,2|8,0:0|0:0,0:0:0:0:
139,126,35894,6,0,B|145:106|143:82|143:82|179:86|203:73|203:73|242:24,2,140,2|8|2,0:0|0:0|0:0,0:0:0:0:
60,94,37180,1,8,0:0:0:0:
84,13,37608,2,0,P|135:57|139:125,1,140,2|8,0:0|0:0,0:0:0:0:
197,185,38465,2,0,B|250:206|250:206|354:195,1,140,2|8,0:0|0:0,0:0:0:0:
361,118,39323,6,0,P|378:87|410:66,2,70,2|0|8,0:0|0:0|0:0,0:0:0:0:
441,144,40180,2,0,P|465:211|441:289,1,140,2|8,0:0|0:0,0:0:0:0:
384,328,41037,2,0,L|294:348,2,70,2|0|8,0:0|0:0|0:0,0:0:0:0:
348,251,41894,2,0,L|211:281,1,140,2|8,0:0|0:0,0:0:0:0:
150,223,42751,6,0,B|133:199|133:199|210:148|169:113,2,140,2|8|2,0:0|0:0|0:0,0:0:0:0:
211,281,44037,1,8,0:0:0:0:
272,223,44465,1,2,0:0:0:0:
356,224,44894,2,0,B|373:200|373:200|296:149|337:114,2,140,2|2|2,0:0|0:0|0:0,0:0:0:0:
309,293,46180,6,0,P|242:264|94:288,1,210,6|0,0:0|0:0,0:0:0:0:
68,307,47037,2,0,B|29:251|29:251|22:164,1,140,2|8,0:0|0:0,0:0:0:0:
66,107,47894,2,0,B|114:65|114:65|119:104|149:139|197:142|230:123,1,210,2|0,0:0|0:0,0:0:0:0:
267,105,48751,2,0,B|320:83|320:83|431:81,1,140,2|8,0:0|0:0,0:0:0:0:
465,137,49608,6,0,P|470:218|406:267,2,140,2|8|2,0:0|0:0|0:0,0:0:0:0:
396,184,50894,1,8,0:0:0:0:
322,142,51323,2,0,L|317:64,2,70,2|0|8,0:0|0:0|0:0,0:0:0:0:
243,172,52180,2,0,L|253:336,1,140,2|8,0:0|0:0,0:0:0:0:
331,338,53037,6,0,P|427:309|450:207,1,210,6|0,0:0|0:0,0:0:0:0:
433,167,53894,2,0,B|412:114|412:114|414:20,1,140,2|8,0:0|0:0,0:0:0:0:
336,63,54751,2,0,P|262:145|178:90,1,210,2|0,0:0|0:0,0:0:0:0:
169,62,55608,2,0,B|140:45|140:45|96:37,2,70,2|2|8,0:0|0:0|0:0,0:0:0:0:
254,63,56465,6,0,L|272:201,2,140,2|8|2,0:0|0:0|0:0,0:0:0:0:
336,81,57751,1,8,0:0:0:0:
418,62,58180,2,0,L|400:206,1,140,2|8,0:0|0:0,0:0:0:0:
417,283,59037,2,0,P|334:277|275:297,1,140,2|8,0:0|0:0,0:0:0:0:
210,247,59894,6,0,B|186:193|186:193|205:161|205:161|147:139|147:72,1,210,6|0,0:0|0:0,0:0:0:0:
209,16,60965,2,0,P|226:43|232:86,1,70,2|8,0:0|0:0,0:0:0:0:
147,72,61608,2,0,B|122:70|87:84|87:84|73:77|42:77|42:77|19:139|25:166|67:184,1,210,2|0,0:0|0:0,0:0:0:0:
113,223,62680,2,0,L|104:294,2,70,2|8|0,0:0|0:0|0:0,0:0:0:0:
156,199,63323,6,0,B|211:186|211:186|317:196,1,140,2|8,0:0|0:0,0:0:0:0:
376,174,64180,1,2,0:0:0:0:
395,92,64608,1,8,0:0:0:0:
337,30,65037,2,0,B|293:14|293:14|196:22,2,140,2|8|2,0:0|0:0|0:0,0:0:0:0:
283,94,66323,1,8,0:0:0:0:
292,176,66751,6,0,P|300:246|283:313,1,140,6|8,0:0|0:0,0:0:0:0:
202,338,67608,2,0,L|165:269,1,70,2|2,0:0|0:0,0:0:0:0:
145,232,68037,1,8,0:0:0:0:
222,199,68465,2,0,B|202:147|137:147|137:147|85:109|93:52,1,210,2|0,0:0|0:0,0:0:0:0:
132,30,69323,2,0,L|203:22,1,70,2|2,0:0|0:0,0:0:0:0:
248,34,69751,1,8,0:0:0:0:
323,71,70180,5,2,0:0:0:0:
355,148,70608,1,2,0:0:0:0:
307,217,71037,2,0,L|297:305,2,70,2|2|2,0:0|0:0|0:0,0:0:0:0:
266,188,71680,2,0,P|222:178|170:176,1,70,2|2,0:0|0:0,0:0:0:0:
197,175,73608,6,0,P|247:128|316:123,1,140,6|8,0:0|0:0,0:0:0:0:
388,192,74465,1,2,0:0:0:0:
360,232,74680,1,2,0:0:0:0:
332,272,74894,1,8,0:0:0:0:
384,356,75323,2,0,P|456:344|500:296,1,140,2|8,0:0|0:0,0:0:0:0:
496,200,76180,2,0,L|460:140,2,70,2|2|8,0:0|0:0|0:0,0:0:0:0:
412,248,77037,6,0,P|344:236|299:183,1,140,2|8,0:0|0:0,0:0:0:0:
204,164,77894,1,2,0:0:0:0:
164,192,78108,1,2,0:0:0:0:
124,220,78323,2,0,P|144:288|204:316,1,140,8|2,0:0|0:0,0:0:0:0:
295,287,79180,1,8,0:0:0:0:
316,192,79608,2,0,L|280:132,2,70,2|2|8,0:0|0:0|0:0,0:0:0:0:
412,164,80465,6,0,P|409:95|363:43,1,140,2|8,0:0|0:0,0:0:0:0:
268,64,81323,1,2,0:0:0:0:
228,92,81537,1,2,0:0:0:0:
188,120,81751,1,8,0:0:0:0:
220,212,82180,2,0,P|283:237|349:217,1,140,2|8,0:0|0:0,0:0:0:0:
444,240,83037,2,0,L|472:304,1,70,2|2,0:0|0:0,0:0:0:0:
444,344,83465,2,0,P|374:360|315:330,1,140,8|2,0:0|0:0,0:0:0:0:
256,252,84323,5,8,0:0:0:0:
268,154,84751,1,2,0:0:0:0:
346,95,85180,1,8,0:0:0:0:
443,107,85608,1,2,0:0:0:0:
503,185,86037,1,8,2:3:0:0:
490,282,86465,1,8,2:3:0:0:
412,342,86894,1,8,2:3:0:0:
315,329,87323,6,0,P|312:260|360:212,1,140,6|8,0:0|0:0,0:0:0:0:
316,192,87965,2,0,L|252:164,1,70,2|2,0:0|0:0,0:0:0:0:
156,152,88608,1,8,0:0:0:0:
112,240,89037,2,0,P|152:294|220:295,1,140,2|8,0:0|0:0,0:0:0:0:
240,340,89680,2,0,L|180:376,1,70,2|2,0:0|0:0,0:0:0:0:
84,352,90323,1,8,0:0:0:0:
40,264,90751,6,0,P|64:196|120:164,1,140,2|8,0:0|0:0,0:0:0:0:
216,192,91608,2,0,P|274:156|296:91,1,140,2|0,0:0|0:0,0:0:0:0:
202,57,92465,2,0,B|162:53|138:33|138:33|114:53|74:61,3,140,2|8|2|8,0:0|0:0|0:0|0:0,0:0:0:0:
90,157,94180,6,0,B|125:240|199:251|256:192|256:192|314:133|388:144|422:227,1,420,2|8,0:0|0:0,0:0:0:0:
373,314,95894,2,0,B|284:328|234:269|256:192|256:192|275:113|225:53|137:69,1,420,2|8,0:0|0:0,0:0:0:0:
44,104,97608,6,0,P|72:170|132:192,1,140,2|8,0:0|0:0,0:0:0:0:
176,172,98251,2,0,L|228:120,1,70,2|2,0:0|0:0,0:0:0:0:
324,136,98894,1,8,0:0:0:0:
352,232,99323,2,0,B|326:263|323:294|323:294|292:297|258:319,3,140,2|2|2|2,0:0|0:0|0:0|0:0,0:0:0:0:
160,320,101037,6,0,B|144:236|144:236|160:184,1,140,6|8,0:0|0:0,0:0:0:0:
136,136,101680,2,0,B|72:176|72:176|40:308,1,210,0|8,0:0|0:0,0:0:0:0:
136,328,102751,2,0,P|201:307|263:335,1,140,2|8,0:0|0:0,0:0:0:0:
312,344,103394,2,0,P|302:244|209:209,1,210,0|8,0:0|0:0,0:0:0:0:
116,240,104465,5,2,0:0:0:0:
31,190,104894,1,8,0:0:0:0:
28,92,105323,2,0,P|86:56|153:70,1,140,2|8,0:0|0:0,0:0:0:0:
188,164,106180,2,0,P|255:177|313:142,2,140,2|8|2,0:0|0:0|0:0,0:0:0:0:
92,156,107465,1,8,0:0:0:0:
32,232,107894,6,0,L|20:300,2,70,6|0|8,0:0|0:0|0:0,0:0:0:0:
80,248,108537,2,0,P|128:328|236:340,1,210,0|8,0:0|0:0,0:0:0:0:
256,244,109608,2,0,L|208:192,2,70,2|0|8,0:0|0:0|0:0,0:0:0:0:
304,228,110251,2,0,P|307:127|224:72,1,210,0|8,0:0|0:0,0:0:0:0:
144,128,111323,5,2,0:0:0:0:
216,192,111751,1,8,0:0:0:0:
144,256,112180,2,0,L|96:308,2,70,2|2|8,0:0|0:0|0:0,0:0:0:0:
240,280,113037,1,2,0:0:0:0:
304,208,113465,1,8,0:0:0:0:
256,124,113894,2,0,L|212:68,2,70,2|2|8,0:0|0:0|0:0,0:0:0:0:
199,204,114751,6,0,P|101:183|63:89,1,210,6|0,0:0|0:0,0:0:0:0:
144,32,115823,2,0,L|212:56,1,70,2|8,0:0|0:0,0:0:0:0:
252,144,116465,2,0,L|112:300,1,210,2|0,0:0|0:0,0:0:0:0:
192,360,117537,2,0,L|256:332,1,70,2|8,0:0|0:0,0:0:0:0:
328,264,118180,5,2,0:0:0:0:
256,196,118608,1,8,0:0:0:0:
184,264,119037,1,2,0:0:0:0:
136,248,119251,1,2,0:0:0:0:
88,232,119465,1,8,0:0:0:0:
48,144,119894,2,0,B|104:100|104:100|172:108,1,140,2|8,0:0|0:0,0:0:0:0:
256,156,120751,2,0,B|312:200|312:200|380:192,1,140,2|8,0:0|0:0,0:0:0:0:
420,104,121608,5,6,0:0:0:0:
340,44,122037,1,8,0:0:0:0:
256,96,122465,1,2,0:0:0:0:
276,140,122680,1,2,0:0:0:0:
296,184,122894,2,0,P|260:248|200:268,1,140,8|2,0:0|0:0,0:0:0:0:
104,240,123751,1,8,0:0:0:0:
76,144,124180,2,0,L|104:80,2,70,2|2|8,0:0|0:0|0:0,0:0:0:0:
168,176,125037,6,0,B|212:192|212:192|256:184|256:184|300:204,1,140,2|2,0:0|0:0,0:0:0:0:
288,300,125894,2,0,B|244:280|244:280|200:288|200:288|156:272,2,140,2|2|2,0:0|0:0|0:0,0:0:0:0:
381,82,142180,6,0,B|394:142|394:142|381:225,1,140,6|8,0:0|0:0,0:0:0:0:
272,245,143037,1,2,0:0:0:0:
282,299,143251,1,2,0:0:0:0:
292,353,143465,1,8,0:0:0:0:
183,326,143894,2,0,P|109:305|18:320,1,140,2|8,0:0|0:0,0:0:0:0:
82,204,144751,2,0,L|68:116,2,70,2|2|8,0:0|0:0|0:0,0:0:0:0:
192,183,145608,6,0,L|201:41,1,140,2|8,0:0|0:0,0:0:0:0:
88,45,146465,2,0,P|41:48|-3:71,2,70,2|2|8,0:0|0:0|0:0,0:0:0:0:
200,43,147323,2,0,B|256:76|285:29|339:55,1,140,2|8,0:0|0:0,0:0:0:0:
376,158,148180,1,2,0:0:0:0:
387,212,148394,1,2,0:0:0:0:
377,267,148608,1,8,0:0:0:0:
303,351,149037,6,0,P|265:293|272:224,1,140,2|8,0:0|0:0,0:0:0:0:
208,132,149894,1,2,0:0:0:0:
153,121,150108,1,2,0:0:0:0:
97,111,150323,1,8,0:0:0:0:
23,195,150751,2,0,L|41:338,1,140,2|8,0:0|0:0,0:0:0:0:
147,304,151608,2,0,P|182:297|217:297,2,70,2|2|8,0:0|0:0|0:0,0:0:0:0:
195,202,152465,5,6,0:0:0:0:
304,178,152894,1,2,0:0:0:0:
395,242,153323,1,2,0:0:0:0:
409,131,153751,1,2,0:0:0:0:
297,285,154180,2,0,P|229:305|160:288,1,140,2|2,0:0|0:0,0:0:0:0:
227,197,155037,1,2,0:0:0:0:
180,95,155465,1,8,0:0:0:0:
291,105,155894,6,0,B|374:120|374:120|504:97,1,210,6|0,0:0|0:0,0:0:0:0:
489,153,156751,2,0,L|472:308,1,140,2|8,0:0|0:0,0:0:0:0:
381,209,157608,2,0,P|281:206|229:292,1,210,2|0,0:0|0:0,0:0:0:0:
235,348,158465,2,0,P|200:346|167:333,2,70,2|2|8,0:0|0:0|0:0,0:0:0:0:
336,299,159323,5,2,0:0:0:0:
291,196,159751,1,8,0:0:0:0:
337,93,160180,1,2,0:0:0:0:
389,112,160394,1,2,0:0:0:0:
440,133,160608,1,8,0:0:0:0:
440,245,161037,2,0,P|392:293|324:299,2,140,2|8|2,0:0|0:0|0:0,0:0:0:0:
345,186,162323,1,8,0:0:0:0:
238,220,162751,6,0,B|148:252|123:182|32:206,1,210,6|0,0:0|0:0,0:0:0:0:
49,260,163608,2,0,L|59:351,2,70,2|2|8,0:0|0:0|0:0,0:0:0:0:
152,303,164465,2,0,B|240:330|271:267|357:289,1,210,2|0,0:0|0:0,0:0:0:0:
411,307,165323,2,0,B|424:229|424:229|412:143,1,140,2|8,0:0|0:0,0:0:0:0:
311,210,166180,5,2,0:0:0:0:
206,170,166608,1,8,0:0:0:0:
101,210,167037,1,2,0:0:0:0:
117,99,167465,1,8,0:0:0:0:
206,170,167894,2,0,L|215:327,2,140,2|8|2,0:0|0:0|0:0,0:0:0:0:
288,94,169180,1,8,0:0:0:0:
342,81,169394,1,0,0:0:0:0:
396,70,169608,6,0,P|443:162|425:284,1,210,6|0,0:0|0:0,0:0:0:0:
378,251,170465,2,0,P|307:233|242:256,1,140,2|8,0:0|0:0,0:0:0:0:
316,340,171323,2,0,L|299:115,1,210,2|0,0:0|0:0,0:0:0:0:
248,153,172180,2,0,B|177:166|177:166|110:151,1,140,2|8,0:0|0:0,0:0:0:0:
180,63,173037,5,2,0:0:0:0:
291,75,173465,1,8,0:0:0:0:
400,52,173894,2,0,P|436:38|495:40,2,70,2|2|8,0:0|0:0|0:0,0:0:0:0:
459,147,174751,2,0,B|471:209|471:209|461:312,2,140,2|8|2,0:0|0:0|0:0,0:0:0:0:
366,210,176037,1,8,0:0:0:0:
268,265,176465,6,0,L|129:248,1,140,6|8,0:0|0:0,0:0:0:0:
105,138,177323,1,2,0:0:0:0:
110,82,177537,1,2,0:0:0:0:
115,26,177751,1,8,0:0:0:0:
208,87,178180,2,0,P|287:102|359:28,1,140,2|8,0:0|0:0,0:0:0:0:
438,116,179037,1,2,0:0:0:0:
442,171,179251,1,2,0:0:0:0:
447,226,179465,1,8,0:0:0:0:
361,299,179894,6,0,P|299:328|232:314,2,140,6|8|2,0:0|0:0|0:0,0:0:0:0:
287,214,181180,1,8,0:0:0:0:
327,109,181608,2,0,L|335:34,1,70,2|2,0:0|0:0,0:0:0:0:
232,86,182251,2,0,B|172:97|172:97|69:78,1,140,0|2,0:0|0:0,0:0:0:0:
41,101,182894,2,0,P|14:189|42:268,1,140,8|6,0:0|0:0,0:0:0:0:
121,180,183751,5,8,0:0:0:0:
227,216,184180,1,2,0:0:0:0:
221,271,184394,1,2,0:0:0:0:
215,326,184608,1,8,0:0:0:0:
104,309,185037,2,0,L|-29:289,1,70,2|0,0:0|0:0,0:0:0:0:
92,202,185680,2,0,L|270:186,1,140,0|2,0:0|0:0,0:0:0:0:
287,184,186323,1,8,0:0:0:0:
391,224,186751,5,2,0:0:0:0:
306,298,187180,1,2,0:0:0:0:
199,262,187608,1,2,0:0:0:0:
144,248,187823,1,2,0:0:0:0:
88,252,188037,2,0,P|54:261|19:259,2,70,2|2|2,0:0|0:0|0:0,0:0:0:0:
75,141,188894,5,8,2:3:0:0:
61,86,189108,1,8,2:3:0:0:
67,30,189323,2,0,L|170:18,2,70,8|8|8,2:3|2:3|2:3,2:3:0:0:
