osu file format v14

[General]
AudioFilename: Pretty Fly (For A White Guy).mp3
AudioLeadIn: 0
PreviewTime: 45751
Countdown: 0
SampleSet: Soft
StackLeniency: 0.7
Mode: 0
LetterboxInBreaks: 1
WidescreenStoryboard: 1

[Editor]
DistanceSpacing: 1.5
BeatDivisor: 4
GridSize: 4
TimelineZoom: 1.7

[Metadata]
Title:Pretty Fly (For A White Guy)
TitleUnicode:Pretty Fly (For A White Guy)
Artist:Kadowaki Mai
ArtistUnicode:門脇舞以
Creator:Saten
Version:Haado
Source:
Tags:Saten-san Liiraye the Offspring engrish かどわき まい マイタ プロフィール まいた
BeatmapID:754245
BeatmapSetID:341075

[Difficulty]
HPDrainRate:5
CircleSize:3.5
OverallDifficulty:6.5
ApproachRate:7
SliderMultiplier:1.7
SliderTickRate:1

[Events]
//Background and Video events
0,0,"white.jpg",0,0
//Break Periods
//Storyboard Layer 0 (Background)
//Storyboard Layer 1 (Fail)
//Storyboard Layer 2 (Pass)
//Storyboard Layer 3 (Foreground)
//Storyboard Sound Samples

[TimingPoints]
3323,428.571428571429,4,2,1,60,1,0
18751,-100,4,2,1,60,0,0
46180,-100,4,2,1,70,0,1
71894,-100,4,2,1,60,0,0
72323,-100,4,2,1,50,0,0
73608,-100,4,2,1,60,0,0
101037,-100,4,2,1,70,0,1
126751,-100,4,2,1,60,0,0
127180,-100,4,2,1,50,0,0
128465,-133.333333333333,4,2,1,60,0,0
142180,-100,4,2,1,60,0,0
155894,-100,4,2,1,70,0,1
188465,-100,4,2,1,60,0,0
188894,-100,4,2,1,50,0,0

[Colours]
Combo1 : 172,89,255
Combo2 : 255,139,83
Combo3 : 47,151,255
Combo4 : 180,180,180

[HitObjects]
192,20,3323,5,6,0:0:0:0:
272,120,3537,2,0,L|256:160,2,42.5,2|2|2,0:0|0:0|0:0,0:0:0:0:
376,44,3965,1,2,0:0:0:0:
480,120,4180,2,0,P|464:164|436:188,1,85,2|2,0:0|0:0,0:0:0:0:
312,224,4608,2,0,P|268:236|240:264,1,85,2|2,0:0|0:0,0:0:0:0:
312,368,5037,5,2,0:0:0:0:
424,312,5251,1,0,0:0:0:0:
380,192,5465,2,0,L|320:132,1,85,8|2,2:3|0:0,0:0:0:0:
192,132,5894,2,0,L|132:192,1,85,0|2,0:0|0:0,0:0:0:0:
180,308,6323,1,8,2:3:0:0:
256,64,6751,5,2,0:0:0:0:
144,128,6965,1,2,0:0:0:0:
256,192,7180,2,0,L|256:276,1,85,8|2,2:3|0:0,0:0:0:0:
256,64,7823,1,2,0:0:0:0:
368,128,8037,1,8,2:3:0:0:
256,356,8465,6,0,P|216:340|192:308,1,85,2|0,0:0|0:0,0:0:0:0:
304,244,8894,2,0,P|344:228|368:196,1,85,8|2,2:3|0:0,0:0:0:0:
320,76,9323,1,0,0:0:0:0:
220,152,9537,1,2,0:0:0:0:
292,256,9751,6,0,P|380:244|424:180,1,170,8|2,2:3|0:0,0:0:0:0:
396,56,10394,1,2,0:0:0:0:
268,60,10608,2,0,L|200:112,1,85,8|2,2:3|0:0,0:0:0:0:
256,360,11251,2,0,L|324:308,1,85,2|8,0:0|2:3,0:0:0:0:
96,192,11894,5,2,0:0:0:0:
164,280,12108,1,0,0:0:0:0:
256,192,12323,2,0,P|296:172|336:176,1,85,8|2,2:3|0:0,0:0:0:0:
396,288,12751,2,0,P|436:308|476:304,1,85,0|2,0:0|0:0,0:0:0:0:
500,180,13180,1,8,2:3:0:0:
288,40,13608,6,0,P|248:60|228:96,1,85,2|2,0:0|0:0,0:0:0:0:
308,192,14037,1,8,2:3:0:0:
388,290,14251,2,0,P|366:325|328:343,1,85,2|0,0:0|0:0,0:0:0:0:
200,352,14680,1,2,0:0:0:0:
164,228,14894,2,0,P|188:192|224:172,1,85,8|0,2:3|0:0,0:0:0:0:
340,224,15323,5,2,0:0:0:0:
104,316,15751,2,0,L|52:248,1,85,8|2,2:3|0:0,0:0:0:0:
136,152,16180,2,0,L|188:84,1,85,0|2,0:0|0:0,0:0:0:0:
308,40,16608,1,8,2:3:0:0:
404,124,16823,1,0,0:0:0:0:
296,192,17037,6,0,P|253:194|218:219,1,85,2|8,0:0|2:3,0:0:0:0:
336,271,17465,2,0,P|377:272|413:299,1,85,0|8,0:0|2:3,0:0:0:0:
308,372,17894,1,8,2:3:0:0:
128,192,18323,1,8,2:3:0:0:
308,12,18751,6,0,P|344:84|299:152,1,170,6|8,0:0|0:0,0:0:0:0:
172,128,19394,1,0,0:0:0:0:
60,192,19608,2,0,P|40:229|43:271,1,85,2|2,0:0|0:0,0:0:0:0:
160,324,20037,2,0,P|179:286|176:244,1,85,8|0,0:0|0:0,0:0:0:0:
108,136,20465,6,0,P|131:56|206:23,1,170,2|8,0:0|0:0,0:0:0:0:
312,96,21108,1,0,0:0:0:0:
200,156,21323,1,2,0:0:0:0:
312,216,21537,1,2,0:0:0:0:
200,276,21751,2,0,P|158:272|124:247,1,85,8|0,0:0|0:0,0:0:0:0:
32,160,22180,6,0,P|5:238|43:311,1,170,2|8,0:0|0:0,0:0:0:0:
168,284,22823,1,0,0:0:0:0:
176,156,23037,2,0,L|132:84,1,85,2|2,0:0|0:0,0:0:0:0:
256,52,23465,2,0,L|300:124,1,85,8|0,0:0|0:0,0:0:0:0:
256,244,23894,6,0,P|184:288|108:260,1,170,2|8,0:0|0:0,0:0:0:0:
52,148,24537,1,0,0:0:0:0:
140,56,24751,2,0,P|180:84|192:116,1,85,2|0,0:0|0:0,0:0:0:0:
319,116,25180,2,0,P|336:78|372:56,1,85,8|0,0:0|0:0,0:0:0:0:
460,148,25608,6,0,L|416:312,1,170,2|8,0:0|0:0,0:0:0:0:
300,364,26251,1,0,0:0:0:0:
256,244,26465,2,0,P|273:206|309:184,2,85,2|2|8,0:0|0:0|0:0,0:0:0:0:
212,364,27108,1,0,0:0:0:0:
92,316,27323,6,0,P|39:252|52:170,1,170,2|8,0:0|0:0,0:0:0:0:
156,244,27965,1,0,0:0:0:0:
256,164,28180,1,2,0:0:0:0:
356,244,28394,1,2,0:0:0:0:
459,170,28608,2,0,P|471:130|464:89,1,85,8|0,0:0|0:0,0:0:0:0:
344,44,29037,5,2,0:0:0:0:
136,192,29465,1,8,0:0:0:0:
344,339,29894,2,0,P|370:307|380:266,1,85,2|2,0:0|0:0,0:0:0:0:
256,227,30323,2,0,P|214:224|183:195,1,85,8|0,0:0|0:0,0:0:0:0:
280,112,30751,2,0,P|371:189|332:303,1,255,2|0,0:0|0:0,0:0:0:0:
208,276,31608,2,0,P|188:238|192:197,1,85,2|2,0:0|0:0,0:0:0:0:
72,152,32037,2,0,P|52:189|56:230,1,85,2|2,0:0|0:0,0:0:0:0:
144,320,32465,6,0,L|256:192,1,170,6|8,0:0|0:0,0:0:0:0:
296,72,33108,1,2,0:0:0:0:
172,48,33323,2,0,P|132:64|108:96,1,85,2|0,0:0|0:0,0:0:0:0:
168,208,33751,2,0,L|204:240,2,42.5,8|0|0,0:0|0:0|0:0,0:0:0:0:
284,156,34180,6,0,P|312:192|316:232,1,85,2|0,0:0|0:0,0:0:0:0:
232,324,34608,2,0,P|186:330|150:313,1,85,8|2,0:0|0:0,0:0:0:0:
112,192,35037,2,0,P|129:149|161:126,2,85,2|0|8,0:0|0:0|0:0,0:0:0:0:
228,240,35680,1,0,0:0:0:0:
256,116,35894,6,0,L|204:48,1,85,2|0,0:0|0:0,0:0:0:0:
152,164,36323,2,0,L|67:152,1,85,8|2,0:0|0:0,0:0:0:0:
112,271,36751,2,0,L|44:323,2,85,2|0|8,0:0|0:0|0:0,0:0:0:0:
224,212,37394,1,0,0:0:0:0:
332,280,37608,6,0,P|320:324|292:352,1,85,2|0,0:0|0:0,0:0:0:0:
184,284,38037,2,0,P|156:248|120:232,1,85,8|2,0:0|0:0,0:0:0:0:
28,144,38465,2,0,P|60:112|100:104,1,85,2|0,0:0|0:0,0:0:0:0:
208,168,38894,2,0,L|232:204,2,42.5,8|0|0,0:0|0:0|0:0,0:0:0:0:
84,204,39323,5,2,0:0:0:0:
136,320,39537,1,0,0:0:0:0:
256,280,39751,2,0,P|292:259|311:222,1,85,8|2,0:0|0:0,0:0:0:0:
432,180,40180,2,0,P|445:219|433:259,1,85,2|0,0:0|0:0,0:0:0:0:
328,332,40608,2,0,L|316:372,2,42.5,8|0|0,0:0|0:0|0:0,0:0:0:0:
350,206,41037,6,0,P|323:173|283:161,1,85,2|0,0:0|0:0,0:0:0:0:
156,160,41465,2,0,P|182:127|222:115,1,85,8|2,0:0|0:0,0:0:0:0:
256,240,41894,2,0,L|256:324,1,85,2|0,0:0|0:0,0:0:0:0:
132,356,42323,2,0,L|88:348,2,42.5,8|0|0,0:0|0:0|0:0,0:0:0:0:
256,325,42751,5,2,0:0:0:0:
175,226,42965,1,0,0:0:0:0:
52,261,43180,2,0,P|29:225|27:183,1,85,8|2,0:0|0:0,0:0:0:0:
124,100,43608,2,0,P|202:125|275:85,1,170,2|8,0:0|0:0,0:0:0:0:
396,132,44251,1,0,0:0:0:0:
336,244,44465,1,2,0:0:0:0:
336,244,44894,5,2,0:0:0:0:
256,144,45108,1,2,0:0:0:0:
136,192,45323,1,2,0:0:0:0:
256,232,45537,1,2,0:0:0:0:
332,132,45751,1,2,0:0:0:0:
212,168,45965,1,2,0:0:0:0:
208,296,46180,6,0,P|246:311|288:303,2,85,6|0|8,0:0|0:0|0:0,0:0:0:0:
132,192,46823,1,0,0:0:0:0:
208,88,47037,2,0,L|292:68,1,85,2|2,0:0|0:0,0:0:0:0:
340,184,47465,2,0,L|257:164,1,85,8|0,0:0|0:0,0:0:0:0:
140,116,47894,6,0,P|136:72|152:36,2,85,2|0|8,0:0|0:0|0:0,0:0:0:0:
208,224,48537,1,0,0:0:0:0:
312,152,48751,1,2,0:0:0:0:
240,48,48965,1,2,0:0:0:0:
232,176,49180,2,0,P|249:213|286:231,1,85,8|0,0:0|0:0,0:0:0:0:
408,192,49608,5,2,0:0:0:0:
168,104,50037,1,8,0:0:0:0:
212,356,50465,1,2,0:0:0:0:
316,280,50680,1,2,0:0:0:0:
204,224,50894,2,0,L|128:188,1,85,8|0,0:0|0:0,0:0:0:0:
216,96,51323,6,0,L|292:60,1,85,2|0,0:0|0:0,0:0:0:0:
380,152,51751,1,8,0:0:0:0:
272,224,51965,1,0,0:0:0:0:
164,156,52180,2,0,P|140:121|138:79,1,85,2|2,0:0|0:0,0:0:0:0:
32,148,52608,2,0,P|20:192|28:232,1,85,8|0,0:0|0:0,0:0:0:0:
136,296,53037,5,6,0:0:0:0:
256,255,53251,2,0,P|282:223|289:182,2,85,0|8|0,0:0|0:0|0:0,0:0:0:0:
148,188,53894,1,2,0:0:0:0:
256,116,54108,1,2,0:0:0:0:
364,188,54323,2,0,L|396:268,1,85,8|0,0:0|0:0,0:0:0:0:
500,192,54751,5,2,0:0:0:0:
400,116,54965,1,0,0:0:0:0:
288,180,55180,2,0,P|247:189|208:174,2,85,8|0|2,0:0|0:0|0:0,0:0:0:0:
256,56,55823,1,2,0:0:0:0:
136,100,56037,2,0,L|92:172,1,85,8|0,0:0|0:0,0:0:0:0:
176,268,56465,5,2,0:0:0:0:
420,192,56894,1,8,0:0:0:0:
232,20,57323,2,0,L|180:88,1,85,2|2,0:0|0:0,0:0:0:0:
256,192,57751,2,0,L|323:139,1,85,8|0,0:0|0:0,0:0:0:0:
440,192,58180,5,2,0:0:0:0:
236,348,58608,1,8,0:0:0:0:
204,96,59037,1,2,0:0:0:0:
308,168,59251,1,2,0:0:0:0:
236,272,59465,2,0,B|192:272|160:240|160:240|128:208|84:208,1,170,8|6,0:0|0:0,0:0:0:0:
16,316,60108,5,0,0:0:0:0:
144,328,60323,2,0,L|164:244,1,85,8|0,0:0|0:0,0:0:0:0:
236,140,60751,2,0,L|256:224,1,85,2|2,0:0|0:0,0:0:0:0:
368,284,61180,1,8,0:0:0:0:
456,192,61394,1,0,0:0:0:0:
368,100,61608,6,0,L|288:72,1,85,2|0,0:0|0:0,0:0:0:0:
200,164,62037,2,0,L|280:192,1,85,8|0,0:0|0:0,0:0:0:0:
256,316,62465,1,2,0:0:0:0:
136,268,62680,1,2,0:0:0:0:
124,140,62894,2,0,P|145:103|182:85,1,85,8|0,0:0|0:0,0:0:0:0:
296,144,63323,5,2,0:0:0:0:
60,240,63751,1,8,0:0:0:0:
204,28,64180,2,0,P|248:24|288:40,1,85,2|2,0:0|0:0,0:0:0:0:
216,144,64608,2,0,P|172:140|132:156,1,85,8|0,0:0|0:0,0:0:0:0:
128,284,65037,5,2,0:0:0:0:
248,328,65251,1,0,0:0:0:0:
332,232,65465,2,0,P|355:197|357:155,1,85,8|0,0:0|0:0,0:0:0:0:
256,76,65894,1,2,0:0:0:0:
172,172,66108,1,2,0:0:0:0:
60,108,66323,2,0,P|26:133|12:173,1,85,8|0,0:0|0:0,0:0:0:0:
104,260,66751,5,6,0:0:0:0:
256,56,67180,1,8,0:0:0:0:
340,152,67394,1,0,0:0:0:0:
256,248,67608,2,0,P|212:232|188:200,1,85,2|2,0:0|0:0,0:0:0:0:
60,192,68037,2,0,P|60:284|116:332,1,170,8|2,0:0|0:0,0:0:0:0:
244,324,68680,5,0,0:0:0:0:
328,228,68894,1,8,0:0:0:0:
256,124,69108,1,0,0:0:0:0:
216,248,69323,2,0,P|231:287|264:313,1,85,2|2,0:0|0:0,0:0:0:0:
360,228,69751,2,0,P|390:199|431:188,1,85,8|0,0:0|0:0,0:0:0:0:
476,308,70180,5,2,0:0:0:0:
356,348,70394,1,2,0:0:0:0:
256,268,70608,1,2,0:0:0:0:
156,348,70823,1,2,0:0:0:0:
36,308,71037,2,0,P|11:271|9:231,1,85,2|2,0:0|0:0,0:0:0:0:
124,180,71465,2,0,P|133:136|158:107,1,85,2|2,0:0|0:0,0:0:0:0:
256,192,71894,1,2,0:0:0:0:
256,192,72323,5,8,2:3:0:0:
160,276,72537,1,8,2:3:0:0:
256,360,72751,1,8,2:3:0:0:
160,276,72965,1,8,2:3:0:0:
256,192,73180,1,8,2:3:0:0:
256,192,73608,6,0,P|264:148|256:108,1,85,6|0,0:0|0:0,0:0:0:0:
148,180,74037,2,0,P|140:221|148:263,1,85,8|0,0:0|0:0,0:0:0:0:
256,332,74465,1,2,0:0:0:0:
364,263,74680,1,2,0:0:0:0:
256,332,74894,6,0,P|215:258|256:192,2,170,8|2|8,0:0|0:0|0:0,0:0:0:0:
360,256,75965,1,0,0:0:0:0:
328,132,76180,2,0,P|288:100|256:96,1,85,2|2,0:0|0:0,0:0:0:0:
160,180,76608,6,0,P|84:177|44:100,2,170,8|2|8,0:0|0:0|0:0,0:0:0:0:
255,96,77680,1,0,0:0:0:0:
352,180,77894,2,0,P|340:220|304:244,1,85,2|2,0:0|0:0,0:0:0:0:
216,336,78323,6,0,P|296:372|372:348,2,170,8|2|8,0:0|0:0|0:0,0:0:0:0:
128,244,79394,1,0,0:0:0:0:
200,140,79608,2,0,P|244:135|281:149,1,85,2|2,0:0|0:0,0:0:0:0:
204,252,80037,6,0,P|112:208|96:148,2,170,8|2|8,0:0|0:0|0:0,0:0:0:0:
316,192,81108,1,0,0:0:0:0:
256,80,81323,2,0,P|293:60|335:63,1,85,2|2,0:0|0:0,0:0:0:0:
312,188,81751,6,0,P|256:256|280:328,2,170,8|2|8,0:0|0:0|0:0,0:0:0:0:
440,192,82823,1,0,0:0:0:0:
468,316,83037,2,0,P|428:328|384:316,1,85,2|2,0:0|0:0,0:0:0:0:
276,252,83465,6,0,P|188:248|136:304,1,170,8|2,0:0|0:0,0:0:0:0:
32,72,84323,1,8,0:0:0:0:
256,192,84751,2,0,P|232:228|192:244,1,85,2|2,0:0|0:0,0:0:0:0:
68,224,85180,2,0,P|32:248|12:284,1,85,8|0,0:0|0:0,0:0:0:0:
132,320,85608,5,2,0:0:0:0:
132,320,85823,2,0,L|132:148,1,170,8|8,3:0|3:0,0:0:0:0:
256,116,86465,1,8,3:0:0:0:
452,280,86894,1,8,3:0:0:0:
211,368,87323,6,0,P|142:325|139:243,1,170,6|8,0:0|0:0,0:0:0:0:
256,192,87965,1,2,0:0:0:0:
372,140,88180,2,0,P|369:58|300:16,1,170,2|8,0:0|0:0,0:0:0:0:
184,72,88823,1,0,0:0:0:0:
184,200,89037,6,0,P|212:236|248:248,1,85,2|0,0:0|0:0,0:0:0:0:
364,200,89465,2,0,P|336:164|300:152,1,85,8|2,0:0|0:0,0:0:0:0:
256,272,89894,2,0,L|256:360,2,85,2|0|8,0:0|0:0|0:0,0:0:0:0:
256,144,90537,1,0,0:0:0:0:
156,68,90751,6,0,L|72:96,1,85,2|0,0:0|0:0,0:0:0:0:
156,192,91180,2,0,L|240:220,1,85,8|2,0:0|0:0,0:0:0:0:
156,316,91608,2,0,L|72:344,2,85,2|0|8,0:0|0:0|0:0,0:0:0:0:
256,236,92251,1,0,0:0:0:0:
212,116,92465,6,0,P|189:80|153:59,1,85,2|0,0:0|0:0,0:0:0:0:
299,116,92894,2,0,P|322:80|358:59,1,85,8|2,0:0|0:0,0:0:0:0:
332,216,93323,2,0,P|256:248|180:216,1,170,2|8,0:0|0:0,0:0:0:0:
64,160,93965,1,0,0:0:0:0:
16,280,94180,6,0,L|16:368,1,85,2|0,0:0|0:0,0:0:0:0:
136,328,94608,2,0,L|136:156,2,170,8|2|8,0:0|0:0|0:0,0:0:0:0:
256,280,95680,1,0,0:0:0:0:
220,156,95894,6,0,L|184:80,1,85,2|0,0:0|0:0,0:0:0:0:
308,116,96323,2,0,L|344:192,1,85,8|2,0:0|0:0,0:0:0:0:
256,288,96751,2,0,B|200:288|176:264|176:264|152:240|96:240,1,170,2|8,0:0|0:0,0:0:0:0:
36,352,97394,1,0,0:0:0:0:
148,292,97608,6,0,L|200:224,1,85,2|0,0:0|0:0,0:0:0:0:
308,156,98037,2,0,L|256:88,1,85,8|2,0:0|0:0,0:0:0:0:
140,144,98465,1,2,0:0:0:0:
256,372,98894,1,8,0:0:0:0:
372,144,99323,5,2,0:0:0:0:
132,232,99751,2,0,L|88:304,1,85,2|2,0:0|0:0,0:0:0:0:
212,280,100180,2,0,L|238:359,1,85,2|2,0:0|0:0,0:0:0:0:
300,249,100608,2,0,L|378:279,1,85,2|2,0:0|0:0,0:0:0:0:
472,192,101037,5,6,0:0:0:0:
388,96,101251,1,0,0:0:0:0:
280,164,101465,2,0,P|236:176|196:172,1,85,8|0,0:0|0:0,0:0:0:0:
72,192,101894,2,0,P|112:264|192:280,1,170,2|8,0:0|0:0,0:0:0:0:
312,236,102537,1,0,0:0:0:0:
292,108,102751,6,0,L|256:32,1,85,2|0,0:0|0:0,0:0:0:0:
160,116,103180,2,0,L|196:192,1,85,8|0,0:0|0:0,0:0:0:0:
180,320,103608,1,2,0:0:0:0:
52,308,103823,1,2,0:0:0:0:
4,191,104037,2,0,P|41:173|83:175,1,85,8|0,0:0|0:0,0:0:0:0:
200,228,104465,6,0,P|276:192|300:112,1,170,2|8,0:0|0:0,0:0:0:0:
56,40,105323,1,2,0:0:0:0:
100,292,105751,1,8,0:0:0:0:
256,88,106180,6,0,P|296:72|340:76,1,85,2|0,0:0|0:0,0:0:0:0:
388,192,106608,2,0,P|348:176|304:180,1,85,8|0,0:0|0:0,0:0:0:0:
256,296,107037,1,2,0:0:0:0:
360,368,107251,1,2,0:0:0:0:
444,272,107465,2,0,L|472:192,1,85,8|0,0:0|0:0,0:0:0:0:
372,112,107894,5,6,0:0:0:0:
256,168,108108,1,0,0:0:0:0:
140,112,108323,1,8,0:0:0:0:
40,192,108537,2,0,L|68:272,1,85,0|2,0:0|0:0,0:0:0:0:
180,328,108965,2,0,L|208:248,2,85,2|8|0,0:0|0:0|0:0,0:0:0:0:
56,352,109608,5,2,0:0:0:0:
40,224,109823,1,0,0:0:0:0:
152,160,110037,2,0,P|192:144|236:144,1,85,8|0,0:0|0:0,0:0:0:0:
308,40,110465,2,0,P|268:24|224:24,1,85,2|2,0:0|0:0,0:0:0:0:
116,88,110894,1,8,0:0:0:0:
256,300,111323,5,2,0:0:0:0:
396,88,111751,1,8,0:0:0:0:
180,228,112180,1,2,0:0:0:0:
256,332,112394,1,2,0:0:0:0:
332,228,112608,1,8,0:0:0:0:
152,48,113037,5,2,0:0:0:0:
256,280,113465,1,8,0:0:0:0:
360,48,113894,1,2,0:0:0:0:
256,120,114108,1,2,0:0:0:0:
372,176,114323,2,0,P|455:149|484:76,1,170,8|6,0:0|0:0,0:0:0:0:
368,24,114965,6,0,L|284:24,1,85,0|8,0:0|0:0,0:0:0:0:
256,148,115394,2,0,P|264:232|328:280,1,170,0|2,0:0|0:0,0:0:0:0:
448,228,116037,1,8,0:0:0:0:
256,60,116465,6,0,P|212:68|180:92,2,85,2|0|8,0:0|0:0|0:0,0:0:0:0:
256,188,117108,2,0,P|176:216|100:184,1,170,0|2,0:0|0:0,0:0:0:0:
140,64,117751,1,8,0:0:0:0:
256,292,118180,5,2,0:0:0:0:
16,376,118608,1,8,0:0:0:0:
148,160,119037,2,0,L|228:192,1,85,2|2,0:0|0:0,0:0:0:0:
348,156,119465,2,0,L|268:124,1,85,8|0,0:0|0:0,0:0:0:0:
152,176,119894,5,2,0:0:0:0:
272,216,120108,1,0,0:0:0:0:
152,256,120323,1,8,0:0:0:0:
272,296,120537,1,0,0:0:0:0:
152,336,120751,2,0,P|108:328|80:300,1,85,2|2,0:0|0:0,0:0:0:0:
72,172,121180,2,0,P|112:96|88:20,1,170,8|6,0:0|0:0,0:0:0:0:
256,212,122037,5,8,0:0:0:0:
172,308,122251,1,0,0:0:0:0:
56,256,122465,2,0,L|24:176,1,85,2|2,0:0|0:0,0:0:0:0:
96,68,122894,2,0,L|159:226,1,170,8|2,0:0|0:0,0:0:0:0:
412,192,123751,5,8,0:0:0:0:
208,40,124180,1,2,0:0:0:0:
136,148,124394,1,2,0:0:0:0:
256,192,124608,1,8,0:0:0:0:
256,192,125037,6,0,L|316:132,1,85,2|2,0:0|0:0,0:0:0:0:
256,192,125465,2,0,L|277:273,1,85,2|2,0:0|0:0,0:0:0:0:
256,192,125894,2,0,L|174:170,1,85,2|2,0:0|0:0,0:0:0:0:
234,104,126323,1,2,0:0:0:0:
342,217,126537,1,2,0:0:0:0:
190,254,126751,1,2,0:0:0:0:
256,192,127180,5,8,2:3:0:0:
256,192,127394,1,8,2:3:0:0:
256,192,127608,1,8,2:3:0:0:
256,192,127823,1,8,2:3:0:0:
256,192,128037,2,0,L|276:276,1,85,8|0,2:3|2:3,2:0:0:0:
196,328,128465,6,0,P|142:295|123:236,1,127.500004863739,4|8,0:0|2:3,0:0:0:0:
196,132,129108,1,8,2:3:0:0:
308,192,129323,2,0,L|308:256,1,63.7500024318696
400,344,129751,2,0,L|400:280,1,63.7500024318696,8|0,2:3|0:0,0:0:0:0:
400,152,130180,5,0,0:0:0:0:
236,348,130608,1,8,2:3:0:0:
488,312,131037,2,0,P|492:280|488:248,1,63.7500024318696,0|8,0:0|2:3,0:0:0:0:
360,240,131465,2,0,P|313:197|306:135,2,127.500004863739,8|0|8,2:3|0:0|2:3,0:0:0:0:
460,160,132537,5,8,2:3:0:0:
368,72,132751,2,0,P|304:48|252:68,1,127.500004863739,0|8,0:0|2:3,0:0:0:0:
140,296,133608,1,0,0:0:0:0:
372,192,134037,2,0,L|320:156,1,63.7500024318696,8|8,2:3|2:3,0:0:0:0:
192,156,134465,2,0,L|140:192,1,63.7500024318696,0|8,0:0|2:3,0:0:0:0:
216,296,134894,1,8,2:3:0:0:
256,44,135323,6,0,P|225:31|194:26,1,63.7500024318696,6|0,0:0|0:0,0:0:0:0:
88,92,135751,1,8,2:3:0:0:
136,208,135965,1,0,0:0:0:0:
264,216,136180,2,0,P|300:266|299:329,1,127.500004863739,0|8,0:0|2:3,0:0:0:0:
176,368,136823,1,6,0:0:0:0:
76,288,137037,5,6,0:0:0:0:
256,108,137465,1,8,2:3:0:0:
436,288,137894,2,0,P|408:308|376:312,1,63.7500024318696,0|8,0:0|2:3,0:0:0:0:
256,272,138323,2,0,P|232:252|200:244,1,63.7500024318696,8|2,2:3|0:0,0:0:0:0:
84,192,138751,6,0,P|106:133|162:105,1,127.500004863739,4|8,0:0|2:3,0:0:0:0:
256,192,139394,1,0,0:0:0:0:
349,278,139608,2,0,P|405:250|428:192,1,127.500004863739,0|8,0:0|2:3,0:0:0:0:
344,96,140251,1,0,0:0:0:0:
168,288,140680,1,6,0:0:0:0:
386,186,141108,5,2,0:0:0:0:
125,197,141323,1,6,0:0:0:0:
352,280,141537,1,2,0:0:0:0:
160,103,141752,1,2,0:0:0:0:
256,192,142180,6,0,P|284:160|296:120,1,85,6|0,0:0|0:0,0:0:0:0:
200,30,142608,2,0,P|173:62|160:102,1,85,8|0,0:0|0:0,0:0:0:0:
184,228,143037,1,2,0:0:0:0:
68,280,143251,1,2,0:0:0:0:
20,159,143465,6,0,P|76:100|159:102,1,170,8|2,0:0|0:0,0:0:0:0:
360,264,144323,2,0,P|404:256|436:232,1,85,8|0,0:0|0:0,0:0:0:0:
256,52,144965,2,0,P|212:44|180:20,1,85,2|8,0:0|0:0,0:0:0:0:
56,244,145608,5,2,0:0:0:0:
152,332,145823,1,0,0:0:0:0:
256,256,146037,2,0,P|272:216|268:176,1,85,8|0,0:0|0:0,0:0:0:0:
376,112,146465,2,0,P|396:152|396:192,1,85,2|2,0:0|0:0,0:0:0:0:
320,296,146894,2,0,P|232:284|188:220,1,170,8|2,0:0|0:0,0:0:0:0:
364,36,147751,5,8,0:0:0:0:
384,159,147965,2,0,P|302:151|255:83,1,170,0|2,0:0|0:0,0:0:0:0:
127,159,148608,2,0,P|209:151|256:83,1,170,8|2,0:0|0:0,0:0:0:0:
140,32,149251,5,0,0:0:0:0:
56,128,149465,2,0,P|48:176|64:208,1,85,8|0,0:0|0:0,0:0:0:0:
192,192,149894,1,2,0:0:0:0:
256,84,150108,1,2,0:0:0:0:
384,96,150323,2,0,P|428:172|405:245,1,170,8|2,0:0|0:0,0:0:0:0:
176,356,151180,5,8,0:0:0:0:
76,276,151394,1,0,0:0:0:0:
256,96,151823,1,2,0:0:0:0:
356,176,152037,1,8,0:0:0:0:
256,256,152251,6,0,P|255:295|278:332,2,85,0|6|8,0:0|0:0|0:0,0:0:0:0:
384,252,152894,2,0,P|419:229|435:191,1,85,2|8,0:0|0:0,0:0:0:0:
316,152,153323,2,0,P|325:111|309:72,1,85,2|8,0:0|0:0,0:0:0:0:
197,129,153751,2,0,P|174:93|136:77,1,85,2|8,0:0|0:0,0:0:0:0:
96,196,154180,2,0,P|55:186|16:202,3,85,8|8|8|2,0:0|0:0|0:0|0:0,0:0:0:0:
40,328,155037,2,0,P|120:348|192:304,1,170,8|8,0:0|0:0,0:0:0:0:
352,108,155894,5,6,0:0:0:0:
448,192,156108,1,0,0:0:0:0:
384,304,156323,2,0,P|348:325|306:324,1,85,8|0,0:0|0:0,0:0:0:0:
192,268,156751,2,0,P|187:226|163:191,1,85,2|2,0:0|0:0,0:0:0:0:
48,136,157180,2,0,P|32:96|36:52,1,85,8|0,0:0|0:0,0:0:0:0:
160,32,157608,5,2,0:0:0:0:
256,116,157823,1,0,0:0:0:0:
208,232,158037,1,8,0:0:0:0:
79,236,158251,2,0,P|44:258|24:295,2,85,0|2|2,0:0|0:0|0:0,0:0:0:0:
172,324,158894,2,0,P|254:321|303:256,1,170,8|2,0:0|0:0,0:0:0:0:
164,44,159751,5,8,0:0:0:0:
88,288,160180,1,2,0:0:0:0:
300,148,160608,2,0,L|360:88,1,85,8|0,0:0|0:0,0:0:0:0:
212,236,161037,2,0,L|152:296,1,85,2|0,0:0|0:0,0:0:0:0:
300,236,161465,2,0,L|360:296,1,85,8|0,0:0|0:0,0:0:0:0:
212,148,161894,2,0,L|152:88,1,85,2|2,0:0|0:0,0:0:0:0:
76,192,162323,1,8,0:0:0:0:
151,297,162537,1,0,0:0:0:0:
256,224,162751,6,0,P|292:200|332:192,2,85,6|0|8,0:0|0:0|0:0,0:0:0:0:
372,280,163394,2,0,P|429:221|413:141,1,170,0|2,0:0|0:0,0:0:0:0:
300,80,164037,1,8,0:0:0:0:
192,148,164251,1,0,0:0:0:0:
256,260,164465,6,0,P|228:292|188:300,2,85,2|0|8,0:0|0:0|0:0,0:0:0:0:
131,232,165108,2,0,P|101:307|147:375,1,170,0|2,0:0|0:0,0:0:0:0:
276,360,165751,1,8,0:0:0:0:
176,124,166180,5,2,0:0:0:0:
48,344,166608,1,8,0:0:0:0:
256,192,167037,2,0,P|280:152|280:112,1,85,2|2,0:0|0:0,0:0:0:0:
180,36,167465,2,0,P|96:84|92:152,1,170,8|2,0:0|0:0,0:0:0:0:
256,344,168323,1,8,0:0:0:0:
421,149,168751,2,0,L|348:104,1,85,2|2,0:0|0:0,0:0:0:0:
240,172,169180,2,0,L|313:217,1,85,8|0,0:0|0:0,0:0:0:0:
172,288,169608,5,6,0:0:0:0:
108,180,169823,1,0,0:0:0:0:
192,84,170037,2,0,P|231:69|273:77,1,85,8|0,0:0|0:0,0:0:0:0:
492,208,170680,5,2,0:0:0:0:
416,308,170894,1,8,0:0:0:0:
336,208,171108,1,0,0:0:0:0:
256,308,171323,1,2,0:0:0:0:
176,208,171537,1,0,0:0:0:0:
96,308,171751,1,8,0:0:0:0:
16,208,171965,1,0,0:0:0:0:
256,124,172394,5,2,0:0:0:0:
344,216,172608,1,8,0:0:0:0:
256,308,172823,2,0,P|216:288|196:252,1,85,0|2,0:0|0:0,0:0:0:0:
392,88,173465,1,8,0:0:0:0:
484,324,173894,2,0,L|408:360,1,85,2|2,0:0|0:0,0:0:0:0:
336,252,174323,2,0,L|256:224,1,85,8|0,0:0|0:0,0:0:0:0:
180,120,174751,5,2,0:0:0:0:
356,162,174965,1,0,0:0:0:0:
231,293,175180,2,0,P|190:303|149:296,1,85,8|0,0:0|0:0,0:0:0:0:
180,120,175608,2,0,P|191:80|218:48,1,85,2|2,0:0|0:0,0:0:0:0:
356,162,176037,2,0,P|385:192|399:232,1,85,8|0,0:0|0:0,0:0:0:0:
256,192,176465,5,6,0:0:0:0:
464,44,176894,1,8,0:0:0:0:
496,168,177108,1,0,0:0:0:0:
404,256,177323,2,0,P|356:256|324:236,1,85,2|2,0:0|0:0,0:0:0:0:
108,256,177751,2,0,P|187:236|220:160,1,170,8|2,0:0|0:0,0:0:0:0:
96,132,178394,2,0,P|56:117|31:83,1,85,0|8,0:0|0:0,0:0:0:0:
144,24,178823,1,0,0:0:0:0:
336,192,179251,1,2,0:0:0:0:
256,292,179465,2,0,P|200:244|212:156,1,170,8|6,0:0|0:0,0:0:0:0:
464,192,180323,5,8,0:0:0:0:
280,368,180751,1,2,0:0:0:0:
92,192,181180,1,8,0:0:0:0:
344,228,181608,1,2,0:0:0:0:
235,295,181823,2,0,P|211:262|207:220,1,85,0|8,0:0|0:0,0:0:0:0:
256,100,182251,1,0,0:0:0:0:
440,280,182680,1,2,0:0:0:0:
324,228,182894,1,8,0:0:0:0:
440,176,183108,1,0,0:0:0:0:
324,124,183323,1,6,0:0:0:0:
164,320,183751,6,0,P|82:308|40:238,1,170,8|2,0:0|0:0,0:0:0:0:
148,172,184394,1,2,0:0:0:0:
255,105,184608,2,0,P|212:34|131:23,1,170,8|2,0:0|0:0,0:0:0:0:
80,140,185251,1,0,0:0:0:0:
256,324,185680,1,0,0:0:0:0:
432,140,186108,2,0,P|418:100|387:71,1,85,2|8,0:0|0:0,0:0:0:0:
256,192,186751,6,0,L|193:249,1,85,2|2,0:0|0:0,0:0:0:0:
256,192,187180,2,0,L|171:187,1,85,2|2,0:0|0:0,0:0:0:0:
256,192,187608,2,0,L|198:129,1,85,2|2,0:0|0:0,0:0:0:0:
256,192,188037,2,0,L|260:107,1,85,2|2,0:0|0:0,0:0:0:0:
256,192,188465,2,0,L|381:77,1,170,2|8,0:0|2:3,0:0:0:0:
444,192,189108,5,8,2:3:0:0:
381,306,189323,1,8,2:3:0:0:
444,192,189537,1,8,2:3:0:0:
381,77,189751,1,8,2:3:0:0:
