osu file format v14

[General]
AudioFilename: audio.mp3
AudioLeadIn: 0
PreviewTime: -1
Countdown: 0
SampleSet: None
StackLeniency: 0.5
Mode: 0
LetterboxInBreaks: 0
WidescreenStoryboard: 1

[Editor]
DistanceSpacing: 1.2
BeatDivisor: 4
GridSize: 8
TimelineZoom: 1

[Metadata]
Title:Kachulugoto
TitleUnicode:Kachulugoto
Artist:Kachulu
ArtistUnicode:Kachulu
Creator:DAKINUVPEPR
Version:Kachuwu
Source:Hitorigoto
Tags:
BeatmapID:1669945
BeatmapSetID:795137

[Difficulty]
HPDrainRate:0
CircleSize:4
OverallDifficulty:5
ApproachRate:7
SliderMultiplier:1.4
SliderTickRate:1

[Events]
//Background and Video events
Video,0,"『Kachulugoto』- Eromanga Sensei OP (Hitorigoto) (youtubemp4.to).mp4"
0,0,"not kachulu.jpg",0,0
//Break Periods
//Storyboard Layer 0 (Background)
//Storyboard Layer 1 (Fail)
//Storyboard Layer 2 (Pass)
//Storyboard Layer 3 (Foreground)
//Storyboard Sound Samples

[TimingPoints]
672,363.636363636364,4,1,0,100,1,0
35581,-200,4,1,0,100,0,0
41399,-100,4,1,0,100,0,0
54490,-83.3333333333333,4,1,0,100,0,1
86490,-100,4,1,0,100,0,0

[Colours]
Combo1 : 9,211,255
Combo2 : 255,140,238
Combo3 : 0,138,251
Combo4 : 210,210,210

[HitObjects]
96,112,672,5,0,0:0:0:0:
128,216,853,1,0,0:0:0:0:
208,152,1035,2,0,P|280:128|336:176,2,140
216,312,2126,5,0,0:0:0:0:
296,280,2308,1,0,0:0:0:0:
248,200,2490,2,0,P|336:136|320:104,2,140
136,96,3581,5,0,0:0:0:0:
48,136,3762,1,0,0:0:0:0:
80,56,3944,2,0,P|128:120|200:136,2,140
184,32,5035,5,2,0:0:0:0:
264,80,5217,1,2,0:0:0:0:
224,152,5581,2,0,P|288:160|352:112,2,140,0|0|4,0:0|0:0|0:0,0:0:0:0:
120,160,6490,5,0,0:0:0:0:
224,240,6672,1,0,0:0:0:0:
128,272,6853,2,0,L|264:320,2,140
72,160,7944,5,0,0:0:0:0:
144,96,8126,1,0,0:0:0:0:
192,160,8308,2,0,B|224:224|280:128|328:192,2,140
136,48,9399,6,0,L|224:72,1,70
256,128,9762,2,0,P|304:56|336:72,2,140
184,72,10853,5,2,0:0:0:0:
112,72,11035,1,2,0:0:0:0:
144,136,11399,2,0,P|144:168|176:200,1,70
224,208,11762,1,0,0:0:0:0:
232,216,11944,1,0,0:0:0:0:
240,224,12126,1,0,0:0:0:0:
296,160,12308,6,0,L|432:96,1,140,4|0,0:0|0:0,0:0:0:0:
456,168,13035,2,0,L|392:200,1,70
320,232,13399,1,0,0:0:0:0:
208,232,13581,6,0,P|176:208|200:96,2,140
160,296,14671,1,0,0:0:0:0:
64,264,15217,5,4,0:0:0:0:
96,80,15581,1,0,0:0:0:0:
160,128,15944,2,0,P|216:112|232:104,2,70
104,192,16490,5,0,0:0:0:0:
160,288,16854,1,0,0:0:0:0:
216,192,17217,1,0,0:0:0:0:
272,240,17581,2,0,L|352:216,2,70
264,152,18126,6,0,P|312:80|376:40,1,140,4|0,0:0|0:0,0:0:0:0:
248,24,18854,1,0,0:0:0:0:
224,48,19035,1,0,0:0:0:0:
200,80,19217,1,0,0:0:0:0:
152,128,19399,6,0,P|176:200|240:200,2,140
231,204,20490,1,0,0:0:0:0:
320,184,21035,5,4,0:0:0:0:
352,280,21399,2,0,L|224:360,1,140
208,344,21944,1,0,0:0:0:0:
184,328,22126,1,0,0:0:0:0:
112,224,22308,2,0,P|176:168|248:200,2,140
96,112,23399,5,8,0:0:0:0:
96,112,23490,1,8,0:0:0:0:
96,112,23581,1,8,0:0:0:0:
192,64,23762,1,8,0:0:0:0:
192,64,23853,1,8,0:0:0:0:
192,64,23944,6,0,P|240:160|280:176,1,140,4|0,0:0|0:0,0:0:0:0:
145,118,24672,2,0,P|236:173|278:166,1,140
134,186,25399,2,0,P|241:186|273:158,1,140
167,258,26126,2,0,P|254:195|263:153,1,140
368,64,26853,5,0,0:0:0:0:
384,192,27035,1,0,0:0:0:0:
216,152,27217,1,0,0:0:0:0:
304,136,27399,1,0,0:0:0:0:
224,32,27581,1,0,0:0:0:0:
128,104,27762,1,0,0:0:0:0:
192,240,27944,1,0,0:0:0:0:
64,200,28126,1,0,0:0:0:0:
48,288,28308,6,0,B|136:328,1,70
208,296,28853,1,0,0:0:0:0:
288,288,29217,2,0,L|360:224,1,70
384,144,29581,1,8,0:0:0:0:
384,144,29672,1,8,0:0:0:0:
384,144,29762,6,0,P|308:220|306:263,1,140,4|0,0:0|0:0,0:0:0:0:
317,117,30490,2,0,P|293:221|314:259,1,140
249,128,31217,2,0,P|283:229|320:251,1,140
192,183,31944,2,0,P|279:245|322:240,1,140
320,160,32672,5,0,0:0:0:0:
384,72,32853,1,0,0:0:0:0:
416,160,33035,1,0,0:0:0:0:
496,232,33217,1,0,0:0:0:0:
416,288,33399,1,0,0:0:0:0:
344,192,33581,1,0,0:0:0:0:
288,296,33762,1,0,0:0:0:0:
208,232,33944,1,0,0:0:0:0:
128,152,34126,6,0,P|160:128|200:112,1,70
208,32,34672,1,0,0:0:0:0:
280,112,35035,2,0,L|352:88,1,70
304,192,35399,1,8,0:0:0:0:
304,192,35490,1,8,0:0:0:0:
304,192,35581,6,0,P|296:232|272:256,1,70,4|0,0:0|0:0,0:0:0:0:
192,304,36308,2,0,P|197:269|219:243,1,70
232,232,36853,1,0,0:0:0:0:
248,216,37035,6,0,L|200:160,1,70
232,88,37762,2,0,L|280:144,1,70
296,144,38308,1,0,0:0:0:0:
320,144,38490,6,0,P|352:200|352:216,1,70
361,136,39217,2,0,P|353:200|344:213,1,70
344,264,39944,5,0,0:0:0:0:
224,248,40308,1,0,0:0:0:0:
152,144,40626,2,0,L|120:152,2,26.25
240,120,41035,2,0,L|264:112,2,26.25
184,64,41399,5,4,0:0:0:0:
304,48,41762,2,0,P|344:80|376:88,2,70
296,112,42490,2,0,P|336:144|368:152,2,70
256,160,43217,1,0,0:0:0:0:
344,216,43399,1,0,0:0:0:0:
264,256,43581,2,0,L|184:272,1,70
120,216,44126,1,4,0:0:0:0:
120,96,44672,6,0,P|160:144|184:152,1,70
192,112,45035,1,0,0:0:0:0:
224,208,45399,2,0,P|279:179|292:158,1,70
255,141,45762,1,0,0:0:0:0:
328,96,46126,2,0,P|295:42|272:31,1,70
257,70,46489,1,0,0:0:0:0:
208,152,46672,1,0,0:0:0:0:
312,160,46853,1,0,0:0:0:0:
232,232,47035,5,0,0:0:0:0:
232,232,47126,1,0,0:0:0:0:
232,232,47217,2,0,P|192:272|168:280,2,70,4|0|0,0:0|0:0|0:0,0:0:0:0:
208,160,47762,1,0,0:0:0:0:
160,104,47944,1,0,0:0:0:0:
104,120,48308,6,0,P|64:160|64:192,2,70
216,88,49035,2,0,L|288:56,2,70
160,136,49581,1,0,0:0:0:0:
208,208,49762,1,0,0:0:0:0:
248,136,49944,1,0,0:0:0:0:
296,208,50126,6,0,P|344:240|424:264,1,140
422,263,50672,1,0,0:0:0:0:
422,263,50853,1,0,0:0:0:0:
272,344,51399,1,0,0:0:0:0:
202,311,51581,1,0,0:0:0:0:
211,235,51944,1,0,0:0:0:0:
287,220,52308,1,0,0:0:0:0:
324,287,52672,1,0,0:0:0:0:
384,176,53035,5,8,0:0:0:0:
384,176,53126,1,8,0:0:0:0:
384,176,53217,1,8,0:0:0:0:
384,176,53308,1,4,0:0:0:0:
360,96,53581,2,0,P|296:72|152:88,1,210,4|0,0:0|0:0,0:0:0:0:
88,192,54490,6,0,L|144:280,1,83.9999974365235,6|6,0:0|0:0,0:0:0:0:
192,208,54853,2,0,L|146:137,1,83.9999974365235
256,128,55217,1,0,0:0:0:0:
352,208,55399,1,0,0:0:0:0:
256,256,55581,1,0,0:0:0:0:
256,128,55762,1,0,0:0:0:0:
88,80,55944,5,0,0:0:0:0:
184,112,56126,1,0,0:0:0:0:
112,184,56308,1,0,0:0:0:0:
40,248,56490,2,0,P|96:304|184:344,1,167.999994873047
248,264,57035,1,0,0:0:0:0:
312,336,57217,1,0,0:0:0:0:
360,248,57399,5,6,0:0:0:0:
400,128,57581,2,0,P|400:64|384:32,1,83.9999974365235,6|0,0:0|0:0,0:0:0:0:
328,96,57944,2,0,P|323:137|335:177,1,83.9999974365235
384,128,58308,2,0,P|384:64|368:32,1,83.9999974365235
312,96,58671,2,0,P|307:137|319:177,1,83.9999974365235
248,216,59035,1,0,0:0:0:0:
56,128,59399,1,0,0:0:0:0:
48,320,59762,5,0,0:0:0:0:
152,216,59944,1,0,0:0:0:0:
88,352,60126,1,0,0:0:0:0:
176,312,60490,2,0,L|336:248,1,167.999994873047,6|0,0:0|0:0,0:0:0:0:
360,168,61035,1,0,0:0:0:0:
312,96,61217,1,0,0:0:0:0:
352,352,61399,1,0,0:0:0:0:
400,280,61581,1,0,0:0:0:0:
400,192,61944,6,0,L|288:144,1,83.9999974365235
248,152,62308,2,0,L|144:192,1,83.9999974365235
112,136,62853,1,0,0:0:0:0:
168,80,63217,6,0,P|256:32|328:56,1,167.999994873047
336,128,63944,2,0,P|267:173|187:159,1,167.999994873047
64,328,64672,1,0,0:0:0:0:
96,200,64853,1,0,0:0:0:0:
160,328,65035,1,0,0:0:0:0:
96,200,65217,1,0,0:0:0:0:
184,232,65399,1,8,0:0:0:0:
200,224,65581,1,8,0:0:0:0:
216,216,65762,1,8,0:0:0:0:
232,208,65944,1,8,0:0:0:0:
296,144,66126,6,0,L|400:192,2,83.9999974365235,6|6|0,0:0|0:0|0:0,0:0:0:0:
224,104,66672,2,0,L|135:30,2,83.9999974365235
248,168,67217,2,0,L|160:200,1,83.9999974365235
56,280,67581,5,0,0:0:0:0:
160,328,67762,1,0,0:0:0:0:
256,272,67944,1,0,0:0:0:0:
352,328,68126,1,0,0:0:0:0:
376,232,68490,2,0,P|400:160|376:136,2,83.9999974365235
304,264,69035,5,6,0:0:0:0:
224,192,69217,1,6,0:0:0:0:
186,108,69398,1,0,0:0:0:0:
102,145,69580,1,0,0:0:0:0:
140,230,69762,1,0,0:0:0:0:
102,145,69944,1,0,0:0:0:0:
186,108,70126,1,0,0:0:0:0:
224,192,70307,1,0,0:0:0:0:
272,112,70490,6,0,L|336:24,2,83.9999974365235
296,136,71035,1,0,0:0:0:0:
320,160,71217,1,0,0:0:0:0:
352,192,71399,2,0,P|328:240|280:248,2,83.9999974365235
392,208,71944,5,6,0:0:0:0:
200,296,72126,2,0,B|112:224|280:216|192:136,1,167.999994873047,6|0,0:0|0:0,0:0:0:0:
205,153,72672,1,0,0:0:0:0:
205,153,72853,1,0,0:0:0:0:
232,56,73035,2,0,L|328:88,1,83.9999974365235
392,96,73399,5,0,0:0:0:0:
376,184,73581,2,0,P|328:176|304:200,2,83.9999974365235
376,264,74126,1,0,0:0:0:0:
368,288,74308,1,0,0:0:0:0:
360,312,74490,1,0,0:0:0:0:
280,304,74853,6,2,P|184:272|136:208,1,167.999994873047
136,144,75399,1,0,0:0:0:0:
196,179,75581,2,2,P|263:227|346:232,1,167.999994873047
400,168,76126,1,0,0:0:0:0:
320,88,76308,5,0,0:0:0:0:
200,56,76672,2,0,P|136:72|80:168,2,167.999994873047
200,56,77581,1,8,0:0:0:0:
200,56,77762,2,2,P|248:112|216:208,1,167.999994873047
227,197,78308,1,0,0:0:0:0:
304,232,78490,2,2,P|344:152|320:72,1,167.999994873047
320,56,79035,1,0,0:0:0:0:
240,128,79217,6,0,B|304:176|304:176|304:272,1,167.999994873047
296,344,79944,2,0,B|232:296|232:296|232:200,1,167.999994873047
232,208,80490,1,0,0:0:0:0:
120,216,80672,2,0,L|200:64,1,167.999994873047
208,40,81217,1,0,0:0:0:0:
198,67,81399,2,0,L|120:216,1,167.999994873047
120,216,81944,1,0,0:0:0:0:
256,192,82126,12,6,83217,0:0:0:0:
312,288,83581,6,2,P|376:216|376:136,1,167.999994873047
344,72,84126,1,0,0:0:0:0:
264,48,84308,2,2,P|176:64|128:128,1,167.999994873047
152,200,84853,1,0,0:0:0:0:
248,192,85035,6,0,L|384:320,2,167.999994873047
192,80,86126,1,8,0:0:0:0:
192,80,86217,1,8,0:0:0:0:
192,80,86308,1,8,0:0:0:0:
192,80,86399,1,8,0:0:0:0:
192,80,86490,6,0,P|208:160|200:80,1,245,8|0,0:0|0:0,0:0:0:0:
224,40,87399,2,0,L|344:136,1,140,0|6,0:0|0:0,0:0:0:0:
256,192,87944,12,4,88672,0:0:0:0:
