osu file format v14

[General]
AudioFilename: audio.mp3
AudioLeadIn: 0
PreviewTime: 54820
Countdown: 1
SampleSet: Normal
StackLeniency: 0.7
Mode: 0
LetterboxInBreaks: 0
WidescreenStoryboard: 1

[Editor]
DistanceSpacing: 1.5
BeatDivisor: 4
GridSize: 16
TimelineZoom: 1

[Metadata]
Title:[Kachulugoto] - Eromanga Sensei OP (Hitorigoto) Cover
TitleUnicode:[Kachulugoto] - Eromanga Sensei OP (Hitorigoto) Cover
Artist:Kachulu
ArtistUnicode:Kachulu
Creator:X4D
Version:Alone
Source:
Tags:kachulu cover eromanga sensei op short version
BeatmapID:1657936
BeatmapSetID:789051

[Difficulty]
HPDrainRate:5.9
CircleSize:4
OverallDifficulty:8.5
ApproachRate:9.3
SliderMultiplier:1.4
SliderTickRate:1

[Events]
//Background and Video events
0,0,"background.PNG",0,0
//Break Periods
//Storyboard Layer 0 (Background)
//Storyboard Layer 1 (Fail)
//Storyboard Layer 2 (Pass)
//Storyboard Layer 3 (Foreground)
//Storyboard Sound Samples

[TimingPoints]
276,363.63612590799,4,1,0,100,1,0
639,-133.333333333333,4,1,0,100,0,0
912,-133.333333333333,4,1,0,5,0,0
1016,363.63612590799,4,1,0,100,1,0
5367,-133.333333333333,4,1,0,100,0,0
6003,-133.333333333333,4,1,0,5,0,0
6094,-133.333333333333,4,1,0,100,0,0
6822,-100,4,1,0,100,0,0
11185,-133.333333333333,4,1,0,100,0,0
11821,-133.333333333333,4,1,0,5,0,0
11912,-133.333333333333,4,1,0,100,0,0
12640,-90.9090909090909,4,1,0,100,0,0
15458,-90.9090909090909,4,1,0,5,0,0
15549,-90.9090909090909,4,1,0,100,0,0
21276,-90.9090909090909,4,1,0,5,0,0
21367,-90.9090909090909,4,1,0,100,0,0
23094,-90.9090909090909,4,1,0,5,0,0
23185,-90.9090909090909,4,1,0,100,0,0
23458,-90.9090909090909,4,1,0,5,0,0
23549,-90.9090909090909,4,1,0,100,0,0
23822,-90.9090909090909,4,1,0,5,0,0
23913,-90.9090909090909,4,1,0,100,0,0
35913,-133.333333333333,4,1,0,100,0,0
38731,-133.333333333333,4,1,0,5,0,0
38822,-133.333333333333,4,1,0,100,0,0
41731,-100,4,1,0,100,0,0
54367,-100,4,1,0,5,0,0
54458,-200,4,1,0,100,0,0
54731,-200,4,1,0,5,0,0
54820,-100,4,1,0,100,0,1
86820,-100,4,1,0,100,0,0

[HitObjects]
213,109,639,6,0,L|308:104,1,78.7500030040742,0|0,0:0|0:0,0:0:0:0:
312,104,1003,5,0,0:0:0:0:
298,263,1197,1,8,0:0:0:0:
298,263,1925,2,0,L|148:254,1,140,8|8,0:0|0:0,0:0:0:0:
52,71,2470,5,8,0:0:0:0:
91,331,2652,1,8,0:0:0:0:
91,331,3379,2,0,L|241:322,1,140,8|8,0:0|0:0,0:0:0:0:
380,53,3925,5,8,0:0:0:0:
343,319,4106,1,8,0:0:0:0:
254,247,4834,2,0,P|194:233|114:264,1,140,8|8,0:0|0:0,0:0:0:0:
194,334,5379,6,0,P|276:345|357:285,1,183.750007009506,8|0,0:0|0:0,0:0:0:0:
354,288,6106,6,0,P|365:248|363:209,2,70.0000026702882,8|0|0,0:0|0:0|0:0,0:0:0:0:
260,245,6834,5,8,0:0:0:0:
449,160,7015,1,8,0:0:0:0:
449,160,7743,2,0,L|297:149,1,140,8|8,0:0|0:0,0:0:0:0:
115,55,8288,5,8,0:0:0:0:
155,283,8470,1,8,0:0:0:0:
155,283,9197,2,0,L|313:272,1,140,8|8,0:0|0:0,0:0:0:0:
437,35,9743,5,8,0:0:0:0:
381,351,9925,1,0,0:0:0:0:
287,255,10652,2,0,P|226:259|165:315,1,140,8|8,0:0|0:0,0:0:0:0:
266,350,11197,6,0,L|257:149,1,183.750007009506,8|0,0:0|0:0,0:0:0:0:
241,147,11925,2,0,L|246:64,2,70.0000026702882,8|0|0,0:0|0:0|0:0,0:0:0:0:
136,228,12652,5,4,0:0:0:0:
325,235,12834,1,4,0:0:0:0:
134,325,13015,2,0,P|83:311|42:278,1,77.0000023498536,8|0,0:0|0:0,0:0:0:0:
291,156,13379,1,0,0:0:0:0:
270,318,13561,1,0,0:0:0:0:
236,231,13743,1,8,0:0:0:0:
450,249,13925,6,0,P|411:268|355:267,1,77.0000023498536,0|0,0:0|0:0,0:0:0:0:
427,155,14288,2,0,P|490:155|530:174,1,77.0000023498536,0|8,0:0|0:0,0:0:0:0:
344,204,14652,2,0,L|346:104,1,77.0000023498536,0|0,0:0|0:0,0:0:0:0:
414,61,15015,2,0,P|351:97|230:88,1,192.500005874634,0|0,0:0|0:0,0:0:0:0:
204,75,15561,6,0,L|213:171,1,77.0000023498536,0|0,0:0|0:0,0:0:0:0:
338,280,15925,2,0,L|344:190,1,77.0000023498536,8|0,0:0|0:0,0:0:0:0:
456,42,16288,1,0,0:0:0:0:
321,106,16470,1,0,0:0:0:0:
455,166,16652,1,8,0:0:0:0:
159,51,16834,6,0,P|105:62|54:87,1,77.0000023498536,0|0,0:0|0:0,0:0:0:0:
209,140,17197,2,0,P|244:109|260:76,1,77.0000023498536,0|8,0:0|0:0,0:0:0:0:
123,182,17561,2,0,P|149:219|193:240,1,77.0000023498536,0|0,0:0|0:0,0:0:0:0:
31,133,17925,2,0,P|19:194|72:293,1,154.000004699707,0|0,0:0|0:0,0:0:0:0:
228,225,18470,5,0,0:0:0:0:
134,182,18652,1,0,0:0:0:0:
239,320,18834,2,0,L|343:304,1,77.0000023498536,8|0,0:0|0:0,0:0:0:0:
241,116,19197,1,0,0:0:0:0:
311,219,19379,1,0,0:0:0:0:
356,100,19561,1,8,0:0:0:0:
165,284,19743,6,0,L|247:290,1,77.0000023498536,0|0,0:0|0:0,0:0:0:0:
102,196,20106,2,0,L|78:296,1,77.0000023498536,0|8,0:0|0:0,0:0:0:0:
220,361,20470,2,0,L|196:261,1,77.0000023498536,0|0,0:0|0:0,0:0:0:0:
96,125,20834,2,0,L|49:317,1,192.500005874634,0|0,0:0|0:0,0:0:0:0:
65,346,21379,6,0,P|99:357|150:350,1,77.0000023498536,0|0,0:0|0:0,0:0:0:0:
214,288,21743,2,0,L|312:301,1,77.0000023498536,8|0,0:0|0:0,0:0:0:0:
466,343,22106,1,0,0:0:0:0:
402,212,22288,1,0,0:0:0:0:
354,358,22470,1,8,0:0:0:0:
433,280,22652,1,0,0:0:0:0:
219,146,22834,6,0,P|153:144|92:191,1,115.50000352478,0|0,0:0|0:0,0:0:0:0:
151,108,23197,6,0,P|102:153|93:229,1,115.50000352478,8|0,0:0|0:0,0:0:0:0:
152,233,23561,6,0,P|86:220|20:259,1,115.50000352478,0|0,0:0|0:0,0:0:0:0:
34,251,23925,5,8,0:0:0:0:
105,337,24106,1,0,0:0:0:0:
250,262,24288,6,0,P|299:255|339:257,1,77.0000023498536,0|0,0:0|0:0,0:0:0:0:
416,315,24652,2,0,L|417:222,1,77.0000023498536,8|0,0:0|0:0,0:0:0:0:
325,178,25015,2,0,L|326:271,1,77.0000023498536,0|0,0:0|0:0,0:0:0:0:
230,334,25379,2,0,L|231:241,1,77.0000023498536,8|0,0:0|0:0,0:0:0:0:
120,296,25743,6,0,P|162:297|219:285,1,77.0000023498536,0|0,0:0|0:0,0:0:0:0:
54,215,26106,2,0,P|32:250|14:306,1,77.0000023498536,8|0,0:0|0:0,0:0:0:0:
160,202,26470,2,0,P|139:165|100:121,1,77.0000023498536,0|0,0:0|0:0,0:0:0:0:
130,305,26834,2,0,P|172:306|229:294,1,77.0000023498536,8|0,0:0|0:0,0:0:0:0:
68,108,27197,5,0,0:0:0:0:
172,229,27379,1,0,0:0:0:0:
238,33,27561,1,8,0:0:0:0:
124,169,27743,1,0,0:0:0:0:
317,103,27925,1,0,0:0:0:0:
155,72,28106,1,0,0:0:0:0:
241,219,28288,1,8,0:0:0:0:
236,89,28470,1,0,0:0:0:0:
122,277,28652,5,0,0:0:0:0:
399,320,28834,1,0,0:0:0:0:
399,320,29197,2,0,L|391:155,1,154.000004699707,0|0,0:0|0:0,0:0:0:0:
308,85,29743,1,8,0:0:0:0:
281,96,29833,1,0,0:0:0:0:
253,103,29924,1,0,0:0:0:0:
224,105,30015,1,0,0:0:0:0:
196,101,30106,6,0,L|202:177,1,77.0000023498536,0|0,0:0|0:0,0:0:0:0:
109,301,30470,2,0,P|89:250|93:206,1,77.0000023498536,8|0,0:0|0:0,0:0:0:0:
211,291,30834,2,0,P|203:340|177:376,1,77.0000023498536,0|0,0:0|0:0,0:0:0:0:
185,192,31197,2,0,L|267:201,1,77.0000023498536,8|0,0:0|0:0,0:0:0:0:
428,302,31561,6,0,P|400:266|382:227,1,77.0000023498536,0|0,0:0|0:0,0:0:0:0:
448,94,31925,2,0,P|452:147|445:188,1,77.0000023498536,8|0,0:0|0:0,0:0:0:0:
413,315,32288,2,0,P|385:279|367:240,1,77.0000023498536,0|0,0:0|0:0,0:0:0:0:
463,75,32652,2,0,P|467:128|460:169,1,77.0000023498536,8|0,0:0|0:0,0:0:0:0:
165,57,33015,5,0,0:0:0:0:
371,117,33197,1,0,0:0:0:0:
99,140,33379,1,8,0:0:0:0:
279,85,33561,1,0,0:0:0:0:
62,45,33743,1,0,0:0:0:0:
296,176,33925,1,0,0:0:0:0:
1,133,34106,1,8,0:0:0:0:
352,22,34288,1,0,0:0:0:0:
161,315,34470,5,0,0:0:0:0:
175,76,34652,1,0,0:0:0:0:
175,76,35015,2,0,L|337:83,1,154.000004699707,8|0,0:0|0:0,0:0:0:0:
428,85,35561,1,0,0:0:0:0:
426,104,35651,1,0,0:0:0:0:
424,123,35742,1,8,0:0:0:0:
422,142,35833,1,0,0:0:0:0:
420,161,35924,5,0,0:0:0:0:
283,239,36652,2,0,L|223:245,1,52.5000020027161,8|0,0:0|0:0,0:0:0:0:
205,273,37015,2,0,L|141:268,1,52.5000020027161,0|0,0:0|0:0,0:0:0:0:
125,245,37379,2,0,P|139:308|106:360,1,105.000004005432,8|0,0:0|0:0,0:0:0:0:
196,139,38106,6,0,L|262:145,1,52.5000020027161,8|0,0:0|0:0,0:0:0:0:
281,166,38470,2,0,L|372:162,1,78.7500030040742,0|0,0:0|0:0,0:0:0:0:
388,144,38834,6,0,P|379:195|400:248,1,105.000004005432,8|0,0:0|0:0,0:0:0:0:
270,64,39561,6,0,P|230:63|198:66,1,52.5000020027161,8|0,0:0|0:0,0:0:0:0:
189,84,39925,2,0,P|149:85|117:82,1,52.5000020027161,0|0,0:0|0:0,0:0:0:0:
98,63,40288,6,0,L|101:192,1,105.000004005432,8|0,0:0|0:0,0:0:0:0:
210,278,41015,6,0,L|213:341,2,35.0000013351441,8|0|0,0:3|0:0|0:0,0:0:0:0:
304,226,41379,6,0,L|301:289,2,35.0000013351441,0|0|0,0:3|0:0|0:0,0:0:0:0:
201,130,41743,6,0,L|206:225,1,70,8|0,0:0|0:0,0:0:0:0:
318,65,42106,5,0,0:0:0:0:
109,173,42288,1,0,0:0:0:0:
413,103,42470,2,0,P|420:65|412:18,1,70,8|0,0:0|0:0,0:0:0:0:
246,214,42834,5,0,0:0:0:0:
411,268,43015,1,0,0:0:0:0:
154,189,43197,2,0,L|160:278,1,70,8|0,0:0|0:0,0:0:0:0:
373,320,43561,5,0,0:0:0:0:
255,119,43743,1,0,0:0:0:0:
226,349,43925,1,8,0:0:0:0:
312,224,44106,1,0,0:0:0:0:
312,224,44470,2,0,L|158:238,1,140,0|0,0:0|0:0,0:0:0:0:
254,333,45015,5,0,0:0:0:0:
98,170,45197,1,0,0:0:0:0:
110,266,45379,2,0,P|146:255|175:234,1,70,8|0,0:0|0:0,0:0:0:0:
26,236,45743,5,0,0:0:0:0:
224,334,45925,1,0,0:0:0:0:
121,215,46106,2,0,L|128:305,1,70,0|0,0:0|0:0,0:0:0:0:
331,85,46470,5,0,0:0:0:0:
228,136,46652,1,0,0:0:0:0:
401,169,46834,1,8,0:0:0:0:
77,111,47015,2,0,L|85:202,2,70,0|0|0,0:0|0:0|0:0,0:0:0:0:
141,46,47561,6,0,P|190:86|294:88,1,140,0|0,0:0|0:0,0:0:0:0:
352,51,48106,1,0,0:0:0:0:
445,253,48288,2,0,L|281:247,1,140,8|0,0:0|0:0,0:0:0:0:
206,186,48834,1,0,0:0:0:0:
105,298,49015,6,0,P|160:301|204:290,1,70,8|0,0:0|0:0,0:0:0:0:
72,152,49379,5,0,0:0:0:0:
174,298,49561,1,0,0:0:0:0:
215,93,49743,5,8,0:0:0:0:
127,230,49925,1,0,0:0:0:0:
283,191,50106,5,0,0:0:0:0:
174,163,50288,1,0,0:0:0:0:
243,314,50470,5,8,0:0:0:0:
471,171,50652,1,0,0:0:0:0:
230,156,50834,1,0,0:0:0:0:
355,248,51015,1,0,0:0:0:0:
266,43,51197,5,8,0:0:0:0:
317,359,51379,1,0,0:0:0:0:
471,171,51561,1,0,0:0:0:0:
294,203,51743,1,0,0:0:0:0:
469,308,51925,5,8,0:0:0:0:
305,16,52106,1,0,0:0:0:0:
181,353,52288,1,0,0:0:0:0:
387,162,52470,1,0,0:0:0:0:
75,80,52652,5,8,0:0:0:0:
478,171,52834,1,0,0:0:0:0:
67,304,53015,1,0,0:0:0:0:
422,272,53197,1,0,0:0:0:0:
210,41,53379,5,8,0:0:0:0:
280,348,53561,1,0,0:0:0:0:
328,253,53743,1,0,0:0:0:0:
135,291,53925,6,0,B|228:328|210:267|307:297,1,175,0|0,0:0|0:0,0:0:0:0:
305,296,54470,6,0,P|281:309|243:317,1,52.5,0|0,0:0|0:0,0:0:0:0:
233,206,54834,5,12,0:0:0:0:
310,329,55015,1,0,0:0:0:0:
362,72,55197,1,0,0:0:0:0:
218,319,55379,1,0,0:0:0:0:
169,93,55561,1,8,0:0:0:0:
355,313,55743,1,0,0:0:0:0:
330,0,55925,1,0,0:0:0:0:
192,212,56106,1,0,0:0:0:0:
113,72,56288,5,8,0:0:0:0:
348,167,56470,1,0,0:0:0:0:
63,240,56652,1,0,0:0:0:0:
236,124,56834,1,0,0:0:0:0:
343,342,57015,5,8,0:0:0:0:
277,228,57197,1,0,0:0:0:0:
218,344,57379,1,0,0:0:0:0:
158,257,57561,1,0,0:0:0:0:
465,82,57743,5,8,0:0:0:0:
218,344,57925,1,0,0:0:0:0:
270,86,58106,1,0,0:0:0:0:
346,208,58288,1,0,0:0:0:0:
119,339,58470,2,0,P|56:351|25:343,1,70,8|0,0:0|0:0,0:0:0:0:
95,245,58834,2,0,P|129:245|162:256,1,70,0|0,0:0|0:0,0:0:0:0:
42,153,59197,5,8,0:0:0:0:
306,58,59379,1,0,0:0:0:0:
21,164,59561,1,0,0:0:0:0:
354,233,59743,1,0,0:0:0:0:
141,60,59925,5,8,0:0:0:0:
116,169,60106,1,0,0:0:0:0:
256,223,60288,1,0,0:0:0:0:
230,116,60470,1,0,0:0:0:0:
170,284,60652,5,8,0:0:0:0:
339,331,60834,2,0,P|391:317|423:291,1,70,0|0,0:0|0:0,0:0:0:0:
228,60,61197,1,0,0:0:0:0:
344,214,61379,1,8,0:0:0:0:
366,102,61561,1,0,0:0:0:0:
75,195,61743,1,0,0:0:0:0:
394,327,61925,6,0,P|452:322|488:307,1,70,0|8,0:0|0:0,0:0:0:0:
167,142,62288,1,0,0:0:0:0:
275,327,62470,1,0,0:0:0:0:
301,153,62652,1,0,0:0:0:0:
55,284,62834,2,0,P|104:286|151:280,1,70,8|0,0:0|0:0,0:0:0:0:
221,239,63197,1,0,0:0:0:0:
221,239,63561,5,8,0:0:0:0:
255,339,63743,1,0,0:0:0:0:
381,175,63925,5,0,0:0:0:0:
347,275,64107,1,0,0:0:0:0:
207,203,64288,5,8,0:0:0:0:
255,339,64470,1,0,0:0:0:0:
399,114,64652,5,0,0:0:0:0:
347,275,64834,1,0,0:0:0:0:
296,63,65015,5,8,0:0:0:0:
475,162,65197,1,0,0:0:0:0:
253,191,65379,5,0,0:0:0:0:
470,31,65561,1,0,0:0:0:0:
141,96,65743,5,8,0:0:0:0:
397,274,65925,1,0,0:0:0:0:
75,312,66106,5,0,0:0:0:0:
435,65,66288,1,0,0:0:0:0:
115,59,66470,5,8,0:0:0:0:
261,311,66652,1,0,0:0:0:0:
288,100,66834,1,0,0:0:0:0:
145,329,67015,1,0,0:0:0:0:
203,81,67197,1,8,0:0:0:0:
331,348,67379,1,0,0:0:0:0:
261,15,67561,1,0,0:0:0:0:
237,335,67743,1,0,0:0:0:0:
94,114,67925,5,8,0:0:0:0:
348,172,68106,1,0,0:0:0:0:
103,274,68288,1,0,0:0:0:0:
219,143,68470,1,0,0:0:0:0:
352,352,68652,5,8,0:0:0:0:
305,229,68834,1,0,0:0:0:0:
239,349,69015,1,0,0:0:0:0:
204,266,69197,1,0,0:0:0:0:
456,299,69379,5,8,0:0:0:0:
137,221,69561,1,0,0:0:0:0:
377,133,69743,1,0,0:0:0:0:
300,262,69925,1,0,0:0:0:0:
197,127,70106,2,0,P|187:85|188:46,1,70,8|0,0:0|0:0,0:0:0:0:
294,112,70470,2,0,P|292:146|283:180,1,70,0|0,0:0|0:0,0:0:0:0:
119,231,70834,5,8,0:0:0:0:
386,302,71015,1,0,0:0:0:0:
168,333,71197,1,0,0:0:0:0:
294,112,71379,2,0,P|339:104|378:106,1,70,0|8,0:0|0:0,0:0:0:0:
78,318,71743,5,0,0:0:0:0:
177,69,71925,1,0,0:0:0:0:
274,321,72106,1,0,0:0:0:0:
124,196,72288,1,8,0:0:0:0:
282,116,72470,6,0,L|432:131,1,140,0|0,0:0|0:0,0:0:0:0:
493,242,73015,1,8,0:0:0:0:
296,313,73197,1,0,0:0:0:0:
508,234,73379,1,0,0:0:0:0:
245,165,73561,6,0,L|151:168,1,70,0|8,0:0|0:0,0:0:0:0:
292,249,73925,2,0,P|334:196|324:122,1,140,0|0,0:0|0:0,0:0:0:0:
265,53,74470,2,0,P|216:44|168:48,1,70,8|0,0:0|0:0,0:0:0:0:
105,80,74834,1,0,0:0:0:0:
106,75,75197,5,8,0:0:0:0:
172,249,75379,1,0,0:0:0:0:
215,104,75561,5,0,0:0:0:0:
70,278,75743,1,0,0:0:0:0:
112,149,75925,5,8,0:0:0:0:
282,371,76106,1,0,0:0:0:0:
318,61,76288,5,0,0:0:0:0:
165,298,76470,1,0,0:0:0:0:
154,44,76652,5,8,0:0:0:0:
338,326,76834,1,0,0:0:0:0:
84,198,77015,5,0,0:0:0:0:
441,84,77197,1,0,0:0:0:0:
160,339,77379,5,8,0:0:0:0:
321,42,77561,1,0,0:0:0:0:
366,342,77743,5,0,0:0:0:0:
154,44,77925,1,0,0:0:0:0:
165,268,78106,5,8,0:0:0:0:
410,168,78288,1,0,0:0:0:0:
112,114,78470,5,0,0:0:0:0:
348,259,78652,1,0,0:0:0:0:
115,291,78834,5,8,0:0:0:0:
320,144,79015,1,0,0:0:0:0:
57,142,79197,5,0,0:0:0:0:
254,285,79379,1,0,0:0:0:0:
36,305,79561,5,8,0:0:0:0:
332,118,79743,1,0,0:0:0:0:
229,360,79925,5,0,0:0:0:0:
174,104,80106,1,0,0:0:0:0:
359,185,80288,5,8,0:0:0:0:
115,236,80470,1,0,0:0:0:0:
312,61,80652,5,0,0:0:0:0:
261,283,80834,1,0,0:0:0:0:
138,99,81015,6,0,P|199:88|233:88,1,70,8|0,0:0|0:0,0:0:0:0:
306,86,81379,1,0,0:0:0:0:
306,86,81561,1,0,0:0:0:0:
241,324,81743,6,0,P|226:286|219:246,1,70,8|0,0:0|0:0,0:0:0:0:
415,168,82106,1,0,0:0:0:0:
306,255,82288,1,0,0:0:0:0:
499,238,82470,5,8,0:0:0:0:
276,126,82652,1,0,0:0:0:0:
486,73,82834,1,0,0:0:0:0:
326,320,83015,1,0,0:0:0:0:
171,220,83197,2,0,P|152:160|160:77,1,140,8|0,0:0|0:0,0:0:0:0:
255,138,83652,1,0,0:0:0:0:
255,138,83743,1,0,0:0:0:0:
75,245,83925,5,8,0:0:0:0:
292,304,84106,1,0,0:0:0:0:
166,330,84288,5,0,0:0:0:0:
351,180,84470,1,0,0:0:0:0:
192,176,84652,5,8,0:0:0:0:
410,346,84834,1,0,0:0:0:0:
271,347,85015,5,0,0:0:0:0:
493,156,85197,1,0,0:0:0:0:
168,166,85379,5,8,0:0:0:0:
452,287,85561,1,0,0:0:0:0:
237,55,85743,5,0,0:0:0:0:
336,327,85925,1,0,0:0:0:0:
385,39,86106,5,8,0:0:0:0:
133,312,86288,1,0,0:0:0:0:
465,182,86470,5,0,0:0:0:0:
57,125,86652,1,0,0:0:0:0:
256,192,86834,5,0,0:0:0:0:
256,192,86925,12,4,88197,0:0:0:0:
