osu file format v14

[General]
AudioFilename: audio.mp3
AudioLeadIn: 0
PreviewTime: 195523
Countdown: 0
SampleSet: Soft
StackLeniency: 0.5
Mode: 0
LetterboxInBreaks: 0
WidescreenStoryboard: 0

[Editor]
Bookmarks: 641,266891
DistanceSpacing: 1
BeatDivisor: 8
GridSize: 4
TimelineZoom: 2

[Metadata]
Title:Talk 2 Me
TitleUnicode:Talk 2 Me
Artist:Kabuki, MYLK
ArtistUnicode:Kabuki, MYLK
Creator:Gero
Version:Come 2 Me
Source:osu!
Tags:FA Featured Artist Mappers Mappers' Guild MPG MG Tiny Waves Japanese Upbeat Dance House J-Pop EDM Electronic
BeatmapID:2684766
BeatmapSetID:1293770

[Difficulty]
HPDrainRate:6
CircleSize:4
OverallDifficulty:8
ApproachRate:9
SliderMultiplier:1.8
SliderTickRate:2

[Events]
//Background and Video events
0,0,"BG.jpg",0,0
//Break Periods
//Storyboard Layer 0 (Background)
//Storyboard Layer 1 (Fail)
//Storyboard Layer 2 (Pass)
//Storyboard Layer 3 (Foreground)
//Storyboard Layer 4 (Overlay)
//Storyboard Sound Samples

[TimingPoints]
641,468.750000000001,4,2,0,50,1,0
641,-142.857142857143,4,2,0,50,0,0
8141,-83.3333333333333,4,2,0,60,0,0
15172,-33.3333333333333,4,2,0,60,0,0
15641,-45.4545454545455,4,2,0,80,0,0
28766,-55.5555555555556,4,2,0,70,0,0
29703,-66.6666666666667,4,2,0,65,0,0
30641,-100,4,2,0,50,0,0
45641,-83.3333333333333,4,2,0,60,0,0
53141,-71.4285714285714,4,2,0,75,0,0
60641,-64.5161290322581,4,2,0,70,0,0
73766,-125,4,2,0,45,0,0
75172,-66.6666666666667,4,2,0,80,0,0
75641,-55.5555555555556,4,2,0,85,0,1
90172,-50,4,2,0,85,0,1
90523,-50,4,2,0,85,0,0
90641,-55.5555555555556,4,2,0,85,0,1
105172,-50,4,2,0,85,0,1
105641,-55.5555555555556,4,2,0,80,0,0
133766,-62.5,4,2,0,65,0,0
134703,-71.4285714285714,4,2,0,60,0,0
135641,-100,4,2,0,50,0,0
142672,-66.6666666666667,4,2,0,55,0,0
143141,-83.3333333333333,4,2,0,55,0,0
150641,-76.9230769230769,4,2,0,60,0,0
158141,-71.4285714285714,4,2,0,75,0,0
165641,-66.6666666666667,4,2,0,80,0,0
180641,-64.5161290322581,4,2,0,70,0,0
193766,-125,4,2,0,45,0,0
195172,-66.6666666666667,4,2,0,80,0,0
195641,-55.5555555555556,4,2,0,85,0,1
210172,-50,4,2,0,85,0,1
210523,-50,4,2,0,85,0,0
210641,-55.5555555555556,4,2,0,85,0,1
225172,-50,4,2,0,85,0,1
225641,-55.5555555555556,4,2,0,80,0,0
253766,-62.5,4,2,0,65,0,0
254703,-71.4285714285714,4,2,0,60,0,0
255641,-100,4,2,0,50,0,0
257516,-100,4,2,0,45,0,0
259391,-100,4,2,0,40,0,0
261266,-100,4,2,0,35,0,0
263141,-100,4,2,0,5,0,0

[Colours]
Combo1 : 32,165,236
Combo2 : 241,69,151

[HitObjects]
404,136,641,6,0,B|404:172|404:172|422:192|422:192|404:212|404:212|404:248,1,125.999996154785,2|2,0:0|0:0,0:0:0:0:
328,192,1344,1,0,0:0:0:0:
256,144,1578,2,0,P|239:101|256:58,2,94.499997116089,2|2|2,0:0|0:0|0:0,0:0:0:0:
184,192,2516,6,0,P|201:235|184:278,1,94.499997116089,2|0,0:0|0:0,0:0:0:0:
162,320,2984,1,2,0:0:0:0:
256,320,3219,1,2,0:0:0:0:
350,320,3453,2,0,P|360:349|350:378,1,62.9999980773926,2|0,0:0|0:0,0:0:0:0:
444,320,3922,2,0,P|434:291|444:262,1,62.9999980773926,2|0,0:0|0:0,0:0:0:0:
509,192,4391,6,0,B|475:192|475:192|423:192|399:148,1,125.999996154785,2|2,0:0|0:0,0:0:0:0:
328,84,5094,1,0,0:0:0:0:
256,148,5328,2,0,B|256:184|256:184|264:192|264:192|256:200|256:200|256:236,2,94.499997116089,2|2|2,0:0|0:0|0:0,0:0:0:0:
184,84,6266,6,0,B|144:84|144:84|136:88|136:88|128:92|128:92|91:92,2,94.499997116089,2|2|2,0:0|0:0|0:0,0:0:0:0:
256,148,7203,1,2,0:0:0:0:
328,84,7437,1,0,0:0:0:0:
328,84,7555,1,2,0:0:0:0:
328,84,7672,1,0,0:0:0:0:
256,20,7906,1,2,0:0:0:0:
184,84,8141,6,0,B|184:136|184:136|154:183,1,107.999996704102,8|2,0:0|0:0,0:0:0:0:
106,248,8492,1,0,0:0:0:0:
106,248,8609,2,0,B|134:248|154:269|154:269|174:248|202:248,1,107.999996704102,8|2,0:0|0:0,0:0:0:0:
328,84,9078,6,0,B|328:136|328:136|358:183,1,107.999996704102,8|2,0:0|0:0,0:0:0:0:
406,248,9430,1,0,0:0:0:0:
406,248,9547,2,0,B|378:248|358:269|358:269|338:248|310:248,1,107.999996704102,8|2,0:0|0:0,0:0:0:0:
184,84,10016,6,0,B|144:84|144:84|136:73|136:73|128:84|128:84|88:84,1,107.999996704102,8|2,0:0|0:0,0:0:0:0:
24,36,10367,1,0,0:0:0:0:
24,36,10484,2,0,B|24:76|24:76|35:84|35:84|24:92|24:92|24:132,1,107.999996704102,8|2,0:0|0:0,0:0:0:0:
184,300,10953,6,0,B|144:300|144:300|136:311|136:311|128:300|128:300|88:300,1,107.999996704102,8|2,0:0|0:0,0:0:0:0:
24,348,11305,1,0,0:0:0:0:
24,348,11422,2,0,B|24:308|24:308|35:300|35:300|24:292|24:292|24:252,1,107.999996704102,8|2,0:0|0:0,0:0:0:0:
184,84,11891,5,8,0:0:0:0:
256,192,12125,1,8,0:0:0:0:
184,300,12359,1,8,0:0:0:0:
284,192,12594,1,8,0:0:0:0:
184,84,12828,5,8,0:0:0:0:
312,192,13062,1,8,0:0:0:0:
312,192,13180,1,2,0:0:0:0:
312,192,13297,1,8,0:0:0:0:
184,300,13531,1,8,0:0:0:0:
372,135,13766,5,8,0:0:0:0:
412,113,13883,1,8,0:0:0:0:
459,118,14000,1,8,0:0:0:0:
495,147,14117,1,8,0:0:0:0:
508,192,14234,1,8,0:0:0:0:
495,237,14351,1,8,0:0:0:0:
459,266,14469,1,8,0:0:0:0:
412,271,14586,1,8,0:0:0:0:
372,249,14703,1,8,0:0:0:0:
172,192,14937,5,8,0:0:0:0:
200,192,15055,1,8,0:0:0:0:
109,249,15172,6,0,B|101:245|101:245|101:253|101:253|93:245|93:245|93:253|93:253|85:245|85:245|85:253|85:253|77:245|77:245|77:253|77:253|69:245|69:245|69:253|69:253|61:249|61:249|29:249,1,135.000005149842,8|0,1:0|0:0,0:0:0:0:
109,135,15406,6,0,B|101:139|101:139|101:131|101:131|93:139|93:139|93:131|93:131|85:139|85:139|85:131|85:131|77:139|77:139|77:131|77:131|69:139|69:139|69:131|69:131|61:135|61:135|29:135,1,135.000005149842,8|0,1:0|0:0,0:0:0:0:
172,78,15641,6,0,B|216:42|264:74|264:78|264:82|312:114|356:78,1,198.000006042481,4|2,1:0|0:0,0:0:0:0:
432,16,15992,1,0,0:0:0:0:
508,78,16109,2,0,P|525:123|508:168,1,99.0000030212403,8|0,0:0|0:0,0:0:0:0:
432,320,16344,2,0,P|415:275|432:230,1,99.0000030212403,2|0,0:0|0:0,0:0:0:0:
508,382,16578,6,0,B|484:320|420:320|420:320|337:320,1,198.000006042481,4|2,3:0|0:0,0:0:0:0:
256,264,16930,1,0,0:0:0:0:
174,320,17047,2,0,B|190:348|174:376|174:376|214:376,1,99.0000030212403,8|0,0:0|0:0,0:0:0:0:
338,320,17281,2,0,B|322:348|338:376|338:376|298:376,1,99.0000030212403,2|0,0:0|0:0,0:0:0:0:
256,264,17516,6,0,B|256:188|256:188|260:180|260:180|252:180|252:180|260:172|260:172|252:172|252:172|256:164|256:164|256:88,1,198.000006042481,4|2,3:0|0:0,0:0:0:0:
305,4,17867,1,0,0:0:0:0:
207,4,17984,2,0,B|256:-2|256:-2|305:4,1,99.0000030212403,8|0,0:0|0:0,0:0:0:0:
158,88,18219,5,2,0:0:0:0:
158,88,18336,1,0,3:0:0:0:
158,88,18453,2,0,B|109:82|109:82|60:88,1,99.0000030212403,4|0,3:0|0:0,0:0:0:0:
158,192,18687,2,0,B|109:186|109:186|60:192,1,99.0000030212403,2|0,0:0|0:0,0:0:0:0:
354,88,18922,2,0,B|403:82|403:82|452:88,1,99.0000030212403,8|0,0:0|0:0,0:0:0:0:
354,192,19156,2,0,B|403:186|403:186|452:192,1,99.0000030212403,2|0,0:0|0:0,0:0:0:0:
256,140,19391,6,0,B|232:182|256:222|256:222|260:230|260:230|252:230|252:230|256:238|256:238|280:278|256:320,1,198.000006042481,4|2,3:0|0:0,0:0:0:0:
159,292,19742,1,0,0:0:0:0:
159,292,19859,2,0,B|159:344|159:344|125:377,1,99.0000030212403,8|0,0:0|0:0,0:0:0:0:
353,292,20094,2,0,B|353:344|353:344|386:377,1,99.0000030212403,2|0,0:0|0:0,0:0:0:0:
481,292,20328,6,0,B|489:256|457:240|437:240|437:240|417:240|417:240|397:240|397:240|377:240|345:256|353:292,1,198.000006042481,4|2,3:0|0:0,0:0:0:0:
403,168,20680,1,0,0:0:0:0:
403,168,20797,2,0,P|420:123|403:78,1,99.0000030212403,8|0,0:0|0:0,0:0:0:0:
305,168,21031,2,0,P|322:123|305:78,1,99.0000030212403,2|0,0:0|0:0,0:0:0:0:
207,168,21266,6,0,P|167:97|127:168,1,198.000006042481,4|2,3:0|0:0,0:0:0:0:
167,260,21617,1,0,0:0:0:0:
167,260,21734,2,0,L|205:351,1,99.0000030212403,8|0,0:0|0:0,0:0:0:0:
345,260,21969,2,0,L|306:351,1,99.0000030212403,2|0,0:0|0:0,0:0:0:0:
167,260,22203,6,0,P|127:331|87:260,1,198.000006042481,4|2,3:0|0:0,0:0:0:0:
127,168,22555,1,0,0:0:0:0:
127,168,22672,2,0,P|87:143|47:168,1,99.0000030212403,8|0,0:0|0:0,0:0:0:0:
166,76,22906,2,0,P|206:101|246:76,1,99.0000030212403,2|0,0:0|0:0,0:0:0:0:
365,168,23141,6,0,B|325:77|325:77|285:168,1,198.000006042481,4|2,3:0|0:0,0:0:0:0:
325,258,23492,1,0,0:0:0:0:
325,258,23609,2,0,B|325:310|325:310|304:352,1,99.0000030212403,8|0,0:0|0:0,0:0:0:0:
187,258,23844,2,0,B|187:310|187:310|208:352,1,99.0000030212403,2|0,0:0|0:0,0:0:0:0:
325,258,24078,6,0,B|369:222|417:254|417:258|417:262|465:294|509:258,1,198.000006042481,4|2,3:0|0:0,0:0:0:0:
465,168,24430,1,0,0:0:0:0:
509,77,24547,2,0,B|509:55|509:55|509:27|485:2|464:0,1,99.0000030212403,8|0,0:0|0:0,0:0:0:0:
420,90,24781,2,0,B|420:113|420:113|420:141|444:166|465:168,1,99.0000030212403,2|0,0:0|0:0,0:0:0:0:
376,0,25016,6,0,B|352:4|320:36|332:80|332:80|236:80,1,198.000006042481,4|2,3:0|0:0,0:0:0:0:
166,10,25367,1,0,0:0:0:0:
96,80,25484,2,0,B|90:129|90:129|96:178,1,99.0000030212403,8|0,0:0|0:0,0:0:0:0:
166,346,25719,5,2,0:0:0:0:
166,346,25836,1,0,3:0:0:0:
166,346,25953,2,0,B|172:297|172:297|166:248,1,99.0000030212403,4|0,3:0|0:0,0:0:0:0:
346,346,26187,2,0,B|340:297|340:297|346:248,1,99.0000030212403,2|0,0:0|0:0,0:0:0:0:
195,346,26422,2,0,B|201:297|201:297|195:248,1,99.0000030212403,8|0,0:0|0:0,0:0:0:0:
317,346,26656,2,0,B|311:297|311:297|317:248,1,99.0000030212403,2|0,0:0|0:0,0:0:0:0:
256,36,26891,6,0,B|260:44|260:44|252:44|252:44|260:52|260:52|252:52|252:52|260:60|260:60|252:60|252:60|260:68|260:68|252:68|252:68|260:76|260:76|252:76|252:76|260:84|260:84|252:84|252:84|256:92|256:92|256:167,1,198.000006042481,4|2,3:0|0:0,0:0:0:0:
317,247,27242,1,0,0:0:0:0:
378,167,27359,2,0,P|395:122|378:77,1,99.0000030212403,8|0,0:0|0:0,0:0:0:0:
439,247,27594,2,0,P|422:292|439:337,1,99.0000030212403,2|0,0:0|0:0,0:0:0:0:
500,167,27828,6,0,B|524:138|505:77|444:77|444:77|378:77,1,198.000006042481,4|2,3:0|0:0,0:0:0:0:
300,12,28180,1,0,0:0:0:0:
300,12,28297,2,0,B|256:35|256:35|212:12,1,99.0000030212403,8|0,0:0|0:0,0:0:0:0:
46,77,28531,2,0,B|90:54|90:54|134:77,1,99.0000030212403,2|0,0:0|0:0,0:0:0:0:
300,142,28766,6,0,B|256:210|256:210|212:142,1,161.999995056153,4|0,3:0|0:0,0:0:0:0:
134,207,29117,1,0,0:0:0:0:
134,207,29234,2,0,L|178:275,1,80.9999975280763,8|0,0:0|0:0,0:0:0:0:
378,207,29469,2,0,L|334:275,1,80.9999975280763,2|0,0:0|0:0,0:0:0:0:
256,345,29703,6,0,L|256:210,1,135.000005149842,4|0,3:0|0:0,0:0:0:0:
300,119,30055,1,0,0:0:0:0:
300,119,30172,2,0,B|320:92|320:92|320:58,1,67.5000025749208,8|0,0:0|0:0,0:0:0:0:
192,58,30406,2,0,B|192:92|192:92|212:119,1,67.5000025749208,8|0,0:0|0:0,0:0:0:0:
334,275,30641,6,0,B|374:247|418:275|418:275|462:247|502:275,2,180,4|4|4,3:0|3:0|3:0,0:0:0:0:
256,210,31812,1,2,0:0:0:0:
178,275,32047,2,0,P|161:315|178:355,1,90,4|2,3:0|0:0,0:0:0:0:
236,210,32516,5,4,3:0:0:0:
158,275,32750,2,0,P|141:315|158:355,1,90,2|4,0:0|3:0,0:0:0:0:
80,210,33219,1,2,0:0:0:0:
80,210,33453,2,0,L|158:48,1,180,4|4,3:0|3:0,0:0:0:0:
256,47,34156,1,2,0:0:0:0:
354,48,34391,6,0,B|324:84|324:84|310:124,1,90,4|2,3:0|0:0,0:0:0:0:
158,48,34859,2,0,B|188:84|188:84|201:124,1,90,4|2,3:0|0:0,0:0:0:0:
256,208,35328,1,4,3:0:0:0:
201,291,35562,2,0,L|111:291,1,90,2|4,0:0|3:0,0:0:0:0:
276,208,36031,5,2,0:0:0:0:
221,291,36266,2,0,B|276:328|331:291|331:291|331:353,1,180,4|4,3:0|3:0,0:0:0:0:
412,300,36969,2,0,L|412:345,2,45,2|0|4,0:0|0:0|3:0,0:0:0:0:
493,246,37437,2,0,L|493:291,2,45,2|0|4,0:0|0:0|3:0,0:0:0:0:
412,192,37906,1,2,0:0:0:0:
493,138,38141,6,0,B|493:110|510:98|510:98|493:86|493:58,1,90,4|2,3:0|0:0,0:0:0:0:
412,192,38609,2,0,B|412:160|412:160|422:152|422:152|412:144|412:144|412:112,1,90,4|2,3:0|0:0,0:0:0:0:
331,246,39078,2,0,B|331:214|331:214|341:206|341:206|331:198|331:198|331:166,1,90,4|2,3:0|0:0,0:0:0:0:
250,300,39547,2,0,B|250:268|250:268|260:260|260:260|250:252|250:252|250:220,1,90,4|2,3:0|0:0,0:0:0:0:
168,166,40016,5,4,3:0:0:0:
88,220,40250,1,2,0:0:0:0:
168,166,40484,1,4,3:0:0:0:
88,112,40719,1,2,0:0:0:0:
88,112,40836,1,0,0:0:0:0:
88,112,40953,2,0,B|64:104|52:86|52:86|40:104|16:112,2,90,4|2|4,3:0|0:0|3:0,0:0:0:0:
168,58,41656,5,2,0:0:0:0:
168,58,41773,1,0,0:0:0:0:
168,58,41891,2,0,P|212:49|256:58,1,90,4|2,3:0|0:0,0:0:0:0:
320,16,42242,1,0,0:0:0:0:
384,58,42359,2,0,P|428:49|472:58,1,90,4|2,3:0|0:0,0:0:0:0:
320,192,42828,6,0,P|276:201|232:192,1,90,4|2,3:0|0:0,0:0:0:0:
168,234,43180,1,0,0:0:0:0:
104,192,43297,2,0,P|60:201|16:192,1,90,4|2,3:0|0:0,0:0:0:0:
168,326,43766,6,0,P|212:317|256:326,1,90,4|2,3:0|0:0,0:0:0:0:
320,284,44117,1,0,0:0:0:0:
384,326,44234,2,0,P|428:317|472:326,1,90,4|2,3:0|0:0,0:0:0:0:
320,192,44703,5,4,3:0:0:0:
192,192,44937,1,0,0:0:0:0:
192,192,45055,1,0,0:0:0:0:
192,192,45172,1,4,3:0:0:0:
320,192,45406,5,0,0:0:0:0:
320,192,45523,1,0,0:0:0:0:
320,192,45641,2,0,P|341:144|320:96,1,107.999996704102,4|2,1:0|0:0,0:0:0:0:
256,48,45992,1,0,0:0:0:0:
192,96,46109,1,8,0:0:0:0:
320,192,46344,1,2,0:0:0:0:
192,288,46578,6,0,P|171:240|192:192,1,107.999996704102,4|2,3:0|0:0,0:0:0:0:
256,144,46930,1,0,0:0:0:0:
320,192,47047,1,8,0:0:0:0:
192,288,47281,1,2,0:0:0:0:
320,192,47516,6,0,L|428:192,1,107.999996704102,4|2,3:0|0:0,0:0:0:0:
492,144,47867,1,0,0:0:0:0:
428,96,47984,1,8,0:0:0:0:
428,288,48219,1,2,0:0:0:0:
192,192,48453,6,0,L|84:192,1,107.999996704102,4|2,3:0|0:0,0:0:0:0:
20,144,48805,1,0,0:0:0:0:
84,96,48922,1,8,0:0:0:0:
84,288,49156,1,2,0:0:0:0:
320,192,49391,6,0,B|320:160|320:160|335:144|335:144|320:128|320:128|320:96,1,107.999996704102,4|2,3:0|0:0,0:0:0:0:
256,48,49742,1,0,0:0:0:0:
192,96,49859,1,8,0:0:0:0:
320,192,50094,1,2,0:0:0:0:
192,288,50328,6,0,B|192:256|192:256|177:240|177:240|192:224|192:224|192:192,1,107.999996704102,4|2,3:0|0:0,0:0:0:0:
256,144,50680,1,0,0:0:0:0:
320,192,50797,1,8,0:0:0:0:
192,288,51031,1,2,0:0:0:0:
320,384,51266,6,0,B|320:352|320:352|335:336|335:336|320:320|320:320|320:288,1,107.999996704102,4|2,3:0|0:0,0:0:0:0:
256,240,51617,1,0,0:0:0:0:
192,288,51734,1,8,0:0:0:0:
256,144,51969,5,2,0:0:0:0:
256,144,52086,1,0,0:0:0:0:
256,144,52203,1,4,3:0:0:0:
320,288,52437,5,2,0:0:0:0:
320,288,52555,1,0,0:0:0:0:
320,288,52672,1,8,0:0:0:0:
256,108,52906,5,2,0:0:0:0:
256,108,53023,1,0,0:0:0:0:
256,108,53141,2,0,P|204:78|152:108,1,125.999996154785,4|2,3:0|0:0,0:0:0:0:
93,50,53492,1,0,0:0:0:0:
35,109,53609,2,0,B|43:139|43:139|35:169,1,62.9999980773926,8|0,0:0|0:0,0:0:0:0:
93,288,53844,2,0,B|85:258|85:258|93:228,1,62.9999980773926,2|0,0:0|0:0,0:0:0:0:
168,258,54078,6,0,L|190:381,1,125.999996154785,4|2,3:0|0:0,0:0:0:0:
256,328,54430,1,0,0:0:0:0:
321,381,54547,2,0,L|384:381,1,62.9999980773926,8|0,0:0|0:0,0:0:0:0:
511,328,54781,2,0,L|448:328,1,62.9999980773926,2|0,0:0|0:0,0:0:0:0:
321,275,55016,6,0,B|321:249|321:249|353:230|353:230|385:249|385:249|385:275,1,125.999996154785,4|2,3:0|0:0,0:0:0:0:
450,222,55367,1,0,0:0:0:0:
385,169,55484,2,0,L|429:124,1,62.9999980773926,8|0,0:0|0:0,0:0:0:0:
364,71,55719,5,2,0:0:0:0:
364,71,55836,1,0,0:0:0:0:
364,71,55953,2,0,B|364:11|364:11|298:11,1,125.999996154785,4|2,3:0|0:0,0:0:0:0:
214,11,56305,1,0,0:0:0:0:
158,71,56422,2,0,P|128:79|98:71,1,62.9999980773926,8|0,0:0|0:0,0:0:0:0:
214,131,56656,2,0,P|244:123|274:131,1,62.9999980773926,2|0,0:0|0:0,0:0:0:0:
158,191,56891,6,0,B|126:191|126:191|94:191|70:215|70:253,1,125.999996154785,4|2,3:0|0:0,0:0:0:0:
12,311,57242,1,0,0:0:0:0:
70,369,57359,2,0,L|133:369,1,62.9999980773926,8|0,0:0|0:0,0:0:0:0:
253,311,57594,2,0,L|190:311,1,62.9999980773926,2|0,0:0|0:0,0:0:0:0:
310,253,57828,6,0,P|366:277|422:253,1,125.999996154785,4|2,3:0|0:0,0:0:0:0:
476,192,58180,1,0,0:0:0:0:
422,131,58297,2,0,P|414:101|422:71,1,62.9999980773926,8|0,0:0|0:0,0:0:0:0:
364,12,58531,5,2,0:0:0:0:
364,12,58648,1,0,0:0:0:0:
364,12,58766,2,0,L|321:130,1,125.999996154785,4|2,3:0|0:0,0:0:0:0:
256,80,59117,1,0,0:0:0:0:
191,130,59234,2,0,B|181:192|181:192|191:254,1,125.999996154785,8|2,0:0|0:0,0:0:0:0:
256,304,59586,5,0,0:0:0:0:
321,254,59703,2,0,B|331:192|331:192|321:130,1,125.999996154785,4|2,3:0|0:0,0:0:0:0:
256,80,60055,1,0,0:0:0:0:
191,130,60172,2,0,L|148:12,1,125.999996154785,8|2,0:0|0:0,0:0:0:0:
321,254,60641,6,0,L|368:385,1,139.500001064301,8|0,1:0|0:0,0:0:0:0:
191,254,61109,2,0,L|59:301,1,139.500001064301,8|0,1:0|0:0,0:0:0:0:
336,244,61578,6,0,L|361:309,1,69.7500005321503,8|2,1:0|0:0,0:0:0:0:
201,269,61930,2,0,L|135:294,1,69.7500005321503,2|8,0:0|1:0,0:0:0:0:
176,140,62281,6,0,L|150:74,1,69.7500005321503,2|0,0:0|0:0,0:0:0:0:
191,130,62516,6,0,L|143:-1,1,139.500001064301,8|0,1:0|0:0,0:0:0:0:
321,130,62984,5,8,1:0:0:0:
321,254,63219,1,0,0:0:0:0:
191,254,63453,1,8,1:0:0:0:
191,130,63687,1,0,0:0:0:0:
321,130,63922,1,8,1:0:0:0:
321,254,64156,1,0,0:0:0:0:
191,130,64391,6,0,L|143:-1,1,139.500001064301,8|0,1:0|0:0,0:0:0:0:
321,130,64859,2,0,L|452:82,1,139.500001064301,8|0,1:0|0:0,0:0:0:0:
176,140,65328,6,0,L|150:74,1,69.7500005321503,8|2,1:0|0:0,0:0:0:0:
311,115,65680,2,0,L|376:89,1,69.7500005321503,2|8,0:0|1:0,0:0:0:0:
336,244,66031,6,0,L|361:309,1,69.7500005321503,2|0,0:0|0:0,0:0:0:0:
321,254,66266,6,0,L|368:385,1,139.500001064301,8|2,1:0|0:0,0:0:0:0:
431,340,66617,1,0,0:0:0:0:
431,340,66734,1,8,1:0:0:0:
431,192,66969,1,2,0:0:0:0:
191,254,67203,6,0,L|144:385,1,139.500001064301,8|2,1:0|0:0,0:0:0:0:
81,340,67555,1,0,0:0:0:0:
81,340,67672,1,8,1:0:0:0:
81,192,67906,1,2,0:0:0:0:
321,254,68141,5,8,0:0:0:0:
321,254,68375,1,8,0:0:0:0:
321,254,68609,1,8,0:0:0:0:
321,254,68844,1,8,0:0:0:0:
321,254,69078,1,8,0:0:0:0:
321,254,69312,1,8,0:0:0:0:
321,254,69430,1,2,0:0:0:0:
321,254,69547,1,8,0:0:0:0:
321,254,69781,1,8,0:0:0:0:
191,130,70016,5,8,0:0:0:0:
191,130,70250,1,8,0:0:0:0:
191,130,70484,1,8,0:0:0:0:
191,130,70719,1,8,0:0:0:0:
191,130,70953,1,8,0:0:0:0:
191,130,71187,1,8,0:0:0:0:
191,130,71305,1,2,0:0:0:0:
191,130,71422,1,8,0:0:0:0:
191,130,71656,1,8,0:0:0:0:
321,254,71891,5,8,0:0:0:0:
335,294,72008,1,8,0:0:0:0:
326,336,72125,1,8,0:0:0:0:
297,368,72242,1,8,0:0:0:0:
256,379,72359,1,8,0:0:0:0:
215,368,72476,1,8,0:0:0:0:
186,336,72594,1,8,0:0:0:0:
177,294,72711,1,8,0:0:0:0:
191,254,72828,5,8,0:0:0:0:
205,214,72945,1,8,0:0:0:0:
196,172,73062,1,8,0:0:0:0:
167,140,73180,1,8,0:0:0:0:
126,129,73297,1,8,0:0:0:0:
85,140,73414,1,8,0:0:0:0:
56,172,73531,1,8,0:0:0:0:
47,214,73648,1,8,0:0:0:0:
61,254,73766,6,0,L|-12:50,1,216,2|2,0:0|0:0,0:0:0:0:
104,156,74703,6,0,L|79:88,1,72,2|2,0:0|0:0,0:0:0:0:
132,176,75055,5,0,0:0:0:0:
132,176,75172,2,0,L|86:48,1,135.000005149842,2|0,3:0|0:0,0:0:0:0:
235,176,75641,6,2,P|299:134|363:176,1,161.999995056153,4|2,1:0|0:0,0:1:0:0:
425,238,75992,1,0,0:0:0:0:
480,176,76109,2,0,B|486:136|486:136|480:96,1,80.9999975280763,8|0,0:0|0:0,0:0:0:0:
425,238,76344,2,2,B|419:278|419:278|425:318,1,80.9999975280763,2|0,0:1|0:0,0:1:0:0:
363,176,76578,6,2,B|384:136|356:96|320:96|320:96|267:96,1,161.999995056153,4|2,3:0|0:0,0:1:0:0:
204,32,76930,1,2,0:1:0:0:
141,96,77047,2,2,P|125:132|141:168,1,80.9999975280763,8|0,0:0|0:0,0:1:0:0:
204,303,77281,2,2,P|220:267|204:231,1,80.9999975280763,2|0,0:1|0:0,0:1:0:0:
141,367,77516,6,2,B|157:337|157:337|251:337|251:337|267:367,1,161.999995056153,4|2,3:0|0:0,0:1:0:0:
330,303,77867,1,0,0:0:0:0:
392,368,77984,2,2,L|473:368,1,80.9999975280763,8|0,0:0|0:0,0:1:0:0:
393,239,78219,2,2,L|474:239,1,80.9999975280763,2|0,0:1|0:0,0:1:0:0:
392,360,78453,6,2,L|473:360,1,80.9999975280763,4|0,3:0|0:0,0:1:0:0:
393,247,78687,2,2,L|474:247,1,80.9999975280763,2|0,0:1|0:0,0:1:0:0:
330,303,78922,6,2,L|249:303,1,80.9999975280763,8|0,0:0|0:0,0:1:0:0:
187,239,79156,1,2,0:1:0:0:
125,303,79273,1,0,0:0:0:0:
63,239,79391,6,2,B|109:231|125:193|125:193|141:231|187:239,1,161.999995056153,4|2,3:0|0:0,0:1:0:0:
249,303,79742,1,0,0:0:0:0:
311,239,79859,2,2,P|327:203|311:167,1,80.9999975280763,8|0,0:0|0:0,0:1:0:0:
249,31,80094,2,0,P|233:67|249:103,1,80.9999975280763,2|0,0:0|0:0,0:0:0:0:
330,31,80328,6,2,L|168:31,1,161.999995056153,4|2,3:0|0:0,0:1:0:0:
115,103,80680,1,2,0:1:0:0:
168,175,80797,2,2,B|168:191|168:191|189:203|189:203|168:215|168:215|168:231,1,80.9999975280763,8|0,0:0|0:0,0:1:0:0:
62,175,81031,2,2,B|62:191|62:191|41:203|41:203|62:215|62:215|62:231,1,80.9999975280763,2|0,0:1|0:0,0:1:0:0:
168,175,81266,6,2,B|239:175|239:175|247:179|247:179|255:183|255:183|328:183,1,161.999995056153,4|2,3:0|0:0,0:1:0:0:
396,239,81617,1,0,0:0:0:0:
463,183,81734,2,0,B|474:144|474:144|463:105,1,80.9999975280763,8|0,0:0|0:0,0:0:0:0:
396,239,81969,2,2,B|385:278|385:278|396:317,1,80.9999975280763,2|0,0:1|0:0,0:1:0:0:
328,183,82203,6,2,B|339:144|339:144|328:105,1,80.9999975280763,4|0,3:0|0:0,0:1:0:0:
256,56,82437,1,2,0:1:0:0:
256,56,82555,1,0,0:0:0:0:
184,105,82672,2,2,B|173:144|173:144|184:183,1,80.9999975280763,8|0,0:0|0:0,0:1:0:0:
328,105,82906,2,2,B|339:144|339:144|328:183,1,80.9999975280763,2|0,0:1|0:0,0:1:0:0:
256,294,83141,6,2,B|284:258|260:218|256:218|252:218|228:178|256:142,1,161.999995056153,4|0,3:0|0:0,0:1:0:0:
256,56,83492,1,0,0:0:0:0:
328,105,83609,2,0,L|366:33,1,80.9999975280763,8|0,0:0|0:0,0:0:0:0:
184,105,83844,2,2,L|145:33,1,80.9999975280763,2|0,0:1|0:0,0:1:0:0:
328,105,84078,6,2,B|256:142|256:142|184:105,1,161.999995056153,4|2,3:0|0:0,0:1:0:0:
104,144,84430,1,2,0:1:0:0:
25,105,84547,2,2,P|9:69|25:33,1,80.9999975280763,8|0,0:0|0:0,0:1:0:0:
104,144,84781,2,2,P|120:180|104:216,1,80.9999975280763,2|0,0:1|0:0,0:1:0:0:
25,327,85016,6,2,B|-17:327|-17:327|-3:291|-3:291|-17:255|-17:255|25:255,1,161.999995056153,4|2,3:0|0:0,0:1:0:0:
104,291,85367,1,0,0:0:0:0:
183,255,85484,2,2,P|199:291|183:327,1,80.9999975280763,8|0,0:0|0:0,0:1:0:0:
192,255,85719,2,2,P|208:291|192:327,1,80.9999975280763,2|0,0:1|0:0,0:1:0:0:
329,255,85953,6,2,P|313:291|329:327,1,80.9999975280763,4|0,3:0|0:0,0:1:0:0:
320,255,86187,2,2,P|304:291|320:327,1,80.9999975280763,2|0,0:1|0:0,0:1:0:0:
256,192,86422,6,2,L|256:111,1,80.9999975280763,8|0,0:0|0:0,0:1:0:0:
192,48,86656,1,2,0:1:0:0:
256,111,86773,1,0,0:0:0:0:
320,48,86891,6,2,B|360:48|360:48|424:48|456:111,1,161.999995056153,4|2,3:0|0:0,0:1:0:0:
416,192,87242,1,0,0:0:0:0:
456,273,87359,2,2,B|468:289|468:289|468:329|468:329|456:345,1,80.9999975280763,8|0,0:0|0:0,0:1:0:0:
376,273,87594,2,0,B|364:289|364:289|364:329|364:329|376:345,1,80.9999975280763,2|0,0:0|0:0,0:0:0:0:
296,273,87828,6,2,B|256:245|220:269|220:273|220:277|184:301|144:273,1,161.999995056153,4|2,3:0|0:0,0:1:0:0:
104,192,88180,1,2,0:1:0:0:
144,112,88297,2,2,B|184:112|184:112|212:83,1,80.9999975280763,8|0,0:0|0:0,0:1:0:0:
368,112,88531,2,2,B|328:112|328:112|299:83,1,80.9999975280763,2|0,0:1|0:0,0:1:0:0:
256,4,88766,6,2,B|256:166,1,161.999995056153,4|2,3:0|0:0,0:1:0:0:
212,244,89117,1,0,0:0:0:0:
300,244,89234,2,0,L|337:315,1,80.9999975280763,8|0,0:0|0:0,0:0:0:0:
256,166,89469,2,2,L|256:85,1,80.9999975280763,2|0,0:1|0:0,0:1:0:0:
212,244,89703,2,2,L|174:315,1,80.9999975280763,4|0,3:0|0:0,0:1:0:0:
300,244,89937,5,2,0:1:0:0:
300,244,90055,1,0,0:0:0:0:
300,244,90172,2,2,B|264:268|256:319|256:319|248:268|212:244,1,180,8|2,1:2|0:1,0:1:0:0:
256,166,90523,1,0,0:0:0:0:
212,88,90641,6,0,P|256:33|300:88,1,161.999995056153,4|2,1:0|0:0,0:0:0:0:
344,166,90992,1,0,0:0:0:0:
300,244,91109,2,0,L|300:325,1,80.9999975280763,8|0,0:0|0:0,0:0:0:0:
212,244,91344,2,0,L|212:325,1,80.9999975280763,2|0,0:1|0:0,0:0:0:0:
300,244,91578,6,0,B|300:278|300:278|344:250|388:278|388:278|388:244,1,161.999995056153,4|2,3:0|0:0,0:0:0:0:
432,132,91930,2,0,B|432:166|432:166|388:138|344:166|344:166|344:132,1,161.999995056153,2|0,3:0|0:0,0:0:0:0:
388,53,92281,2,0,P|427:44|466:53,1,80.9999975280763,2|0,0:1|0:0,0:0:0:0:
300,53,92516,6,0,B|264:80|256:119|256:119|248:80|212:53,1,161.999995056153,4|2,3:0|0:0,0:0:0:0:
124,53,92867,1,0,0:0:0:0:
124,141,92984,2,0,B|117:181|117:181|124:221,1,80.9999975280763,8|0,0:0|0:0,0:0:0:0:
388,141,93219,2,0,B|395:181|395:181|388:221,1,80.9999975280763,2|0,0:1|0:0,0:0:0:0:
197,181,93453,6,0,B|190:221|190:221|197:261,1,80.9999975280763,4|0,3:0|0:0,0:0:0:0:
256,114,93687,1,2,0:0:0:0:
256,114,93805,1,0,0:0:0:0:
315,261,93922,2,0,B|322:221|322:221|315:181,1,80.9999975280763,8|0,0:0|0:0,0:0:0:0:
197,261,94156,2,0,B|190:221|190:221|197:181,1,80.9999975280763,2|0,0:1|0:0,0:0:0:0:
315,261,94391,6,0,B|367:261|367:261|383:237|383:237|399:261|399:261|451:261,1,161.999995056153,4|2,3:0|0:0,0:0:0:0:
508,192,94742,1,0,0:0:0:0:
451,123,94859,2,0,B|399:123|399:123|383:147|383:147|367:123|367:123|315:123,1,161.999995056153,8|2,0:0|0:1,0:0:0:0:
256,56,95211,1,0,0:0:0:0:
197,123,95328,6,0,B|216:160|256:176|256:176|296:160|315:123,1,161.999995056153,4|0,3:0|0:0,0:0:0:0:
197,243,95680,2,0,B|206:273|206:273|306:273|306:273|314:242,1,161.999995056153,2|0,3:0|0:0,0:0:0:0:
216,366,96031,2,0,L|296:366,1,80.9999975280763,2|0,0:1|0:0,0:0:0:0:
386,366,96266,6,0,B|450:366|450:366|450:306|487:279,1,161.999995056153,4|2,3:0|0:0,0:0:0:0:
464,192,96617,1,0,0:0:0:0:
441,104,96734,2,0,P|425:68|441:32,1,80.9999975280763,8|0,0:0|0:0,0:0:0:0:
348,104,96969,2,0,P|332:68|348:32,1,80.9999975280763,2|0,0:1|0:0,0:0:0:0:
256,104,97203,6,0,P|240:68|256:32,1,80.9999975280763,4|0,3:0|0:0,0:0:0:0:
164,104,97437,1,2,0:0:0:0:
164,104,97555,1,0,0:0:0:0:
71,32,97672,2,0,P|87:68|71:104,1,80.9999975280763,8|0,0:0|0:0,0:0:0:0:
48,264,97906,2,0,P|32:228|48:192,1,80.9999975280763,2|0,0:1|0:0,0:0:0:0:
140,264,98141,6,0,L|256:376,1,161.999995056153,4|2,3:0|0:0,0:0:0:0:
319,313,98492,1,0,0:0:0:0:
256,250,98609,2,0,P|242:213|256:176,1,80.9999975280763,8|0,0:0|0:0,0:0:0:0:
319,39,98844,2,0,P|333:76|319:113,1,80.9999975280763,2|0,0:1|0:0,0:0:0:0:
238,39,99078,6,0,L|400:39,1,161.999995056153,4|2,3:0|0:0,0:0:0:0:
481,113,99430,2,0,B|319:113,1,161.999995056153,2|0,3:0|0:0,0:0:0:0:
238,187,99781,2,0,L|318:187,1,80.9999975280763,2|0,0:1|0:0,0:0:0:0:
157,261,100016,6,0,B|122:261|122:261|102:302|102:302|82:261|82:261|47:261,1,161.999995056153,4|2,3:0|0:0,0:0:0:0:
102,192,100367,1,0,0:0:0:0:
47,123,100484,2,0,B|39:83|39:83|47:43,1,80.9999975280763,8|0,0:0|0:0,0:0:0:0:
157,123,100719,2,0,B|165:83|165:83|157:43,1,80.9999975280763,2|0,0:1|0:0,0:0:0:0:
39,123,100953,6,0,B|31:83|31:83|39:43,1,80.9999975280763,4|0,3:0|0:0,0:0:0:0:
102,192,101187,1,2,0:0:0:0:
102,192,101305,1,0,0:0:0:0:
165,43,101422,2,0,B|173:83|173:83|165:123,1,80.9999975280763,8|0,0:0|0:0,0:0:0:0:
39,43,101656,2,0,B|31:83|31:83|39:123,1,80.9999975280763,2|0,0:1|0:0,0:0:0:0:
165,43,101891,6,0,B|201:43|201:43|246:43|280:77|280:123,1,161.999995056153,4|2,3:0|0:0,0:0:0:0:
336,192,102242,1,0,0:0:0:0:
280,261,102359,2,0,B|280:307|246:341|201:341|201:341|165:341,1,161.999995056153,8|2,0:0|0:1,0:0:0:0:
102,275,102711,1,0,0:0:0:0:
165,209,102828,6,0,L|50:94,1,161.999995056153,4|2,3:0|0:0,0:0:0:0:
176,192,103180,2,0,L|61:77,1,161.999995056153,2|0,3:0|0:0,0:0:0:0:
187,175,103531,2,0,L|129:117,1,80.9999975280763,2|0,0:1|0:0,0:0:0:0:
256,117,103766,6,0,B|293:141|329:121|333:117|337:113|373:93|410:117,1,161.999995056153,4|2,3:0|0:0,0:0:0:0:
460,192,104117,1,0,0:0:0:0:
410,267,104234,2,0,B|373:291|337:271|333:267|329:263|293:243|256:267,1,161.999995056153,8|2,0:0|0:1,0:0:0:0:
206,342,104586,1,0,0:0:0:0:
156,267,104703,6,0,B|115:267|115:267|86:238,1,80.9999975280763,4|0,3:0|0:0,0:0:0:0:
156,117,104937,2,0,B|115:117|115:117|86:145,1,80.9999975280763,2|0,0:0|0:0,0:0:0:0:
158,271,105172,6,0,B|114:271|114:271|81:238,1,90,8|0,1:2|0:0,0:0:0:0:
158,113,105406,2,0,B|114:113|114:113|81:145,1,90,2|0,0:0|0:0,0:0:0:0:
220,192,105641,6,0,P|256:208|292:192,1,80.9999975280763,4|0,1:0|0:0,0:0:0:0:
333,113,105875,1,2,0:0:0:0:
333,113,105992,1,0,0:0:0:0:
374,192,106109,2,0,P|410:208|446:192,1,80.9999975280763,8|0,0:0|0:0,0:0:0:0:
220,192,106344,6,0,P|256:208|292:192,1,80.9999975280763,2|0,0:0|0:0,0:0:0:0:
179,118,106578,2,0,P|143:102|107:118,1,80.9999975280763,4|0,3:0|0:0,0:0:0:0:
220,44,106812,1,2,0:0:0:0:
220,44,106930,1,2,0:3:0:0:
220,44,107047,2,0,P|256:60|292:44,1,80.9999975280763,8|0,0:0|0:0,0:0:0:0:
405,118,107281,2,0,P|369:102|333:118,1,80.9999975280763,2|0,0:0|0:0,0:0:0:0:
446,192,107516,6,0,L|331:306,1,161.999995056153,4|2,3:0|0:1,0:0:0:0:
256,356,107867,1,0,0:0:0:0:
180,306,107984,2,0,B|200:272|200:272|200:230,1,80.9999975280763,8|0,0:0|0:0,0:0:0:0:
331,306,108219,2,0,B|312:272|312:272|312:230,1,80.9999975280763,2|0,0:1|0:0,0:0:0:0:
66,192,108453,6,0,L|181:78,1,161.999995056153,4|2,3:0|0:1,0:0:0:0:
256,28,108805,1,0,0:0:0:0:
332,78,108922,2,0,B|312:112|312:112|312:154,1,80.9999975280763,8|0,0:0|0:0,0:0:0:0:
181,78,109156,2,0,B|200:112|200:112|200:154,1,80.9999975280763,2|0,3:1|3:0,0:0:0:0:
446,192,109391,6,0,B|464:192|464:192|472:188|472:188|472:196|472:196|480:188|480:188|480:196|480:196|488:192|488:192|506:192,1,80.9999975280763,4|0,3:0|0:0,0:0:0:0:
446,280,109625,2,0,B|446:298|446:298|442:306|442:306|450:306|450:306|442:314|442:314|450:314|450:314|446:322|446:322|446:340,1,80.9999975280763,2|0,0:0|0:0,0:0:0:0:
358,280,109859,2,0,B|340:280|340:280|332:284|332:284|332:276|332:276|324:284|324:284|324:276|324:276|316:280|316:280|298:280,1,80.9999975280763,8|0,0:0|0:0,0:0:0:0:
358,192,110094,2,0,B|358:174|358:174|362:166|362:166|354:166|354:166|362:158|362:158|354:158|354:158|358:150|358:150|358:132,1,80.9999975280763,2|0,0:0|0:0,0:0:0:0:
446,192,110328,6,0,B|446:129|446:129|446:78|397:48,1,161.999995056153,4|2,3:0|0:0,0:0:0:0:
270,192,110680,2,0,B|270:129|270:129|270:78|318:48,1,161.999995056153,2|0,3:0|0:0,0:0:0:0:
358,132,111031,1,2,0:0:0:0:
397,48,111148,1,2,0:3:0:0:
358,132,111266,6,0,B|358:194|358:194|355:202|355:202|361:202|361:202|355:210|355:210|361:210|361:210|358:218|358:218|358:280,1,161.999995056153,4|2,3:0|0:0,0:0:0:0:
436,324,111617,1,2,0:3:0:0:
358,369,111734,2,0,B|334:369|334:369|326:354|326:354|318:369|318:369|294:369,1,80.9999975280763,8|0,0:0|0:0,0:0:0:0:
154,369,111969,2,0,B|178:369|178:369|186:354|186:354|194:369|194:369|218:369,1,80.9999975280763,2|0,0:0|0:0,0:0:0:0:
154,278,112203,6,0,B|154:218|154:218|151:210|151:210|157:210|157:210|151:202|151:202|157:202|157:202|154:194|154:194|154:132,1,161.999995056153,4|2,3:0|0:0,0:0:0:0:
115,48,112555,1,2,0:3:0:0:
154,132,112672,2,0,P|189:115|210:80,1,80.9999975280763,8|0,0:0|0:0,0:0:0:0:
358,132,112906,2,0,P|323:115|302:80,1,80.9999975280763,2|0,3:2|3:0,0:0:0:0:
220,192,113141,6,0,P|256:176|292:192,1,80.9999975280763,4|0,1:0|0:0,0:0:0:0:
333,271,113375,1,2,0:0:0:0:
333,271,113492,1,0,0:0:0:0:
374,192,113609,2,0,P|410:176|446:192,1,80.9999975280763,8|0,0:0|0:0,0:0:0:0:
220,192,113844,6,0,P|256:176|292:192,1,80.9999975280763,2|0,0:0|0:0,0:0:0:0:
179,266,114078,2,0,P|143:282|107:266,1,80.9999975280763,4|0,3:0|0:0,0:0:0:0:
220,340,114312,1,2,0:0:0:0:
220,340,114430,1,2,0:3:0:0:
220,340,114547,2,0,P|256:324|292:340,1,80.9999975280763,8|0,0:0|0:0,0:0:0:0:
405,266,114781,2,0,P|369:282|333:266,1,80.9999975280763,2|0,0:0|0:0,0:0:0:0:
446,192,115016,6,0,L|331:78,1,161.999995056153,4|2,3:0|0:1,0:0:0:0:
256,28,115367,1,0,0:0:0:0:
180,78,115484,2,0,B|200:112|200:112|200:154,1,80.9999975280763,8|0,0:0|0:0,0:0:0:0:
331,78,115719,2,0,B|312:112|312:112|312:154,1,80.9999975280763,2|0,0:1|0:0,0:0:0:0:
66,192,115953,6,0,L|181:306,1,161.999995056153,4|2,3:0|0:1,0:0:0:0:
256,356,116305,1,0,0:0:0:0:
332,306,116422,2,0,B|312:272|312:272|312:230,1,80.9999975280763,8|0,0:0|0:0,0:0:0:0:
181,306,116656,2,0,B|200:272|200:272|200:230,1,80.9999975280763,2|0,3:1|3:0,0:0:0:0:
446,192,116891,6,0,B|464:192|464:192|472:196|472:196|472:188|472:188|480:196|480:196|480:188|480:188|488:192|488:192|506:192,1,80.9999975280763,4|0,3:0|0:0,0:0:0:0:
446,104,117125,2,0,B|446:86|446:86|442:78|442:78|450:78|450:78|442:70|442:70|450:70|450:70|446:62|446:62|446:44,1,80.9999975280763,2|0,0:0|0:0,0:0:0:0:
358,104,117359,2,0,B|340:104|340:104|332:100|332:100|332:108|332:108|324:100|324:100|324:108|324:108|316:104|316:104|298:104,1,80.9999975280763,8|0,0:0|0:0,0:0:0:0:
358,192,117594,2,0,B|358:210|358:210|362:218|362:218|354:218|354:218|362:226|362:226|354:226|354:226|358:234|358:234|358:252,1,80.9999975280763,2|0,0:0|0:0,0:0:0:0:
446,192,117828,6,0,B|446:255|446:255|446:306|397:336,1,161.999995056153,4|2,3:0|0:0,0:0:0:0:
270,192,118180,2,0,B|270:255|270:255|270:306|318:336,1,161.999995056153,2|0,3:0|0:0,0:0:0:0:
358,252,118531,1,2,0:0:0:0:
397,336,118648,1,2,0:3:0:0:
358,252,118766,6,0,B|358:190|358:190|355:182|355:182|361:182|361:182|355:174|355:174|361:174|361:174|358:166|358:166|358:104,1,161.999995056153,4|2,3:0|0:0,0:0:0:0:
436,60,119117,1,2,0:3:0:0:
358,15,119234,2,0,B|334:15|334:15|326:30|326:30|318:15|318:15|294:15,1,80.9999975280763,8|0,0:0|0:0,0:0:0:0:
154,15,119469,2,0,B|178:15|178:15|186:30|186:30|194:15|194:15|218:15,1,80.9999975280763,2|0,0:0|0:0,0:0:0:0:
154,106,119703,6,0,B|154:166|154:166|151:174|151:174|157:174|157:174|151:182|151:182|157:182|157:182|154:190|154:190|154:252,1,161.999995056153,4|2,3:0|0:0,0:0:0:0:
115,336,120055,1,2,0:3:0:0:
154,252,120172,2,0,P|189:269|210:304,1,80.9999975280763,8|0,0:0|0:0,0:0:0:0:
358,252,120406,2,0,P|323:269|302:304,1,80.9999975280763,2|0,3:2|3:0,0:0:0:0:
220,192,120641,6,0,B|256:211|256:211|292:192,1,80.9999975280763,4|0,1:0|0:0,0:0:0:0:
256,112,120875,1,2,0:0:0:0:
256,112,120992,1,0,0:0:0:0:
292,32,121109,2,0,B|256:13|256:13|220:32,1,80.9999975280763,8|0,0:0|0:0,0:0:0:0:
220,192,121344,6,0,B|256:211|256:211|292:192,1,80.9999975280763,2|0,0:0|0:0,0:0:0:0:
179,118,121578,2,0,B|143:99|143:99|107:118,1,80.9999975280763,4|0,3:0|0:0,0:0:0:0:
220,32,121812,1,2,0:0:0:0:
220,32,121930,1,2,0:3:0:0:
220,32,122047,2,0,B|256:51|256:51|292:32,1,80.9999975280763,8|0,0:0|0:0,0:0:0:0:
405,118,122281,2,0,B|369:99|369:99|333:118,1,80.9999975280763,2|0,0:0|0:0,0:0:0:0:
446,192,122516,6,0,P|478:264|446:336,1,161.999995056153,4|2,3:0|0:1,0:0:0:0:
369,291,122867,1,0,0:0:0:0:
292,336,122984,2,0,P|256:352|220:336,1,80.9999975280763,8|0,0:0|0:0,0:0:0:0:
71,291,123219,2,0,P|107:275|143:291,1,80.9999975280763,2|0,0:1|0:0,0:0:0:0:
66,192,123453,6,0,P|34:120|66:48,1,161.999995056153,4|2,3:0|0:1,0:0:0:0:
143,93,123805,1,0,0:0:0:0:
220,48,123922,2,0,P|256:32|292:48,1,80.9999975280763,8|0,0:0|0:0,0:0:0:0:
441,93,124156,2,0,P|405:109|369:93,1,80.9999975280763,2|0,3:1|3:0,0:0:0:0:
220,138,124391,6,0,P|256:122|292:138,1,80.9999975280763,4|0,3:0|0:0,0:0:0:0:
441,183,124625,2,0,P|405:199|369:183,1,80.9999975280763,2|0,0:0|0:0,0:0:0:0:
220,228,124859,2,0,P|256:212|292:228,1,80.9999975280763,8|0,0:0|0:0,0:0:0:0:
441,273,125094,2,0,P|405:289|369:273,1,80.9999975280763,2|0,0:0|0:0,0:0:0:0:
220,318,125328,6,0,B|220:352|220:352|256:382|256:382|292:352|292:352|292:318,1,161.999995056153,4|2,3:0|0:0,0:0:0:0:
143,273,125680,2,0,B|143:239|143:239|107:209|107:209|71:239|71:239|71:273,1,161.999995056153,2|0,3:0|0:0,0:0:0:0:
220,228,126031,2,0,B|256:246|256:246|292:228,1,80.9999975280763,2|0,0:0|0:0,0:0:0:0:
364,106,126266,6,0,B|328:106|292:138|292:182|292:182|292:228,1,161.999995056153,4|2,3:0|0:0,0:0:0:0:
369,273,126617,1,2,0:3:0:0:
292,318,126734,2,0,L|350:374,1,80.9999975280763,8|0,0:0|0:0,0:0:0:0:
272,312,126969,2,0,L|330:368,1,80.9999975280763,2|0,0:0|0:0,0:0:0:0:
148,278,127203,6,0,B|184:278|220:246|220:202|220:202|220:156,1,161.999995056153,4|2,3:0|0:0,0:0:0:0:
143,111,127555,1,2,0:3:0:0:
220,66,127672,2,0,L|162:10,1,80.9999975280763,8|0,0:0|0:0,0:0:0:0:
240,72,127906,2,0,L|182:16,1,80.9999975280763,2|0,3:2|3:0,0:0:0:0:
364,106,128141,6,0,B|404:102|404:102|444:106,1,80.9999975280763,4|0,1:0|0:0,0:0:0:0:
472,192,128375,1,2,0:0:0:0:
472,192,128492,1,0,0:0:0:0:
444,278,128609,2,0,B|404:282|404:282|364:278,1,80.9999975280763,8|0,0:0|0:0,0:0:0:0:
256,192,128844,2,0,B|296:188|296:188|336:192,1,80.9999975280763,2|0,0:0|0:0,0:0:0:0:
228,278,129078,6,0,B|188:282|188:282|148:278,1,80.9999975280763,4|0,3:0|0:0,0:0:0:0:
40,192,129312,1,2,0:0:0:0:
40,192,129430,1,2,0:3:0:0:
40,192,129547,2,0,B|80:188|80:188|120:192,1,80.9999975280763,8|0,0:0|0:0,0:0:0:0:
228,106,129781,2,0,B|188:110|188:110|148:106,1,80.9999975280763,2|0,0:0|0:0,0:0:0:0:
256,20,130016,6,0,B|301:65|301:65|318:65|318:65|318:82|318:82|363:127,1,161.999995056153,4|2,3:0|0:1,0:0:0:0:
424,192,130367,1,0,0:0:0:0:
363,257,130484,2,0,B|352:270|352:270|352:316|352:316|363:329,1,80.9999975280763,8|0,0:0|0:0,0:0:0:0:
504,228,130719,2,0,B|515:215|515:215|515:169|515:169|504:156,1,80.9999975280763,2|0,0:1|0:0,0:0:0:0:
363,257,130953,6,0,B|331:285|287:261|287:257|287:253|243:229|211:257,1,161.999995056153,4|2,3:0|0:1,0:0:0:0:
148,192,131305,1,0,0:0:0:0:
85,257,131422,2,0,B|85:297|85:297|56:325,1,80.9999975280763,8|0,0:0|0:0,0:0:0:0:
211,257,131656,2,0,B|211:297|211:297|239:325,1,80.9999975280763,2|0,3:1|3:0,0:0:0:0:
148,192,131891,6,0,L|148:111,1,80.9999975280763,4|0,3:0|0:0,0:0:0:0:
364,192,132125,2,0,L|364:111,1,80.9999975280763,2|0,0:0|0:0,0:0:0:0:
160,192,132359,2,0,L|160:111,1,80.9999975280763,8|0,0:0|0:0,0:0:0:0:
352,192,132594,2,0,L|352:111,1,80.9999975280763,2|0,0:0|0:0,0:0:0:0:
172,192,132828,6,0,B|161:103|204:36,1,161.999995056153,4|2,3:0|0:0,0:0:0:0:
340,192,133180,2,0,B|351:103|307:36,1,161.999995056153,2|0,3:0|0:0,0:0:0:0:
256,111,133531,2,0,B|256:192,1,80.9999975280763,2|0,0:0|0:0,0:0:0:0:
298,332,133766,6,0,B|292:366|256:387|256:387|220:366|214:332,1,144,4|2,3:0|0:0,0:0:0:0:
256,262,134117,1,0,0:0:0:0:
298,332,134234,2,0,L|370:332,1,72,8|0,0:0|0:0,0:0:0:0:
214,332,134469,2,0,L|142:332,1,72,2|0,0:0|0:0,0:0:0:0:
214,192,134703,6,0,B|244:180|256:148|256:148|268:180|298:192,1,125.999996154785,4|2,3:0|0:0,0:0:0:0:
256,262,135055,1,0,0:0:0:0:
214,192,135172,2,0,L|151:192,1,62.9999980773926,8|0,0:0|0:0,0:0:0:0:
298,192,135406,2,0,L|361:192,1,62.9999980773926,10|0,0:0|0:0,0:0:0:0:
298,52,135641,6,0,P|256:38|214:52,1,90,4|0,3:0|0:0,0:0:0:0:
67,112,136109,2,0,P|109:98|151:112,1,90,8|0,0:0|3:0,0:0:0:0:
298,172,136578,2,0,P|256:158|214:172,1,90,4|2,3:0|0:0,0:0:0:0:
67,232,137047,2,0,P|109:218|151:232,1,90,8|2,0:0|0:0,0:0:0:0:
214,292,137516,5,4,3:0:0:0:
298,292,137750,1,0,0:0:0:0:
256,212,137984,1,8,0:0:0:0:
214,292,138218,5,0,3:0:0:0:
214,292,138336,1,0,0:0:0:0:
214,292,138453,2,0,L|178:374,1,90,4|0,3:0|0:0,0:0:0:0:
298,292,138922,2,0,L|333:374,1,90,10|0,0:0|0:0,0:0:0:0:
214,292,139391,5,4,3:0:0:0:
256,212,139625,1,0,0:0:0:0:
298,132,139859,1,8,0:0:0:0:
256,52,140094,1,0,3:0:0:0:
298,132,140328,1,4,3:0:0:0:
340,212,140562,5,0,0:0:0:0:
340,212,140680,1,0,0:0:0:0:
340,212,140797,2,0,P|382:198|424:212,1,90,8|0,0:0|0:0,0:0:0:0:
298,132,141266,2,0,P|256:146|214:132,1,90,4|0,3:0|0:0,0:0:0:0:
85,212,141734,5,8,0:0:0:0:
85,212,141969,2,0,P|127:198|169:212,1,90,2|4,0:0|3:0,0:0:0:0:
40,292,142437,1,2,0:0:0:0:
169,372,142672,6,0,B|139:360|127:322|127:322|115:360|85:372,1,135.000005149842,8|0,1:2|0:0,0:0:0:0:
211,292,143141,6,0,P|256:266|301:292,1,107.999996704102,4|0,3:0|0:0,0:0:0:0:
346,372,143609,1,8,0:0:0:0:
391,292,143844,1,0,3:0:0:0:
346,108,144078,2,0,B|331:160|331:160|346:212,1,107.999996704102,4|2,3:0|0:0,0:0:0:0:
391,28,144547,2,0,P|346:3|301:28,1,107.999996704102,8|0,0:0|3:0,0:0:0:0:
436,108,145016,5,4,3:0:0:0:
346,108,145250,1,0,0:0:0:0:
256,108,145484,1,8,0:0:0:0:
346,212,145719,5,0,3:0:0:0:
346,212,145836,1,0,0:0:0:0:
346,212,145953,2,0,P|367:260|346:308,1,107.999996704102,4|0,3:0|0:0,0:0:0:0:
256,212,146422,1,8,0:0:0:0:
166,308,146656,5,0,3:0:0:0:
166,308,146773,1,0,3:0:0:0:
166,308,146891,1,4,3:0:0:0:
346,212,147125,1,0,3:0:0:0:
346,212,147242,1,0,3:0:0:0:
346,212,147359,1,8,0:0:0:0:
256,308,147594,1,0,3:0:0:0:
166,212,147828,5,4,3:0:0:0:
346,308,148062,1,0,3:0:0:0:
346,308,148180,1,0,3:0:0:0:
346,308,148297,1,8,0:0:0:0:
256,212,148531,5,0,3:0:0:0:
256,212,148648,1,0,3:0:0:0:
256,212,148766,2,0,L|256:104,1,107.999996704102,4|2,3:0|0:0,0:0:0:0:
296,36,149117,1,0,3:0:0:0:
216,36,149234,1,8,0:0:0:0:
336,104,149469,1,0,3:0:0:0:
176,104,149703,6,0,L|176:212,1,107.999996704102,4|2,3:0|0:0,0:0:0:0:
216,280,150054,1,0,3:0:0:0:
136,280,150171,1,8,0:0:0:0:
256,212,150406,1,0,3:0:0:0:
376,280,150641,6,0,P|424:308|472:280,1,116.999994644165,4|2,1:0|0:0,0:0:0:0:
376,104,151109,2,0,P|424:76|472:104,1,116.999994644165,8|4,0:0|3:0,0:0:0:0:
376,192,151578,5,4,3:0:0:0:
328,192,151695,1,4,3:0:0:0:
280,192,151812,1,4,3:0:0:0:
232,192,151930,1,2,3:2:0:0:
184,192,152047,1,8,0:0:0:0:
256,104,152281,5,4,3:0:0:0:
256,104,152398,1,4,3:0:0:0:
256,104,152516,2,0,L|328:12,1,116.999994644165,4|4,1:0|3:0,0:0:0:0:
328,192,152984,2,0,L|400:100,1,116.999994644165,8|4,0:0|3:0,0:0:0:0:
400,284,153453,1,4,3:0:0:0:
400,284,153570,1,4,3:0:0:0:
400,284,153687,1,4,3:0:0:0:
232,192,153922,1,8,0:0:0:0:
400,100,154156,5,4,3:0:0:0:
400,100,154273,1,4,3:0:0:0:
400,100,154391,2,0,B|460:100|460:100|500:140,1,116.999994644165,4|2,1:0|0:0,0:0:0:0:
436,192,154742,1,4,3:0:0:0:
500,243,154859,2,0,B|460:284|460:284|400:284,1,116.999994644165,8|4,0:0|3:0,0:0:0:0:
256,192,155328,5,4,3:0:0:0:
223,163,155445,1,4,3:0:0:0:
180,152,155562,1,2,0:0:0:0:
137,163,155680,1,4,3:0:0:0:
104,192,155797,1,8,0:0:0:0:
180,68,156031,5,4,3:0:0:0:
180,68,156148,1,4,3:0:0:0:
180,68,156266,2,0,L|209:17,1,58.4999973220826,4|4,3:0|3:0,0:0:0:0:
332,68,156500,5,4,3:0:0:0:
332,68,156617,1,4,3:0:0:0:
332,68,156734,2,0,L|302:17,1,58.4999973220826,8|4,3:2|3:0,0:0:0:0:
180,152,156969,5,4,3:0:0:0:
180,152,157086,1,4,3:0:0:0:
180,152,157203,5,4,3:0:0:0:
170,194,157320,1,4,3:0:0:0:
182,235,157437,1,4,3:0:0:0:
214,266,157554,1,4,3:0:0:0:
256,277,157671,5,8,3:2:0:0:
298,266,157789,1,4,3:0:0:0:
330,235,157906,1,4,3:0:0:0:
342,194,158023,1,4,3:0:0:0:
332,152,158141,6,0,B|332:98|332:98|328:90|328:90|324:82|324:82|324:27,1,125.999996154785,4|2,3:0|0:0,0:0:0:0:
256,72,158492,1,0,0:0:0:0:
188,28,158609,2,0,B|158:20|158:20|128:28,1,62.9999980773926,8|0,0:0|0:0,0:0:0:0:
0,72,158844,2,0,B|30:80|30:80|60:72,1,62.9999980773926,2|0,0:0|0:0,0:0:0:0:
188,116,159078,6,0,B|188:149|188:149|128:149|128:149|128:116,1,125.999996154785,4|0,3:0|0:0,0:0:0:0:
60,160,159430,1,0,0:0:0:0:
60,160,159547,2,0,L|60:223,1,62.9999980773926,8|0,0:0|0:0,0:0:0:0:
256,160,159781,2,0,L|256:223,1,62.9999980773926,2|0,0:0|0:0,0:0:0:0:
72,160,160016,6,0,B|72:210|72:210|68:218|68:218|76:218|76:218|72:226|72:226|72:276,1,125.999996154785,4|2,3:0|0:0,0:0:0:0:
8,324,160367,1,0,0:0:0:0:
72,368,160484,2,0,L|135:368,1,62.9999980773926,8|0,0:0|0:0,0:0:0:0:
263,324,160719,5,2,0:0:0:0:
263,324,160836,1,0,0:0:0:0:
263,324,160953,2,0,B|200:324|200:324|200:261,1,125.999996154785,4|2,3:0|0:0,0:0:0:0:
256,200,161305,1,0,0:0:0:0:
312,261,161422,2,0,P|342:269|372:261,1,62.9999980773926,8|0,0:0|0:0,0:0:0:0:
200,261,161656,2,0,P|170:269|140:261,1,62.9999980773926,2|0,0:0|0:0,0:0:0:0:
256,200,161891,6,0,B|276:168|260:140|256:140|252:140|236:112|256:80,1,125.999996154785,4|2,3:0|0:0,0:0:0:0:
312,20,162242,1,0,0:0:0:0:
312,20,162359,2,0,B|312:48|312:48|331:77,1,62.9999980773926,8|0,0:0|0:0,0:0:0:0:
200,20,162594,2,0,B|200:48|200:48|180:77,1,62.9999980773926,2|0,0:0|0:0,0:0:0:0:
312,20,162828,6,0,L|438:20,1,125.999996154785,4|2,3:0|0:0,0:0:0:0:
496,77,163180,1,0,0:0:0:0:
438,134,163297,2,0,P|430:164|438:194,1,62.9999980773926,8|0,0:0|0:0,0:0:0:0:
496,251,163531,5,2,0:0:0:0:
496,251,163648,1,0,0:0:0:0:
496,251,163766,2,0,P|438:272|380:251,1,125.999996154785,4|2,3:0|0:0,0:0:0:0:
322,194,164117,1,0,0:0:0:0:
265,251,164234,2,0,B|203:251|203:251|157:296,1,125.999996154785,8|2,0:0|0:0,0:0:0:0:
99,354,164586,1,0,0:0:0:0:
41,297,164703,6,0,B|11:241,1,62.9999980773926,4|0,3:0|0:0,0:0:0:0:
54,287,164937,2,0,B|24:231,1,62.9999980773926,2|0,0:0|0:0,0:0:0:0:
41,87,165172,6,0,B|11:142,1,62.9999980773926,8|0,0:0|0:0,0:0:0:0:
54,97,165406,2,0,B|24:152,1,62.9999980773926,2|0,0:0|0:0,0:0:0:0:
140,192,165641,5,4,3:0:0:0:
140,192,165758,1,0,0:0:0:0:
140,192,165875,2,0,P|172:202|204:192,1,67.5000025749208,2|0,0:0|0:0,0:0:0:0:
372,192,166109,5,4,3:0:0:0:
372,192,166226,1,0,0:0:0:0:
372,192,166343,2,0,P|340:202|308:192,1,67.5000025749208,2|0,0:0|0:0,0:0:0:0:
256,64,166578,5,4,3:0:0:0:
256,64,166695,1,0,0:0:0:0:
256,64,166812,2,0,L|256:131,1,67.5000025749208,2|0,0:0|0:0,0:0:0:0:
256,320,167047,5,4,3:0:0:0:
256,320,167164,1,0,0:0:0:0:
256,320,167281,2,0,L|256:252,1,67.5000025749208,2|0,0:0|0:0,0:0:0:0:
308,380,167516,6,0,B|297:356|297:356|215:356|215:356|204:380,1,135.000005149842,4|2,3:0|0:0,0:0:0:0:
152,320,167867,1,0,0:0:0:0:
100,260,167984,2,0,B|110:228|110:228|100:196,1,67.5000025749208,4|0,3:0|0:0,0:0:0:0:
152,72,168219,2,0,B|142:104|142:104|152:136,1,67.5000025749208,2|0,0:0|0:0,0:0:0:0:
204,4,168453,6,0,B|215:28|215:28|297:28|297:28|308:4,1,135.000005149842,4|2,3:0|0:0,0:0:0:0:
360,64,168805,1,0,0:0:0:0:
412,124,168921,2,0,B|402:156|402:156|412:188,1,67.5000025749208,4|0,3:0|0:0,0:0:0:0:
360,312,169156,2,0,B|370:280|370:280|360:248,1,67.5000025749208,2|0,0:0|0:0,0:0:0:0:
308,124,169391,6,0,B|298:156|298:156|308:188,1,67.5000025749208,4|0,3:0|0:0,0:0:0:0:
256,312,169625,2,0,B|266:280|266:280|256:248,1,67.5000025749208,2|0,0:0|0:0,0:0:0:0:
204,124,169859,5,4,3:0:0:0:
170,124,169976,1,0,0:0:0:0:
136,124,170094,1,2,0:0:0:0:
102,124,170211,2,0,B|92:156|92:156|102:188,1,67.5000025749208,0|4,0:0|3:0,0:0:0:0:
308,124,170445,5,0,0:0:0:0:
342,124,170562,1,2,0:0:0:0:
376,124,170680,1,0,0:0:0:0:
410,124,170797,2,0,B|420:156|420:156|410:188,1,67.5000025749208,4|0,3:0|0:0,0:0:0:0:
500,124,171031,5,2,0:0:0:0:
500,124,171148,1,0,0:0:0:0:
500,124,171266,2,0,L|410:24,1,135.000005149842,4|2,3:0|0:0,0:0:0:0:
333,48,171617,1,0,0:0:0:0:
256,24,171734,2,0,B|220:24|220:24|197:46,1,67.5000025749208,4|0,3:0|0:0,0:0:0:0:
56,24,171969,2,0,B|92:24|92:24|114:46,1,67.5000025749208,2|0,0:0|0:0,0:0:0:0:
156,244,172203,6,0,B|136:212|152:180|156:180|160:180|176:148|156:116,1,135.000005149842,4|2,3:0|0:0,0:0:0:0:
256,244,172555,5,0,0:0:0:0:
256,244,172672,2,0,B|256:184|256:184|253:180|253:180|259:180|259:180|256:176|256:176|256:116,1,135.000005149842,4|2,3:0|0:0,0:0:0:0:
356,244,173023,5,0,0:0:0:0:
356,244,173141,2,0,B|376:212|360:180|356:180|352:180|336:148|356:116,1,135.000005149842,4|2,3:0|0:3,0:0:0:0:
306,52,173492,1,0,0:0:0:0:
256,117,173609,2,0,L|256:184,1,67.5000025749208,4|0,3:0|0:0,0:0:0:0:
156,244,173844,5,2,0:3:0:0:
156,244,173961,1,0,0:0:0:0:
156,244,174078,2,0,B|136:212|152:180|156:180|160:180|176:148|156:116,1,135.000005149842,4|2,3:0|0:3,0:0:0:0:
206,52,174429,1,0,0:0:0:0:
256,117,174547,2,0,L|256:184,1,67.5000025749208,4|0,3:0|0:0,0:0:0:0:
356,244,174781,5,2,0:3:0:0:
356,244,174898,1,0,0:0:0:0:
356,244,175015,2,0,B|366:276|366:276|356:308,1,67.5000025749208,4|0,3:0|0:0,0:0:0:0:
156,244,175250,2,0,B|146:276|146:276|156:308,1,67.5000025749208,2|0,0:3|0:0,0:0:0:0:
346,244,175484,6,0,B|356:276|356:276|346:308,1,67.5000025749208,4|0,3:0|0:0,0:0:0:0:
166,244,175719,2,0,B|156:276|156:276|166:308,1,67.5000025749208,2|0,0:3|0:0,0:0:0:0:
256,244,175953,6,0,L|256:109,1,135.000005149842,4|2,3:0|0:3,0:0:0:0:
306,44,176305,1,0,0:0:0:0:
306,44,176422,2,0,P|338:36|370:44,1,67.5000025749208,4|0,3:0|0:0,0:0:0:0:
206,44,176656,2,0,P|174:36|142:44,1,67.5000025749208,2|0,0:3|0:0,0:0:0:0:
306,56,176891,6,0,P|338:48|370:56,1,67.5000025749208,4|0,3:0|0:0,0:0:0:0:
434,144,177125,1,2,0:3:0:0:
434,144,177242,1,0,0:0:0:0:
434,144,177359,2,0,P|402:136|370:144,1,67.5000025749208,4|0,3:0|0:0,0:0:0:0:
206,56,177594,5,2,0:3:0:0:
206,56,177711,1,0,0:0:0:0:
206,56,177828,2,0,P|174:48|142:56,1,67.5000025749208,4|0,3:0|0:0,0:0:0:0:
78,144,178062,1,2,0:3:0:0:
78,144,178179,1,0,0:0:0:0:
78,144,178296,2,0,P|110:136|142:144,1,67.5000025749208,4|0,3:0|0:0,0:0:0:0:
306,56,178531,5,2,0:3:0:0:
306,56,178648,1,0,0:0:0:0:
306,56,178766,2,0,B|338:45|338:45|370:56,1,67.5000025749208,4|0,3:0|0:0,0:0:0:0:
434,144,179000,5,2,0:3:0:0:
434,144,179117,1,0,0:0:0:0:
434,144,179234,2,0,B|402:133|402:133|370:144,1,67.5000025749208,4|0,3:0|0:0,0:0:0:0:
306,328,179469,5,2,0:3:0:0:
306,328,179586,1,0,0:0:0:0:
306,328,179703,2,0,B|338:339|338:339|370:328,1,67.5000025749208,4|0,3:0|0:0,0:0:0:0:
434,240,179938,5,2,0:3:0:0:
434,240,180055,1,0,0:0:0:0:
434,240,180171,2,0,B|402:251|402:251|370:240,1,67.5000025749208,4|0,3:0|0:0,0:0:0:0:
191,130,180406,5,2,0:3:0:0:
191,130,180523,1,0,0:0:0:0:
191,130,180641,2,0,B|174:84|174:84|155:74|155:74|163:54|163:54|147:9,1,139.500001064301,8|0,1:0|0:0,0:0:0:0:
321,130,181109,2,0,B|366:113|366:113|376:94|376:94|396:102|396:102|441:86,1,139.500001064301,8|0,1:0|0:0,0:0:0:0:
176,140,181578,6,0,L|151:75,1,69.7500005321503,8|2,1:0|0:0,0:0:0:0:
311,115,181930,6,0,L|377:90,1,69.7500005321503,2|8,0:0|1:0,0:0:0:0:
336,244,182281,6,0,L|362:310,1,69.7500005321503,2|0,0:0|0:0,0:0:0:0:
321,254,182516,6,0,B|337:299|337:299|356:309|356:309|348:329|348:329|364:374,1,139.500001064301,8|0,1:0|0:0,0:0:0:0:
191,254,182984,5,8,1:0:0:0:
191,130,183219,1,0,0:0:0:0:
321,130,183453,1,8,1:0:0:0:
321,254,183687,1,0,0:0:0:0:
191,254,183922,1,8,1:0:0:0:
191,130,184156,1,0,0:0:0:0:
321,254,184391,6,0,B|337:299|337:299|356:309|356:309|348:329|348:329|364:374,1,139.500001064301,8|0,1:0|0:0,0:0:0:0:
191,254,184859,2,0,B|145:270|145:270|135:289|135:289|115:281|115:281|70:297,1,139.500001064301,8|0,1:0|0:0,0:0:0:0:
336,244,185328,6,0,L|362:310,1,69.7500005321503,8|2,1:0|0:0,0:0:0:0:
201,269,185680,2,0,L|136:295,1,69.7500005321503,2|8,0:0|1:0,0:0:0:0:
176,140,186031,6,0,L|151:75,1,69.7500005321503,2|0,0:0|0:0,0:0:0:0:
191,130,186266,6,0,B|174:84|174:84|155:74|155:74|163:54|163:54|147:9,1,139.500001064301,8|2,1:0|0:0,0:0:0:0:
81,44,186617,1,0,0:0:0:0:
81,44,186734,1,8,1:0:0:0:
81,192,186969,1,2,0:0:0:0:
321,130,187203,6,0,B|337:84|337:84|356:74|356:74|348:54|348:54|364:9,1,139.500001064301,8|2,1:0|0:0,0:0:0:0:
431,44,187555,1,0,0:0:0:0:
431,44,187672,1,8,1:0:0:0:
431,192,187906,1,2,0:0:0:0:
191,130,188141,5,8,0:0:0:0:
191,130,188375,1,8,0:0:0:0:
191,130,188609,1,8,0:0:0:0:
191,130,188844,1,8,0:0:0:0:
191,130,189078,1,8,0:0:0:0:
191,130,189312,1,8,0:0:0:0:
191,130,189430,1,2,0:0:0:0:
191,130,189547,1,8,0:0:0:0:
191,130,189781,1,8,0:0:0:0:
321,254,190016,5,8,0:0:0:0:
321,254,190250,1,8,0:0:0:0:
321,254,190484,1,8,0:0:0:0:
321,254,190719,1,8,0:0:0:0:
321,254,190953,1,8,0:0:0:0:
321,254,191187,1,8,0:0:0:0:
321,254,191305,1,2,0:0:0:0:
321,254,191422,1,8,0:0:0:0:
321,254,191656,1,8,0:0:0:0:
191,130,191891,5,8,0:0:0:0:
177,90,192008,1,8,0:0:0:0:
186,48,192125,1,8,0:0:0:0:
215,16,192242,1,8,0:0:0:0:
256,5,192359,1,8,0:0:0:0:
297,16,192476,1,8,0:0:0:0:
326,48,192594,1,8,0:0:0:0:
335,90,192711,1,8,0:0:0:0:
321,130,192828,5,8,0:0:0:0:
307,170,192945,1,8,0:0:0:0:
316,212,193062,1,8,0:0:0:0:
345,244,193180,1,8,0:0:0:0:
386,255,193297,1,8,0:0:0:0:
427,244,193414,1,8,0:0:0:0:
456,212,193531,1,8,0:0:0:0:
465,170,193648,1,8,0:0:0:0:
451,130,193766,6,0,L|487:232,1,108,2|4,0:0|3:0,0:0:0:0:
423,110,194234,6,0,L|448:181,1,72,8|4,3:0|3:0,0:0:0:0:
395,90,194586,5,4,3:0:0:0:
395,90,194703,2,0,L|420:158,1,72,4|4,3:0|3:0,0:0:0:0:
367,70,195055,5,4,3:0:0:0:
367,70,195172,2,0,B|412:70|412:70|420:74|420:74|420:66|420:66|428:74|428:74|428:66|428:66|436:70|436:70|481:70,1,135.000005149842,2|0,3:0|0:0,0:0:0:0:
277,208,195641,6,2,B|245:208|221:228|213:250|213:250|205:228|181:208|149:208,1,161.999995056153,4|2,1:0|0:0,0:1:0:0:
87,146,195992,1,0,0:0:0:0:
32,208,196109,2,0,B|20:248|32:288,1,80.9999975280763,8|0,0:0|0:0,0:0:0:0:
87,146,196344,2,2,B|99:106|87:66,1,80.9999975280763,2|0,0:1|0:0,0:1:0:0:
150,208,196578,6,2,B|185:208|209:248|189:288|189:288|244:288,1,161.999995056153,4|2,3:0|0:0,0:1:0:0:
308,352,196930,1,2,0:1:0:0:
371,288,197047,2,2,B|371:264|386:252|386:252|371:240|371:216,1,80.9999975280763,8|0,0:0|0:0,0:1:0:0:
308,81,197281,2,2,B|308:105|293:117|293:117|308:129|308:153,1,80.9999975280763,2|0,0:1|0:0,0:1:0:0:
371,17,197516,6,2,B|328:17|328:17|308:49|308:49|288:17|288:17|245:17,1,161.999995056153,4|2,3:0|0:0,0:1:0:0:
182,81,197867,1,0,0:0:0:0:
120,16,197984,2,2,L|39:16,1,80.9999975280763,8|0,0:0|0:0,0:1:0:0:
119,145,198219,2,2,L|38:145,1,80.9999975280763,2|0,0:1|0:0,0:1:0:0:
120,24,198453,6,2,L|39:24,1,80.9999975280763,4|0,3:0|0:0,0:1:0:0:
119,137,198687,2,2,L|38:137,1,80.9999975280763,2|0,0:1|0:0,0:1:0:0:
182,81,198922,6,2,L|263:81,1,80.9999975280763,8|0,0:0|0:0,0:1:0:0:
325,145,199156,1,2,0:1:0:0:
387,81,199273,1,0,0:0:0:0:
449,145,199391,6,2,B|427:185|387:193|387:193|347:185|325:145,1,161.999995056153,4|2,3:0|0:0,0:1:0:0:
263,81,199742,1,0,0:0:0:0:
201,145,199859,2,2,B|201:169|186:181|186:181|201:193|201:217,1,80.9999975280763,8|0,0:0|0:0,0:1:0:0:
263,353,200094,2,0,B|263:329|278:317|278:317|263:305|263:281,1,80.9999975280763,2|0,0:0|0:0,0:0:0:0:
182,353,200328,6,2,L|344:353,1,161.999995056153,4|2,3:0|0:0,0:1:0:0:
397,281,200680,1,2,0:1:0:0:
344,209,200797,2,2,B|344:128,1,80.9999975280763,8|0,0:0|0:0,0:1:0:0:
450,209,201031,2,2,B|450:128,1,80.9999975280763,2|0,0:1|0:0,0:1:0:0:
344,209,201266,6,2,B|273:209|273:209|265:205|265:205|257:201|257:201|184:201,1,161.999995056153,4|2,3:0|0:0,0:1:0:0:
116,145,201617,1,0,0:0:0:0:
49,201,201734,2,0,P|40:240|49:279,1,80.9999975280763,8|0,0:0|0:0,0:0:0:0:
116,145,201969,2,2,P|125:106|116:67,1,80.9999975280763,2|0,0:1|0:0,0:1:0:0:
184,201,202203,6,2,P|175:240|184:279,1,80.9999975280763,4|0,3:0|0:0,0:1:0:0:
256,328,202437,1,2,0:1:0:0:
256,328,202555,1,0,0:0:0:0:
328,279,202672,2,2,P|337:240|328:201,1,80.9999975280763,8|0,0:0|0:0,0:1:0:0:
184,279,202906,2,2,P|175:240|184:201,1,80.9999975280763,2|0,0:1|0:0,0:1:0:0:
256,90,203141,6,2,B|228:126|252:166|256:166|260:166|284:206|256:242,1,161.999995056153,4|0,3:0|0:0,0:1:0:0:
256,328,203492,1,0,0:0:0:0:
184,279,203609,2,0,L|146:351,1,80.9999975280763,8|0,0:0|0:0,0:0:0:0:
328,279,203844,2,2,L|367:351,1,80.9999975280763,2|0,0:1|0:0,0:1:0:0:
184,279,204078,6,2,B|256:242|256:242|328:279,1,161.999995056153,4|2,3:0|0:0,0:1:0:0:
408,240,204430,1,2,0:1:0:0:
487,279,204547,2,2,B|500:295|500:295|500:335|500:335|487:351,1,80.9999975280763,8|0,0:0|0:0,0:1:0:0:
408,240,204781,2,2,B|395:224|395:224|395:184|395:184|408:168,1,80.9999975280763,2|0,0:1|0:0,0:1:0:0:
487,57,205016,6,2,B|519:49|519:49|499:93|499:93|519:137|519:137|487:129,1,161.999995056153,4|2,3:0|0:0,0:1:0:0:
408,93,205367,1,0,0:0:0:0:
329,129,205484,2,2,B|316:113|316:113|316:73|316:73|329:57,1,80.9999975280763,8|0,0:0|0:0,0:1:0:0:
320,129,205719,2,2,B|307:113|307:113|307:73|307:73|320:57,1,80.9999975280763,2|0,0:1|0:0,0:1:0:0:
183,129,205953,6,2,B|196:113|196:113|196:73|196:73|183:57,1,80.9999975280763,4|0,3:0|0:0,0:1:0:0:
192,129,206187,2,2,B|205:113|205:113|205:73|205:73|192:57,1,80.9999975280763,2|0,0:1|0:0,0:1:0:0:
256,192,206422,6,2,L|256:273,1,80.9999975280763,8|0,0:0|0:0,0:1:0:0:
320,336,206656,1,2,0:1:0:0:
256,273,206773,1,0,0:0:0:0:
192,336,206891,6,2,B|152:336|152:336|88:336|56:273,1,161.999995056153,4|2,3:0|0:0,0:1:0:0:
96,192,207242,1,0,0:0:0:0:
56,111,207359,2,2,B|37:75|37:75|56:39,1,80.9999975280763,8|0,0:0|0:0,0:1:0:0:
136,111,207594,2,2,B|155:75|155:75|136:39,1,80.9999975280763,2|0,0:0|0:0,0:0:0:0:
216,111,207828,6,2,B|268:111|268:111|292:95|292:95|316:111|316:111|368:111,1,161.999995056153,4|2,3:0|0:0,0:1:0:0:
408,192,208180,1,2,0:1:0:0:
368,272,208297,2,2,L|292:300,1,80.9999975280763,8|0,0:0|0:0,0:1:0:0:
144,272,208531,2,2,L|219:300,1,80.9999975280763,2|0,0:1|0:0,0:1:0:0:
256,380,208766,6,2,B|256:218,1,161.999995056153,4|2,3:0|0:0,0:1:0:0:
300,140,209117,1,0,0:0:0:0:
212,140,209234,2,0,L|175:69,1,80.9999975280763,8|0,0:0|0:0,0:0:0:0:
256,218,209469,2,2,L|256:299,1,80.9999975280763,2|0,0:1|0:0,0:1:0:0:
300,140,209703,2,2,L|338:69,1,80.9999975280763,4|0,3:0|0:0,0:1:0:0:
212,140,209937,5,2,0:1:0:0:
212,140,210055,1,0,0:0:0:0:
212,140,210172,2,2,B|248:116|256:65|256:65|264:116|300:140,1,180,8|2,1:2|0:1,0:1:0:0:
256,218,210523,1,0,0:0:0:0:
300,296,210641,6,0,B|300:328|300:328|256:349|256:349|212:328|212:328|212:296,1,161.999995056153,4|2,1:0|0:0,0:0:0:0:
168,218,210992,1,0,0:0:0:0:
212,140,211109,2,0,L|212:59,1,80.9999975280763,8|0,0:0|0:0,0:0:0:0:
300,140,211344,2,0,L|300:59,1,80.9999975280763,2|0,0:1|0:0,0:0:0:0:
212,140,211578,6,0,B|184:140|168:108|168:81|168:81|168:108|152:140|124:140,1,161.999995056153,4|2,3:0|0:0,0:0:0:0:
80,252,211930,2,0,B|80:218|80:218|124:246|168:218|168:218|168:252,1,161.999995056153,2|0,3:0|0:0,0:0:0:0:
124,331,212281,2,0,B|85:343|85:343|46:331,1,80.9999975280763,2|0,0:1|0:0,0:0:0:0:
212,331,212516,6,0,B|256:263|256:263|300:331,1,161.999995056153,4|2,3:0|0:0,0:0:0:0:
388,331,212867,1,0,0:0:0:0:
388,243,212984,2,0,P|395:203|388:163,1,80.9999975280763,8|0,0:0|0:0,0:0:0:0:
124,243,213219,2,0,P|117:203|124:163,1,80.9999975280763,2|0,0:1|0:0,0:0:0:0:
315,203,213453,6,0,P|322:163|315:123,1,80.9999975280763,4|0,3:0|0:0,0:0:0:0:
256,270,213687,1,2,0:0:0:0:
256,270,213805,1,0,0:0:0:0:
197,123,213922,2,0,P|190:163|197:203,1,80.9999975280763,8|0,0:0|0:0,0:0:0:0:
315,123,214156,2,0,P|322:163|315:203,1,80.9999975280763,2|0,0:1|0:0,0:0:0:0:
197,123,214391,6,0,B|173:111|141:127|129:151|129:151|117:127|85:111|61:123,1,161.999995056153,4|2,3:0|0:0,0:0:0:0:
4,192,214742,1,0,0:0:0:0:
61,261,214859,2,0,B|85:273|117:257|129:233|129:233|141:257|173:273|197:261,1,161.999995056153,8|2,0:0|0:1,0:0:0:0:
256,328,215211,1,0,0:0:0:0:
315,261,215328,6,0,B|304:216|256:199|208:216|197:261,1,161.999995056153,4|0,3:0|0:0,0:0:0:0:
315,141,215680,2,0,B|306:112|306:112|206:112|206:112|198:142,1,161.999995056153,2|0,3:0|0:0,0:0:0:0:
296,18,216031,2,0,L|216:18,1,80.9999975280763,2|0,0:1|0:0,0:0:0:0:
126,18,216266,6,0,P|50:32|25:105,1,161.999995056153,4|2,3:0|0:0,0:0:0:0:
48,192,216617,1,0,0:0:0:0:
71,280,216734,2,0,B|89:316|89:316|71:352,1,80.9999975280763,8|0,0:0|0:0,0:0:0:0:
164,280,216969,2,0,B|182:316|182:316|164:352,1,80.9999975280763,2|0,0:1|0:0,0:0:0:0:
256,280,217203,6,0,B|274:316|274:316|256:352,1,80.9999975280763,4|0,3:0|0:0,0:0:0:0:
348,280,217437,1,2,0:0:0:0:
348,280,217555,1,0,0:0:0:0:
441,352,217672,2,0,B|423:316|423:316|441:280,1,80.9999975280763,8|0,0:0|0:0,0:0:0:0:
464,120,217906,2,0,B|482:156|482:156|464:192,1,80.9999975280763,2|0,0:1|0:0,0:0:0:0:
372,120,218141,6,0,L|256:8,1,161.999995056153,4|2,3:0|0:0,0:0:0:0:
193,71,218492,1,0,0:0:0:0:
256,134,218609,2,0,B|268:151|268:151|268:191|268:191|256:208,1,80.9999975280763,8|0,0:0|0:0,0:0:0:0:
193,345,218844,2,0,B|181:328|181:328|181:288|181:288|193:271,1,80.9999975280763,2|0,0:1|0:0,0:0:0:0:
274,345,219078,6,0,L|112:345,1,161.999995056153,4|2,3:0|0:0,0:0:0:0:
31,271,219430,2,0,B|193:271,1,161.999995056153,2|0,3:0|0:0,0:0:0:0:
274,197,219781,2,0,L|194:197,1,80.9999975280763,2|0,0:1|0:0,0:0:0:0:
355,123,220016,6,0,B|390:123|410:95|410:74|410:74|410:95|430:123|465:123,1,161.999995056153,4|2,3:0|0:0,0:0:0:0:
410,192,220367,1,0,0:0:0:0:
465,261,220484,2,0,B|473:301|465:341,1,80.9999975280763,8|0,0:0|0:0,0:0:0:0:
355,261,220719,2,0,B|347:301|355:341,1,80.9999975280763,2|0,0:1|0:0,0:0:0:0:
473,261,220953,6,0,B|481:301|473:341,1,80.9999975280763,4|0,3:0|0:0,0:0:0:0:
410,192,221187,1,2,0:0:0:0:
410,192,221305,1,0,0:0:0:0:
347,341,221422,2,0,B|339:301|347:261,1,80.9999975280763,8|0,0:0|0:0,0:0:0:0:
473,341,221656,2,0,B|481:301|473:261,1,80.9999975280763,2|0,0:1|0:0,0:0:0:0:
347,341,221891,6,0,B|311:341|311:341|266:341|232:307|232:261,1,161.999995056153,4|2,3:0|0:0,0:0:0:0:
176,192,222242,1,0,0:0:0:0:
232,123,222359,2,0,B|232:77|266:43|311:43|311:43|347:43,1,161.999995056153,8|2,0:0|0:1,0:0:0:0:
410,109,222711,1,0,0:0:0:0:
347,175,222828,6,0,L|462:290,1,161.999995056153,4|2,3:0|0:0,0:0:0:0:
336,192,223180,2,0,L|451:307,1,161.999995056153,2|0,3:0|0:0,0:0:0:0:
325,209,223531,2,0,L|383:267,1,80.9999975280763,2|0,0:1|0:0,0:0:0:0:
256,267,223766,6,0,P|179:288|102:267,1,161.999995056153,4|2,3:0|0:0,0:0:0:0:
52,192,224117,1,0,0:0:0:0:
102,117,224234,2,0,P|179:96|256:117,1,161.999995056153,8|2,0:0|0:1,0:0:0:0:
306,42,224586,1,0,0:0:0:0:
356,117,224703,6,0,B|397:117|397:117|426:146,1,80.9999975280763,4|0,3:0|0:0,0:0:0:0:
356,267,224937,2,0,B|397:267|397:267|426:239,1,80.9999975280763,2|0,0:0|0:0,0:0:0:0:
354,113,225172,6,0,B|398:113|398:113|431:146,1,90,8|0,1:2|0:0,0:0:0:0:
354,271,225406,2,0,B|398:271|398:271|431:239,1,90,2|0,0:0|0:0,0:0:0:0:
292,192,225641,6,0,B|279:180|279:180|233:180|233:180|220:192,1,80.9999975280763,4|0,1:0|0:0,0:0:0:0:
179,271,225875,1,2,0:0:0:0:
179,271,225992,1,0,0:0:0:0:
138,192,226109,2,0,B|125:180|125:180|79:180|79:180|66:192,1,80.9999975280763,8|0,0:0|0:0,0:0:0:0:
292,192,226344,6,0,B|279:180|279:180|233:180|233:180|220:192,1,80.9999975280763,2|0,0:0|0:0,0:0:0:0:
333,266,226578,2,0,B|346:278|346:278|392:278|392:278|405:266,1,80.9999975280763,4|0,3:0|0:0,0:0:0:0:
292,340,226812,1,2,0:0:0:0:
292,340,226930,1,2,0:3:0:0:
292,340,227047,2,0,B|279:328|279:328|233:328|233:328|220:340,1,80.9999975280763,8|0,0:0|0:0,0:0:0:0:
107,266,227281,2,0,B|120:278|120:278|166:278|166:278|179:266,1,80.9999975280763,2|0,0:0|0:0,0:0:0:0:
66,192,227516,6,0,L|181:78,1,161.999995056153,4|2,3:0|0:1,0:0:0:0:
256,28,227867,1,0,0:0:0:0:
332,78,227984,2,0,B|332:120|332:120|312:154,1,80.9999975280763,8|0,0:0|0:0,0:0:0:0:
180,78,228219,2,0,B|180:120|180:120|200:154,1,80.9999975280763,2|0,0:1|0:0,0:0:0:0:
446,192,228453,6,0,L|331:306,1,161.999995056153,4|2,3:0|0:1,0:0:0:0:
256,356,228805,1,0,0:0:0:0:
180,306,228922,2,0,B|180:264|180:264|200:230,1,80.9999975280763,8|0,0:0|0:0,0:0:0:0:
332,306,229157,2,0,B|332:264|332:264|312:230,1,80.9999975280763,2|0,0:1|0:0,0:0:0:0:
66,192,229391,6,0,B|48:192|48:192|40:196|40:196|40:188|40:188|32:196|32:196|32:188|32:188|24:192|24:192|6:192,1,80.9999975280763,4|0,3:0|0:0,0:0:0:0:
66,104,229625,2,0,B|66:86|66:86|70:78|70:78|62:78|62:78|70:70|70:70|62:70|62:70|66:62|66:62|66:44,1,80.9999975280763,2|0,0:0|0:0,0:0:0:0:
154,104,229859,2,0,B|172:104|172:104|180:100|180:100|180:108|180:108|188:100|188:100|188:108|188:108|196:104|196:104|214:104,1,80.9999975280763,8|0,0:0|0:0,0:0:0:0:
154,192,230094,2,0,B|154:210|154:210|150:218|150:218|158:218|158:218|150:226|150:226|158:226|158:226|154:234|154:234|154:252,1,80.9999975280763,2|0,0:0|0:0,0:0:0:0:
66,192,230328,6,0,B|66:255|66:255|66:306|115:336,1,161.999995056153,4|2,3:0|0:0,0:0:0:0:
242,192,230680,2,0,B|242:255|242:255|242:306|194:336,1,161.999995056153,2|0,3:0|0:0,0:0:0:0:
154,252,231031,1,2,0:0:0:0:
115,336,231148,1,2,0:3:0:0:
154,252,231266,6,0,B|154:190|154:190|157:182|157:182|151:182|151:182|157:174|157:174|151:174|151:174|154:166|154:166|154:104,1,161.999995056153,4|2,3:0|0:0,0:0:0:0:
76,60,231617,1,2,0:3:0:0:
154,15,231734,2,0,B|174:15|186:37|186:37|198:15|218:15,1,80.9999975280763,8|0,0:0|0:0,0:0:0:0:
358,15,231969,2,0,B|338:15|326:37|326:37|314:15|294:15,1,80.9999975280763,2|0,0:0|0:0,0:0:0:0:
358,106,232203,6,0,B|358:166|358:166|361:174|361:174|355:174|355:174|361:182|361:182|355:182|355:182|358:190|358:190|358:252,1,161.999995056153,4|2,3:0|0:0,0:0:0:0:
397,336,232555,1,2,0:3:0:0:
358,252,232672,2,0,P|323:269|302:304,1,80.9999975280763,8|0,0:0|0:0,0:0:0:0:
154,252,232906,2,0,P|189:269|210:304,1,80.9999975280763,2|0,3:2|3:0,0:0:0:0:
292,192,233141,6,0,B|279:204|279:204|233:204|233:204|220:192,1,80.9999975280763,4|0,1:0|0:0,0:0:0:0:
179,113,233375,1,2,0:0:0:0:
179,113,233492,1,0,0:0:0:0:
138,192,233609,2,0,B|125:204|125:204|79:204|79:204|66:192,1,80.9999975280763,8|0,0:0|0:0,0:0:0:0:
292,192,233844,6,0,B|279:204|279:204|233:204|233:204|220:192,1,80.9999975280763,2|0,0:0|0:0,0:0:0:0:
333,118,234078,2,0,B|346:106|346:106|392:106|392:106|405:118,1,80.9999975280763,4|0,3:0|0:0,0:0:0:0:
292,44,234312,1,2,0:0:0:0:
292,44,234430,1,2,0:3:0:0:
292,44,234547,2,0,B|279:56|279:56|233:56|233:56|220:44,1,80.9999975280763,8|0,0:0|0:0,0:0:0:0:
107,118,234781,2,0,B|120:106|120:106|166:106|166:106|179:118,1,80.9999975280763,2|0,0:0|0:0,0:0:0:0:
66,192,235016,6,0,L|181:306,1,161.999995056153,4|2,3:0|0:1,0:0:0:0:
256,356,235367,1,0,0:0:0:0:
332,306,235484,2,0,B|332:264|332:264|312:230,1,80.9999975280763,8|0,0:0|0:0,0:0:0:0:
180,306,235719,2,0,B|180:264|180:264|200:230,1,80.9999975280763,2|0,0:1|0:0,0:0:0:0:
446,192,235953,6,0,L|331:78,1,161.999995056153,4|2,3:0|0:1,0:0:0:0:
256,28,236305,1,0,0:0:0:0:
180,78,236422,2,0,B|180:120|180:120|200:154,1,80.9999975280763,8|0,0:0|0:0,0:0:0:0:
332,78,236657,2,0,B|332:120|332:120|312:154,1,80.9999975280763,2|0,0:1|0:0,0:0:0:0:
66,192,236891,6,0,B|48:192|48:192|40:188|40:188|40:196|40:196|32:188|32:188|32:196|32:196|24:192|24:192|6:192,1,80.9999975280763,4|0,3:0|0:0,0:0:0:0:
66,280,237125,2,0,B|66:298|66:298|70:306|70:306|62:306|62:306|70:314|70:314|62:314|62:314|66:322|66:322|66:340,1,80.9999975280763,2|0,0:0|0:0,0:0:0:0:
154,280,237359,2,0,B|172:280|172:280|180:284|180:284|180:276|180:276|188:284|188:284|188:276|188:276|196:280|196:280|214:280,1,80.9999975280763,8|0,0:0|0:0,0:0:0:0:
154,192,237594,2,0,B|154:174|154:174|150:166|150:166|158:166|158:166|150:158|150:158|158:158|158:158|154:150|154:150|154:132,1,80.9999975280763,2|0,0:0|0:0,0:0:0:0:
66,192,237828,6,0,B|66:129|66:129|66:78|115:48,1,161.999995056153,4|2,3:0|0:0,0:0:0:0:
242,192,238180,2,0,B|242:129|242:129|242:78|194:48,1,161.999995056153,2|0,3:0|0:0,0:0:0:0:
154,132,238531,1,2,0:0:0:0:
115,48,238648,1,2,0:3:0:0:
154,132,238766,6,0,B|154:194|154:194|157:202|157:202|151:202|151:202|157:210|157:210|151:210|151:210|154:218|154:218|154:280,1,161.999995056153,4|2,3:0|0:0,0:0:0:0:
76,324,239117,1,2,0:3:0:0:
154,369,239234,2,0,B|174:369|186:347|186:347|198:369|218:369,1,80.9999975280763,8|0,0:0|0:0,0:0:0:0:
358,369,239469,2,0,B|338:369|326:347|326:347|314:369|294:369,1,80.9999975280763,2|0,0:0|0:0,0:0:0:0:
358,278,239703,6,0,B|358:218|358:218|361:210|361:210|355:210|355:210|361:202|361:202|355:202|355:202|358:194|358:194|358:132,1,161.999995056153,4|2,3:0|0:0,0:0:0:0:
397,48,240055,1,2,0:3:0:0:
358,132,240172,2,0,P|323:115|302:80,1,80.9999975280763,8|0,0:0|0:0,0:0:0:0:
154,132,240406,2,0,P|189:115|210:80,1,80.9999975280763,2|0,3:2|3:0,0:0:0:0:
292,192,240641,6,0,B|268:192|268:192|256:181|256:181|244:192|244:192|220:192,1,80.9999975280763,4|0,1:0|0:0,0:0:0:0:
256,272,240875,1,2,0:0:0:0:
256,272,240992,1,0,0:0:0:0:
220,352,241109,2,0,B|244:352|244:352|256:363|256:363|268:352|268:352|292:352,1,80.9999975280763,8|0,0:0|0:0,0:0:0:0:
292,192,241344,6,0,B|268:192|268:192|256:181|256:181|244:192|244:192|220:192,1,80.9999975280763,2|0,0:0|0:0,0:0:0:0:
333,266,241578,2,0,B|357:266|357:266|369:277|369:277|381:266|381:266|405:266,1,80.9999975280763,4|0,3:0|0:0,0:0:0:0:
292,352,241812,1,2,0:0:0:0:
292,352,241930,1,2,0:3:0:0:
292,352,242047,2,0,B|268:352|268:352|256:341|256:341|244:352|244:352|220:352,1,80.9999975280763,8|0,0:0|0:0,0:0:0:0:
107,266,242281,2,0,B|131:266|131:266|143:277|143:277|155:266|155:266|179:266,1,80.9999975280763,2|0,0:0|0:0,0:0:0:0:
66,192,242516,6,0,B|29:120|29:120|66:48,1,161.999995056153,4|2,3:0|0:1,0:0:0:0:
143,93,242867,1,0,0:0:0:0:
220,48,242984,2,0,B|256:29|256:29|292:48,1,80.9999975280763,8|0,0:0|0:0,0:0:0:0:
441,93,243219,2,0,B|405:112|405:112|369:93,1,80.9999975280763,2|0,0:1|0:0,0:0:0:0:
446,192,243453,6,0,B|483:264|483:264|446:336,1,161.999995056153,4|2,3:0|0:1,0:0:0:0:
369,291,243804,1,0,0:0:0:0:
292,336,243921,2,0,B|256:355|256:355|220:336,1,80.9999975280763,8|0,0:0|0:0,0:0:0:0:
71,291,244156,2,0,B|107:272|107:272|143:291,1,80.9999975280763,2|0,0:1|0:0,0:0:0:0:
292,246,244391,6,0,B|256:265|256:265|220:246,1,80.9999975280763,4|0,3:0|0:0,0:0:0:0:
71,201,244625,2,0,B|107:182|107:182|143:201,1,80.9999975280763,2|0,0:0|0:0,0:0:0:0:
292,156,244859,2,0,B|256:175|256:175|220:156,1,80.9999975280763,8|0,0:0|0:0,0:0:0:0:
71,111,245093,2,0,B|107:92|107:92|143:111,1,80.9999975280763,2|0,0:0|0:0,0:0:0:0:
292,66,245328,6,0,B|292:24|292:24|256:49|220:24|220:24|220:66,1,161.999995056153,4|2,3:0|0:0,0:0:0:0:
369,111,245680,2,0,B|369:153|369:153|405:128|441:153|441:153|441:111,1,161.999995056153,2|0,3:0|0:0,0:0:0:0:
292,156,246031,2,0,P|256:140|220:156,1,80.9999975280763,2|0,0:0|0:0,0:0:0:0:
148,278,246266,6,0,B|184:278|220:246|220:202|220:202|220:156,1,161.999995056153,4|2,3:0|0:1,0:0:0:0:
143,111,246617,1,2,0:3:0:0:
220,66,246734,2,0,L|162:10,1,80.9999975280763,8|0,0:0|0:0,0:0:0:0:
240,72,246969,2,0,L|182:16,1,80.9999975280763,2|0,0:1|0:0,0:0:0:0:
364,106,247203,6,0,B|328:106|292:138|292:182|292:182|292:228,1,161.999995056153,4|2,3:0|0:1,0:0:0:0:
369,273,247555,1,2,0:3:0:0:
292,318,247672,2,0,L|350:374,1,80.9999975280763,8|0,0:0|0:0,0:0:0:0:
272,312,247906,2,0,L|330:368,1,80.9999975280763,2|0,3:1|3:0,0:0:0:0:
148,278,248141,6,0,P|108:282|68:278,1,80.9999975280763,4|0,1:0|0:0,0:0:0:0:
40,192,248375,1,2,0:0:0:0:
40,192,248492,1,0,0:0:0:0:
68,106,248609,2,0,P|108:102|148:106,1,80.9999975280763,8|0,0:0|0:0,0:0:0:0:
256,192,248844,2,0,P|216:196|176:192,1,80.9999975280763,2|0,0:0|0:0,0:0:0:0:
284,106,249078,6,0,P|324:102|364:106,1,80.9999975280763,4|0,3:0|0:0,0:0:0:0:
472,192,249312,1,2,0:0:0:0:
472,192,249430,1,2,0:3:0:0:
472,192,249547,2,0,P|432:196|392:192,1,80.9999975280763,8|0,0:0|0:0,0:0:0:0:
284,278,249781,2,0,P|324:274|364:278,1,80.9999975280763,2|0,0:0|0:0,0:0:0:0:
256,364,250016,6,0,B|211:319|211:319|194:319|194:319|194:302|194:302|149:257,1,161.999995056153,4|2,3:0|0:1,0:0:0:0:
88,192,250367,1,0,0:0:0:0:
149,127,250484,2,0,B|149:103|164:91|164:91|149:79|149:55,1,80.9999975280763,8|0,0:0|0:0,0:0:0:0:
8,156,250719,2,0,B|8:180|-7:192|-7:192|8:204|8:228,1,80.9999975280763,2|0,0:1|0:0,0:0:0:0:
149,127,250953,6,0,B|213:127|213:127|225:139|225:139|237:127|237:127|301:127,1,161.999995056153,4|2,3:0|0:1,0:0:0:0:
364,192,251305,1,0,0:0:0:0:
427,127,251422,2,0,B|451:49,1,80.9999975280763,8|0,0:0|0:0,0:0:0:0:
301,127,251656,2,0,B|276:49,1,80.9999975280763,2|0,3:1|3:0,0:0:0:0:
364,192,251891,6,0,P|380:228|364:264,1,80.9999975280763,4|0,3:0|0:0,0:0:0:0:
148,192,252125,2,0,P|132:228|148:264,1,80.9999975280763,2|0,0:0|0:0,0:0:0:0:
352,192,252359,2,0,P|368:228|352:264,1,80.9999975280763,8|0,0:0|0:0,0:0:0:0:
160,192,252594,2,0,P|144:228|160:264,1,80.9999975280763,2|0,0:0|0:0,0:0:0:0:
340,192,252828,6,0,B|351:281|308:348,1,161.999995056153,4|2,3:0|0:0,0:0:0:0:
172,192,253180,2,0,B|161:281|205:348,1,161.999995056153,2|0,3:0|0:0,0:0:0:0:
256,273,253531,2,0,B|256:192,1,80.9999975280763,2|0,0:0|0:0,0:0:0:0:
214,52,253766,6,0,B|252:32|256:-3|256:-3|260:32|298:52,1,144,4|2,3:0|0:0,0:0:0:0:
256,122,254117,1,0,0:0:0:0:
214,52,254234,2,0,L|142:52,1,72,8|0,0:0|0:0,0:0:0:0:
298,52,254469,2,0,L|370:52,1,72,2|0,0:0|0:0,0:0:0:0:
298,192,254703,6,0,P|256:231|214:192,1,125.999996154785,4|2,3:0|0:0,0:0:0:0:
256,122,255055,1,0,0:0:0:0:
298,192,255172,2,0,L|361:192,1,62.9999980773926,8|0,0:0|0:0,0:0:0:0:
214,192,255406,2,0,L|151:192,1,62.9999980773926,10|0,0:0|0:0,0:0:0:0:
214,332,255641,6,0,P|256:346|298:332,1,90,4|0,3:0|0:0,0:0:0:0:
256,272,255992,1,8,0:0:0:0:
256,272,256109,2,0,P|214:258|172:272,1,90,0|8,3:0|0:0,0:0:0:0:
214,52,256578,6,0,P|256:38|298:52,1,90,4|0,3:0|0:0,0:0:0:0:
256,112,256929,1,8,0:0:0:0:
256,112,257046,2,0,P|214:126|172:112,1,90,0|8,3:0|0:0,0:0:0:0:
256,192,257516,6,0,L|346:192,1,90,4|0,3:0|0:0,0:0:0:0:
407,147,257867,1,8,0:0:0:0:
407,147,257984,2,0,L|407:237,1,90,4|8,3:0|0:0,0:0:0:0:
256,192,258453,1,4,3:0:0:0:
105,237,258687,5,0,0:0:0:0:
105,237,258805,1,8,0:0:0:0:
105,237,258922,2,0,L|105:147,1,90,4|8,3:0|0:0,0:0:0:0:
298,332,259391,6,0,P|256:346|214:332,1,90,4|0,3:0|0:0,0:0:0:0:
256,272,259742,1,8,0:0:0:0:
256,272,259859,2,0,P|298:258|340:272,1,90,0|8,3:0|0:0,0:0:0:0:
298,52,260328,6,0,P|256:38|214:52,1,90,4|0,3:0|0:0,0:0:0:0:
256,112,260679,1,8,0:0:0:0:
256,112,260796,2,0,P|298:126|340:112,1,90,0|8,3:0|0:0,0:0:0:0:
256,192,261266,6,0,L|166:192,1,90,4|0,3:0|0:0,0:0:0:0:
105,147,261617,2,0,L|105:237,1,90,4|0,3:0|0:0,0:0:0:0:
150,298,261969,1,4,3:0:0:0:
256,192,262203,6,0,L|346:192,1,90,4|0,3:0|0:0,0:0:0:0:
407,147,262554,2,0,L|407:237,1,90,4|0,3:0|0:0,0:0:0:0:
362,298,262906,1,4,3:0:0:0:
256,192,263141,12,0,266891,0:0:0:0:
