osu file format v14

[General]
AudioFilename: audio.mp3
AudioLeadIn: 0
PreviewTime: 88457
Countdown: 0
SampleSet: Normal
StackLeniency: 0.7
Mode: 3
LetterboxInBreaks: 0
SpecialStyle: 0
WidescreenStoryboard: 0

[Editor]
Bookmarks: 10969,19696,28423,37150,54605,81605
DistanceSpacing: 0.8
BeatDivisor: 4
GridSize: 16
TimelineZoom: 1.8

[Metadata]
Title:EmbryO
TitleUnicode:ΣmbryØ
Artist:Kabocha
ArtistUnicode:かぼちゃ
Creator:walao
Version:MXM
Source:
Tags:
BeatmapID:1916264
BeatmapSetID:917626

[Difficulty]
HPDrainRate:8
CircleSize:4
OverallDifficulty:9
ApproachRate:5
SliderMultiplier:1.4
SliderTickRate:1

[Events]
//Background and Video events
//Break Periods
//Storyboard Layer 0 (Background)
//Storyboard Layer 1 (Fail)
//Storyboard Layer 2 (Pass)
//Storyboard Layer 3 (Foreground)
//Storyboard Sound Samples

[TimingPoints]
60,272.727272727273,4,1,0,100,1,0

[HitObjects]
448,192,60,5,0,0:0:0:0:
64,192,60,1,0,0:0:0:0:
192,192,60,1,0,0:0:0:0:
320,192,60,1,0,0:0:0:0:
64,192,469,1,0,0:0:0:0:
192,192,469,1,0,0:0:0:0:
320,192,741,1,0,0:0:0:0:
192,192,878,1,0,0:0:0:0:
448,192,1150,128,0,1696:0:0:0:0:
64,192,1696,1,0,0:0:0:0:
64,192,2241,5,0,0:0:0:0:
192,192,2241,1,0,0:0:0:0:
320,192,2241,1,0,0:0:0:0:
64,192,2378,1,0,0:0:0:0:
192,192,2378,1,0,0:0:0:0:
448,192,2378,1,0,0:0:0:0:
64,192,2514,1,0,0:0:0:0:
320,192,2514,1,0,0:0:0:0:
448,192,2514,1,0,0:0:0:0:
320,192,2650,1,0,0:0:0:0:
192,192,2650,1,0,0:0:0:0:
64,192,2650,1,0,0:0:0:0:
448,192,2787,1,0,0:0:0:0:
192,192,2787,1,0,0:0:0:0:
64,192,2787,1,0,0:0:0:0:
448,192,2923,1,0,0:0:0:0:
320,192,2923,1,0,0:0:0:0:
64,192,2923,1,0,0:0:0:0:
64,192,3060,1,0,0:0:0:0:
192,192,3060,1,0,0:0:0:0:
320,192,3060,1,0,0:0:0:0:
64,192,3196,1,0,0:0:0:0:
192,192,3196,1,0,0:0:0:0:
448,192,3196,1,0,0:0:0:0:
64,192,3332,1,0,0:0:0:0:
320,192,3332,1,0,0:0:0:0:
448,192,3332,1,0,0:0:0:0:
320,192,3469,1,0,0:0:0:0:
192,192,3469,1,0,0:0:0:0:
64,192,3469,1,0,0:0:0:0:
448,192,3605,1,0,0:0:0:0:
192,192,3605,1,0,0:0:0:0:
64,192,3605,1,0,0:0:0:0:
448,192,3741,1,0,0:0:0:0:
320,192,3741,1,0,0:0:0:0:
64,192,3741,1,0,0:0:0:0:
64,192,3878,1,0,0:0:0:0:
192,192,3878,1,0,0:0:0:0:
320,192,3878,1,0,0:0:0:0:
448,192,3946,1,0,0:0:0:0:
320,192,4014,1,0,0:0:0:0:
192,192,4014,1,0,0:0:0:0:
64,192,4014,1,0,0:0:0:0:
448,192,4082,1,0,0:0:0:0:
320,192,4150,1,0,0:0:0:0:
192,192,4150,1,0,0:0:0:0:
64,192,4219,1,0,0:0:0:0:
192,192,4287,1,0,0:0:0:0:
320,192,4287,1,0,0:0:0:0:
448,192,4287,1,0,0:0:0:0:
64,192,4355,1,0,0:0:0:0:
448,192,4423,1,0,0:0:0:0:
320,192,4423,1,0,0:0:0:0:
192,192,4423,1,0,0:0:0:0:
320,192,4560,1,0,0:0:0:0:
448,192,4560,1,0,0:0:0:0:
64,192,4560,1,0,0:0:0:0:
192,192,4696,1,0,0:0:0:0:
64,192,4696,1,0,0:0:0:0:
448,192,4696,1,0,0:0:0:0:
448,192,4832,1,0,0:0:0:0:
192,192,4832,1,0,0:0:0:0:
320,192,4832,1,0,0:0:0:0:
448,192,4969,1,0,0:0:0:0:
320,192,4969,1,0,0:0:0:0:
64,192,4969,1,0,0:0:0:0:
448,192,5105,1,0,0:0:0:0:
64,192,5105,1,0,0:0:0:0:
192,192,5105,1,0,0:0:0:0:
320,192,5241,1,0,0:0:0:0:
192,192,5241,1,0,0:0:0:0:
448,192,5241,1,0,0:0:0:0:
64,192,5378,1,0,0:0:0:0:
320,192,5378,1,0,0:0:0:0:
448,192,5378,1,0,0:0:0:0:
192,192,5514,1,0,0:0:0:0:
64,192,5514,1,0,0:0:0:0:
448,192,5514,1,0,0:0:0:0:
448,192,5650,1,0,0:0:0:0:
192,192,5650,1,0,0:0:0:0:
320,192,5650,1,0,0:0:0:0:
448,192,5787,1,0,0:0:0:0:
320,192,5787,1,0,0:0:0:0:
64,192,5787,1,0,0:0:0:0:
448,192,5923,1,0,0:0:0:0:
64,192,5923,1,0,0:0:0:0:
192,192,5923,1,0,0:0:0:0:
320,192,6060,1,0,0:0:0:0:
448,192,6060,1,0,0:0:0:0:
64,192,6060,1,0,0:0:0:0:
192,192,6128,1,0,0:0:0:0:
64,192,6196,1,0,0:0:0:0:
320,192,6196,1,0,0:0:0:0:
192,192,6264,1,0,0:0:0:0:
448,192,6332,1,0,0:0:0:0:
64,192,6332,1,0,0:0:0:0:
320,192,6332,1,0,0:0:0:0:
192,192,6400,1,0,0:0:0:0:
64,192,6469,1,0,0:0:0:0:
448,192,6469,1,0,0:0:0:0:
320,192,6537,1,0,0:0:0:0:
192,192,6605,1,0,0:0:0:0:
320,192,6673,1,0,0:0:0:0:
192,192,6741,1,0,0:0:0:0:
320,192,6810,1,0,0:0:0:0:
192,192,6878,1,0,0:0:0:0:
320,192,6946,1,0,0:0:0:0:
192,192,7014,1,0,0:0:0:0:
320,192,7082,1,0,0:0:0:0:
192,192,7150,1,0,0:0:0:0:
320,192,7219,1,0,0:0:0:0:
192,192,7287,1,0,0:0:0:0:
320,192,7355,1,0,0:0:0:0:
192,192,7423,1,0,0:0:0:0:
320,192,7491,1,0,0:0:0:0:
192,192,7560,1,0,0:0:0:0:
320,192,7628,1,0,0:0:0:0:
448,192,7696,1,0,0:0:0:0:
320,192,7764,1,0,0:0:0:0:
64,192,7832,1,0,0:0:0:0:
192,192,7900,1,0,0:0:0:0:
64,192,7969,1,0,0:0:0:0:
448,192,8037,1,0,0:0:0:0:
320,192,8105,1,0,0:0:0:0:
192,192,8173,1,0,0:0:0:0:
64,192,8241,1,0,0:0:0:0:
192,192,8310,1,0,0:0:0:0:
320,192,8378,1,0,0:0:0:0:
448,192,8446,1,0,0:0:0:0:
192,192,8514,1,0,0:0:0:0:
64,192,8582,1,0,0:0:0:0:
320,192,8650,1,0,0:0:0:0:
192,192,8719,1,0,0:0:0:0:
448,192,8787,1,0,0:0:0:0:
320,192,8855,1,0,0:0:0:0:
192,192,8923,1,0,0:0:0:0:
64,192,8991,1,0,0:0:0:0:
448,192,9060,1,0,0:0:0:0:
320,192,9128,1,0,0:0:0:0:
192,192,9196,1,0,0:0:0:0:
320,192,9264,1,0,0:0:0:0:
64,192,9332,1,0,0:0:0:0:
192,192,9400,1,0,0:0:0:0:
320,192,9469,1,0,0:0:0:0:
448,192,9469,1,0,0:0:0:0:
192,192,9537,1,0,0:0:0:0:
64,192,9605,1,0,0:0:0:0:
448,192,9605,1,0,0:0:0:0:
320,192,9673,1,0,0:0:0:0:
192,192,9741,1,0,0:0:0:0:
64,192,9741,1,0,0:0:0:0:
320,192,9810,1,0,0:0:0:0:
448,192,9878,1,0,0:0:0:0:
192,192,9878,1,0,0:0:0:0:
64,192,9946,1,0,0:0:0:0:
192,192,10014,1,0,0:0:0:0:
320,192,10014,1,0,0:0:0:0:
448,192,10082,1,0,0:0:0:0:
64,192,10150,1,0,0:0:0:0:
192,192,10185,1,0,0:0:0:0:
320,192,10219,1,0,0:0:0:0:
448,192,10253,1,0,0:0:0:0:
64,192,10287,1,0,0:0:0:0:
192,192,10321,1,0,0:0:0:0:
320,192,10355,1,0,0:0:0:0:
448,192,10389,1,0,0:0:0:0:
64,192,10423,1,0,0:0:0:0:
192,192,10423,1,0,0:0:0:0:
320,192,10491,1,0,0:0:0:0:
192,192,10560,1,0,0:0:0:0:
320,192,10628,1,0,0:0:0:0:
192,192,10696,1,0,0:0:0:0:
320,192,10764,1,0,0:0:0:0:
192,192,10832,1,0,0:0:0:0:
320,192,10900,1,0,0:0:0:0:
64,192,10969,1,0,0:0:0:0:
192,192,10969,1,0,0:0:0:0:
448,192,10969,1,0,0:0:0:0:
320,192,11037,1,0,0:0:0:0:
192,192,11105,1,0,0:0:0:0:
448,192,11105,1,0,0:0:0:0:
64,192,11173,1,0,0:0:0:0:
320,192,11241,1,0,0:0:0:0:
448,192,11241,1,0,0:0:0:0:
192,192,11310,1,0,0:0:0:0:
64,192,11378,1,0,0:0:0:0:
448,192,11378,1,0,0:0:0:0:
320,192,11446,1,0,0:0:0:0:
192,192,11446,1,0,0:0:0:0:
64,192,11514,1,0,0:0:0:0:
448,192,11514,1,0,0:0:0:0:
192,192,11582,1,0,0:0:0:0:
320,192,11582,1,0,0:0:0:0:
64,192,11650,1,0,0:0:0:0:
448,192,11650,1,0,0:0:0:0:
192,192,11719,1,0,0:0:0:0:
320,192,11787,1,0,0:0:0:0:
448,192,11787,1,0,0:0:0:0:
64,192,11855,1,0,0:0:0:0:
192,192,11923,1,0,0:0:0:0:
320,192,11923,1,0,0:0:0:0:
448,192,11991,1,0,0:0:0:0:
64,192,12060,1,0,0:0:0:0:
192,192,12060,1,0,0:0:0:0:
320,192,12128,1,0,0:0:0:0:
448,192,12196,1,0,0:0:0:0:
192,192,12196,1,0,0:0:0:0:
64,192,12264,1,0,0:0:0:0:
320,192,12332,1,0,0:0:0:0:
192,192,12332,1,0,0:0:0:0:
448,192,12400,1,0,0:0:0:0:
64,192,12469,1,0,0:0:0:0:
320,192,12469,1,0,0:0:0:0:
192,192,12537,1,0,0:0:0:0:
448,192,12537,1,0,0:0:0:0:
64,192,12605,1,0,0:0:0:0:
320,192,12605,1,0,0:0:0:0:
448,192,12673,1,0,0:0:0:0:
192,192,12673,1,0,0:0:0:0:
64,192,12741,1,0,0:0:0:0:
320,192,12741,1,0,0:0:0:0:
192,192,12810,1,0,0:0:0:0:
64,192,12878,1,0,0:0:0:0:
192,192,12912,1,0,0:0:0:0:
320,192,12946,1,0,0:0:0:0:
448,192,12980,1,0,0:0:0:0:
64,192,13014,1,0,0:0:0:0:
192,192,13048,1,0,0:0:0:0:
320,192,13082,1,0,0:0:0:0:
448,192,13116,1,0,0:0:0:0:
64,192,13150,1,0,0:0:0:0:
192,192,13150,1,0,0:0:0:0:
448,192,13219,1,0,0:0:0:0:
320,192,13287,1,0,0:0:0:0:
192,192,13287,1,0,0:0:0:0:
64,192,13355,1,0,0:0:0:0:
448,192,13423,1,0,0:0:0:0:
320,192,13423,1,0,0:0:0:0:
192,192,13491,1,0,0:0:0:0:
320,192,13560,1,0,0:0:0:0:
448,192,13560,1,0,0:0:0:0:
64,192,13628,1,0,0:0:0:0:
192,192,13628,1,0,0:0:0:0:
320,192,13696,1,0,0:0:0:0:
448,192,13696,1,0,0:0:0:0:
64,192,13764,1,0,0:0:0:0:
192,192,13764,1,0,0:0:0:0:
320,192,13832,1,0,0:0:0:0:
448,192,13832,1,0,0:0:0:0:
64,192,13900,1,0,0:0:0:0:
192,192,13969,1,0,0:0:0:0:
320,192,13969,1,0,0:0:0:0:
448,192,14037,1,0,0:0:0:0:
64,192,14105,1,0,0:0:0:0:
320,192,14105,1,0,0:0:0:0:
192,192,14173,1,0,0:0:0:0:
320,192,14241,1,0,0:0:0:0:
448,192,14241,1,0,0:0:0:0:
64,192,14310,1,0,0:0:0:0:
192,192,14378,1,0,0:0:0:0:
320,192,14378,1,0,0:0:0:0:
64,192,14446,1,0,0:0:0:0:
448,192,14514,1,0,0:0:0:0:
320,192,14514,1,0,0:0:0:0:
320,192,14605,1,0,0:0:0:0:
192,192,14605,1,0,0:0:0:0:
192,192,14696,1,0,0:0:0:0:
64,192,14696,1,0,0:0:0:0:
320,192,14787,1,0,0:0:0:0:
448,192,14787,1,0,0:0:0:0:
192,192,14855,1,0,0:0:0:0:
64,192,14923,1,0,0:0:0:0:
320,192,14923,1,0,0:0:0:0:
448,192,14923,1,0,0:0:0:0:
192,192,14991,1,0,0:0:0:0:
64,192,15060,1,0,0:0:0:0:
448,192,15060,1,0,0:0:0:0:
320,192,15060,1,0,0:0:0:0:
192,192,15128,1,0,0:0:0:0:
320,192,15196,1,0,0:0:0:0:
448,192,15196,1,0,0:0:0:0:
64,192,15264,1,0,0:0:0:0:
192,192,15332,1,0,0:0:0:0:
320,192,15332,1,0,0:0:0:0:
448,192,15332,1,0,0:0:0:0:
64,192,15400,1,0,0:0:0:0:
192,192,15469,1,0,0:0:0:0:
320,192,15469,1,0,0:0:0:0:
448,192,15537,1,0,0:0:0:0:
64,192,15605,1,0,0:0:0:0:
192,192,15639,1,0,0:0:0:0:
320,192,15673,1,0,0:0:0:0:
448,192,15707,1,0,0:0:0:0:
64,192,15741,1,0,0:0:0:0:
192,192,15741,1,0,0:0:0:0:
448,192,15810,1,0,0:0:0:0:
320,192,15878,1,0,0:0:0:0:
192,192,15878,1,0,0:0:0:0:
64,192,15946,1,0,0:0:0:0:
192,192,16014,1,0,0:0:0:0:
448,192,16014,1,0,0:0:0:0:
64,192,16082,1,0,0:0:0:0:
320,192,16150,1,0,0:0:0:0:
448,192,16150,1,0,0:0:0:0:
64,192,16219,1,0,0:0:0:0:
192,192,16219,1,0,0:0:0:0:
320,192,16287,1,0,0:0:0:0:
448,192,16287,1,0,0:0:0:0:
64,192,16355,1,0,0:0:0:0:
192,192,16355,1,0,0:0:0:0:
320,192,16423,1,0,0:0:0:0:
448,192,16423,1,0,0:0:0:0:
192,192,16491,1,0,0:0:0:0:
64,192,16560,1,0,0:0:0:0:
320,192,16560,1,0,0:0:0:0:
192,192,16628,1,0,0:0:0:0:
448,192,16696,1,0,0:0:0:0:
320,192,16696,1,0,0:0:0:0:
64,192,16764,1,0,0:0:0:0:
192,192,16832,1,0,0:0:0:0:
320,192,16832,1,0,0:0:0:0:
448,192,16900,1,0,0:0:0:0:
64,192,16969,1,0,0:0:0:0:
320,192,16969,1,0,0:0:0:0:
448,192,17037,1,0,0:0:0:0:
320,192,17105,1,0,0:0:0:0:
192,192,17105,1,0,0:0:0:0:
64,192,17173,1,0,0:0:0:0:
192,192,17241,1,0,0:0:0:0:
320,192,17241,1,0,0:0:0:0:
448,192,17241,1,0,0:0:0:0:
64,192,17310,1,0,0:0:0:0:
192,192,17378,1,0,0:0:0:0:
320,192,17378,1,0,0:0:0:0:
448,192,17446,1,0,0:0:0:0:
192,192,17514,1,0,0:0:0:0:
320,192,17514,1,0,0:0:0:0:
64,192,17514,1,0,0:0:0:0:
448,192,17582,1,0,0:0:0:0:
192,192,17650,1,0,0:0:0:0:
320,192,17650,1,0,0:0:0:0:
64,192,17719,1,0,0:0:0:0:
448,192,17787,1,0,0:0:0:0:
320,192,17787,1,0,0:0:0:0:
192,192,17855,1,0,0:0:0:0:
64,192,17923,1,0,0:0:0:0:
320,192,17923,1,0,0:0:0:0:
448,192,17923,1,0,0:0:0:0:
192,192,17991,1,0,0:0:0:0:
320,192,18060,1,0,0:0:0:0:
448,192,18060,1,0,0:0:0:0:
192,192,18128,1,0,0:0:0:0:
64,192,18196,1,0,0:0:0:0:
320,192,18196,1,0,0:0:0:0:
192,192,18264,1,0,0:0:0:0:
64,192,18332,1,0,0:0:0:0:
320,192,18332,1,0,0:0:0:0:
448,192,18400,1,0,0:0:0:0:
192,192,18400,1,0,0:0:0:0:
64,192,18469,1,0,0:0:0:0:
320,192,18469,1,0,0:0:0:0:
192,192,18537,1,0,0:0:0:0:
448,192,18537,1,0,0:0:0:0:
64,192,18605,1,0,0:0:0:0:
320,192,18605,1,0,0:0:0:0:
192,192,18673,1,0,0:0:0:0:
320,192,18741,1,0,0:0:0:0:
448,192,18741,1,0,0:0:0:0:
64,192,18810,1,0,0:0:0:0:
192,192,18878,1,0,0:0:0:0:
320,192,18878,1,0,0:0:0:0:
64,192,18946,1,0,0:0:0:0:
448,192,19014,1,0,0:0:0:0:
192,192,19014,1,0,0:0:0:0:
64,192,19082,1,0,0:0:0:0:
192,192,19150,1,0,0:0:0:0:
320,192,19150,1,0,0:0:0:0:
448,192,19219,1,0,0:0:0:0:
64,192,19287,1,0,0:0:0:0:
192,192,19287,1,0,0:0:0:0:
320,192,19355,1,0,0:0:0:0:
448,192,19355,1,0,0:0:0:0:
192,192,19423,1,0,0:0:0:0:
64,192,19423,1,0,0:0:0:0:
320,192,19491,1,0,0:0:0:0:
448,192,19491,1,0,0:0:0:0:
64,192,19560,1,0,0:0:0:0:
192,192,19560,1,0,0:0:0:0:
320,192,19628,1,0,0:0:0:0:
448,192,19628,1,0,0:0:0:0:
64,192,19696,1,0,0:0:0:0:
192,192,19696,1,0,0:0:0:0:
64,192,19832,1,0,0:0:0:0:
448,192,19832,1,0,0:0:0:0:
64,192,19969,1,0,0:0:0:0:
192,192,19969,1,0,0:0:0:0:
320,192,20037,1,0,0:0:0:0:
448,192,20037,1,0,0:0:0:0:
192,192,20105,1,0,0:0:0:0:
64,192,20105,1,0,0:0:0:0:
320,192,20173,1,0,0:0:0:0:
448,192,20173,1,0,0:0:0:0:
64,192,20241,1,0,0:0:0:0:
192,192,20241,1,0,0:0:0:0:
64,192,20378,1,0,0:0:0:0:
192,192,20378,1,0,0:0:0:0:
320,192,20378,1,0,0:0:0:0:
64,192,20514,1,0,0:0:0:0:
448,192,20514,1,0,0:0:0:0:
320,192,20514,1,0,0:0:0:0:
192,192,20650,1,0,0:0:0:0:
192,192,20719,1,0,0:0:0:0:
448,192,20787,1,0,0:0:0:0:
320,192,20787,1,0,0:0:0:0:
64,192,20787,1,0,0:0:0:0:
192,192,20923,1,0,0:0:0:0:
320,192,20923,1,0,0:0:0:0:
64,192,21060,1,0,0:0:0:0:
192,192,21060,1,0,0:0:0:0:
64,192,21196,1,0,0:0:0:0:
320,192,21196,1,0,0:0:0:0:
64,192,21332,1,0,0:0:0:0:
448,192,21332,1,0,0:0:0:0:
192,192,21469,1,0,0:0:0:0:
320,192,21469,1,0,0:0:0:0:
64,192,21605,1,0,0:0:0:0:
320,192,21605,1,0,0:0:0:0:
192,192,21741,1,0,0:0:0:0:
448,192,21741,1,0,0:0:0:0:
64,192,21878,1,0,0:0:0:0:
192,192,21878,1,0,0:0:0:0:
192,192,22014,1,0,0:0:0:0:
448,192,22014,1,0,0:0:0:0:
64,192,22150,1,0,0:0:0:0:
320,192,22150,1,0,0:0:0:0:
192,192,22219,1,0,0:0:0:0:
448,192,22219,1,0,0:0:0:0:
64,192,22287,1,0,0:0:0:0:
320,192,22287,1,0,0:0:0:0:
192,192,22355,1,0,0:0:0:0:
448,192,22355,1,0,0:0:0:0:
64,192,22423,1,0,0:0:0:0:
320,192,22423,1,0,0:0:0:0:
192,192,22560,1,0,0:0:0:0:
64,192,22560,1,0,0:0:0:0:
64,192,22696,1,0,0:0:0:0:
448,192,22696,1,0,0:0:0:0:
192,192,22764,1,0,0:0:0:0:
320,192,22764,1,0,0:0:0:0:
448,192,22832,1,0,0:0:0:0:
64,192,22832,1,0,0:0:0:0:
192,192,22900,1,0,0:0:0:0:
320,192,22900,1,0,0:0:0:0:
64,192,22969,1,0,0:0:0:0:
448,192,22969,1,0,0:0:0:0:
64,192,23105,1,0,0:0:0:0:
192,192,23105,1,0,0:0:0:0:
320,192,23241,1,0,0:0:0:0:
448,192,23241,1,0,0:0:0:0:
192,192,23310,1,0,0:0:0:0:
64,192,23378,1,0,0:0:0:0:
192,192,23514,1,0,0:0:0:0:
320,192,23514,1,0,0:0:0:0:
64,192,23650,1,0,0:0:0:0:
192,192,23650,1,0,0:0:0:0:
448,192,23787,1,0,0:0:0:0:
192,192,23787,128,0,23991:0:0:0:0:
64,192,23787,128,0,23991:0:0:0:0:
320,192,23787,1,0,0:0:0:0:
64,192,24060,1,0,0:0:0:0:
192,192,24060,1,0,0:0:0:0:
448,192,24060,1,0,0:0:0:0:
192,192,24196,1,0,0:0:0:0:
320,192,24196,1,0,0:0:0:0:
64,192,24332,1,0,0:0:0:0:
192,192,24332,1,0,0:0:0:0:
320,192,24400,1,0,0:0:0:0:
448,192,24400,1,0,0:0:0:0:
64,192,24469,1,0,0:0:0:0:
192,192,24469,1,0,0:0:0:0:
320,192,24537,1,0,0:0:0:0:
448,192,24537,1,0,0:0:0:0:
64,192,24605,1,0,0:0:0:0:
192,192,24605,1,0,0:0:0:0:
320,192,24741,1,0,0:0:0:0:
192,192,24741,1,0,0:0:0:0:
64,192,24878,1,0,0:0:0:0:
192,192,24878,1,0,0:0:0:0:
64,192,25014,1,0,0:0:0:0:
64,192,25082,1,0,0:0:0:0:
192,192,25150,1,0,0:0:0:0:
448,192,25150,1,0,0:0:0:0:
320,192,25150,1,0,0:0:0:0:
64,192,25287,1,0,0:0:0:0:
192,192,25287,1,0,0:0:0:0:
192,192,25423,1,0,0:0:0:0:
320,192,25423,1,0,0:0:0:0:
320,192,25560,1,0,0:0:0:0:
448,192,25560,1,0,0:0:0:0:
320,192,25696,1,0,0:0:0:0:
192,192,25696,1,0,0:0:0:0:
192,192,25832,1,0,0:0:0:0:
448,192,25832,1,0,0:0:0:0:
64,192,25969,1,0,0:0:0:0:
320,192,25969,1,0,0:0:0:0:
192,192,26105,1,0,0:0:0:0:
320,192,26105,1,0,0:0:0:0:
64,192,26241,1,0,0:0:0:0:
192,192,26241,1,0,0:0:0:0:
320,192,26241,1,0,0:0:0:0:
64,192,26378,1,0,0:0:0:0:
448,192,26378,1,0,0:0:0:0:
192,192,26514,1,0,0:0:0:0:
320,192,26514,1,0,0:0:0:0:
64,192,26582,1,0,0:0:0:0:
448,192,26582,1,0,0:0:0:0:
192,192,26650,1,0,0:0:0:0:
320,192,26650,1,0,0:0:0:0:
64,192,26719,1,0,0:0:0:0:
448,192,26719,1,0,0:0:0:0:
192,192,26787,1,0,0:0:0:0:
320,192,26787,1,0,0:0:0:0:
64,192,26923,1,0,0:0:0:0:
192,192,26923,1,0,0:0:0:0:
448,192,27060,1,0,0:0:0:0:
320,192,27060,1,0,0:0:0:0:
192,192,27196,1,0,0:0:0:0:
320,192,27196,1,0,0:0:0:0:
64,192,27332,1,0,0:0:0:0:
192,192,27332,1,0,0:0:0:0:
320,192,27332,1,0,0:0:0:0:
64,192,27469,1,0,0:0:0:0:
448,192,27469,1,0,0:0:0:0:
320,192,27469,1,0,0:0:0:0:
64,192,27605,1,0,0:0:0:0:
192,192,27605,1,0,0:0:0:0:
448,192,27605,1,0,0:0:0:0:
64,192,27741,1,0,0:0:0:0:
192,192,27741,1,0,0:0:0:0:
448,192,27741,1,0,0:0:0:0:
64,192,27878,1,0,0:0:0:0:
320,192,27878,1,0,0:0:0:0:
448,192,27878,1,0,0:0:0:0:
64,192,28014,1,0,0:0:0:0:
192,192,28014,1,0,0:0:0:0:
320,192,28014,1,0,0:0:0:0:
64,192,28150,1,0,0:0:0:0:
64,192,28287,1,0,0:0:0:0:
64,192,28355,1,0,0:0:0:0:
192,192,28423,1,0,0:0:0:0:
320,192,28423,1,0,0:0:0:0:
64,192,28491,1,0,0:0:0:0:
192,192,28560,1,0,0:0:0:0:
320,192,28628,1,0,0:0:0:0:
64,192,28696,1,0,0:0:0:0:
192,192,28696,1,0,0:0:0:0:
448,192,28696,1,0,0:0:0:0:
320,192,28764,1,0,0:0:0:0:
192,192,28832,1,0,0:0:0:0:
64,192,28900,1,0,0:0:0:0:
448,192,28969,1,0,0:0:0:0:
320,192,28969,1,0,0:0:0:0:
192,192,29037,1,0,0:0:0:0:
320,192,29105,1,0,0:0:0:0:
64,192,29173,1,0,0:0:0:0:
448,192,29241,1,0,0:0:0:0:
192,192,29241,1,0,0:0:0:0:
320,192,29241,1,0,0:0:0:0:
64,192,29310,1,0,0:0:0:0:
320,192,29378,1,0,0:0:0:0:
192,192,29446,1,0,0:0:0:0:
64,192,29514,1,0,0:0:0:0:
320,192,29514,1,0,0:0:0:0:
448,192,29514,1,0,0:0:0:0:
64,192,29650,1,0,0:0:0:0:
192,192,29650,1,0,0:0:0:0:
448,192,29650,1,0,0:0:0:0:
64,192,29787,1,0,0:0:0:0:
192,192,29787,1,0,0:0:0:0:
320,192,29787,1,0,0:0:0:0:
64,192,29923,1,0,0:0:0:0:
192,192,29923,1,0,0:0:0:0:
448,192,29923,1,0,0:0:0:0:
192,192,30060,1,0,0:0:0:0:
320,192,30060,1,0,0:0:0:0:
448,192,30060,1,0,0:0:0:0:
64,192,30196,1,0,0:0:0:0:
192,192,30230,1,0,0:0:0:0:
320,192,30264,1,0,0:0:0:0:
448,192,30264,1,0,0:0:0:0:
192,192,30332,1,0,0:0:0:0:
64,192,30332,1,0,0:0:0:0:
320,192,30400,1,0,0:0:0:0:
448,192,30400,1,0,0:0:0:0:
192,192,30469,1,0,0:0:0:0:
64,192,30469,1,0,0:0:0:0:
320,192,30537,1,0,0:0:0:0:
448,192,30537,1,0,0:0:0:0:
64,192,30605,1,0,0:0:0:0:
192,192,30605,1,0,0:0:0:0:
320,192,30673,1,0,0:0:0:0:
448,192,30741,1,0,0:0:0:0:
192,192,30810,1,0,0:0:0:0:
64,192,30878,1,0,0:0:0:0:
320,192,30878,1,0,0:0:0:0:
448,192,30878,1,0,0:0:0:0:
192,192,30946,1,0,0:0:0:0:
64,192,31014,1,0,0:0:0:0:
320,192,31082,1,0,0:0:0:0:
192,192,31150,1,0,0:0:0:0:
448,192,31150,1,0,0:0:0:0:
64,192,31219,1,0,0:0:0:0:
192,192,31287,1,0,0:0:0:0:
320,192,31355,1,0,0:0:0:0:
64,192,31423,1,0,0:0:0:0:
448,192,31423,1,0,0:0:0:0:
192,192,31423,1,0,0:0:0:0:
320,192,31491,1,0,0:0:0:0:
192,192,31560,1,0,0:0:0:0:
64,192,31628,1,0,0:0:0:0:
192,192,31696,1,0,0:0:0:0:
320,192,31696,1,0,0:0:0:0:
448,192,31764,1,0,0:0:0:0:
192,192,31832,1,0,0:0:0:0:
64,192,31832,1,0,0:0:0:0:
320,192,31900,1,0,0:0:0:0:
448,192,31969,1,0,0:0:0:0:
192,192,31969,1,0,0:0:0:0:
64,192,32037,1,0,0:0:0:0:
320,192,32105,1,0,0:0:0:0:
448,192,32105,1,0,0:0:0:0:
192,192,32173,1,0,0:0:0:0:
64,192,32241,1,0,0:0:0:0:
320,192,32241,1,0,0:0:0:0:
448,192,32241,1,0,0:0:0:0:
192,192,32310,1,0,0:0:0:0:
64,192,32378,1,0,0:0:0:0:
320,192,32378,1,0,0:0:0:0:
448,192,32378,1,0,0:0:0:0:
192,192,32446,1,0,0:0:0:0:
320,192,32514,1,0,0:0:0:0:
64,192,32582,1,0,0:0:0:0:
448,192,32650,1,0,0:0:0:0:
192,192,32650,1,0,0:0:0:0:
320,192,32719,1,0,0:0:0:0:
448,192,32787,1,0,0:0:0:0:
64,192,32787,1,0,0:0:0:0:
192,192,32855,1,0,0:0:0:0:
320,192,32923,1,0,0:0:0:0:
448,192,32923,1,0,0:0:0:0:
192,192,32991,1,0,0:0:0:0:
64,192,33060,1,0,0:0:0:0:
320,192,33060,1,0,0:0:0:0:
448,192,33060,1,0,0:0:0:0:
192,192,33128,1,0,0:0:0:0:
320,192,33196,1,0,0:0:0:0:
64,192,33264,1,0,0:0:0:0:
192,192,33332,1,0,0:0:0:0:
320,192,33332,1,0,0:0:0:0:
448,192,33400,1,0,0:0:0:0:
64,192,33469,1,0,0:0:0:0:
192,192,33469,1,0,0:0:0:0:
320,192,33537,1,0,0:0:0:0:
64,192,33605,1,0,0:0:0:0:
192,192,33605,1,0,0:0:0:0:
448,192,33605,1,0,0:0:0:0:
320,192,33673,1,0,0:0:0:0:
448,192,33741,1,0,0:0:0:0:
320,192,33810,1,0,0:0:0:0:
64,192,33878,1,0,0:0:0:0:
192,192,33878,1,0,0:0:0:0:
448,192,33878,1,0,0:0:0:0:
192,192,33969,1,0,0:0:0:0:
64,192,33969,1,0,0:0:0:0:
448,192,33969,1,0,0:0:0:0:
64,192,34060,1,0,0:0:0:0:
192,192,34060,1,0,0:0:0:0:
448,192,34060,1,0,0:0:0:0:
320,192,34150,1,0,0:0:0:0:
448,192,34150,1,0,0:0:0:0:
192,192,34150,1,0,0:0:0:0:
320,192,34241,1,0,0:0:0:0:
448,192,34241,1,0,0:0:0:0:
192,192,34241,1,0,0:0:0:0:
320,192,34332,1,0,0:0:0:0:
448,192,34332,1,0,0:0:0:0:
192,192,34332,1,0,0:0:0:0:
64,192,34423,1,0,0:0:0:0:
192,192,34423,1,0,0:0:0:0:
448,192,34491,1,0,0:0:0:0:
320,192,34560,1,0,0:0:0:0:
192,192,34560,1,0,0:0:0:0:
64,192,34628,1,0,0:0:0:0:
320,192,34696,1,0,0:0:0:0:
448,192,34696,1,0,0:0:0:0:
64,192,34764,1,0,0:0:0:0:
192,192,34764,1,0,0:0:0:0:
320,192,34832,1,0,0:0:0:0:
448,192,34832,1,0,0:0:0:0:
192,192,34900,1,0,0:0:0:0:
64,192,34900,1,0,0:0:0:0:
320,192,34969,1,0,0:0:0:0:
448,192,34969,1,0,0:0:0:0:
192,192,35037,1,0,0:0:0:0:
64,192,35105,1,0,0:0:0:0:
320,192,35173,1,0,0:0:0:0:
64,192,35241,1,0,0:0:0:0:
192,192,35241,1,0,0:0:0:0:
448,192,35241,1,0,0:0:0:0:
320,192,35310,1,0,0:0:0:0:
192,192,35378,1,0,0:0:0:0:
448,192,35446,1,0,0:0:0:0:
64,192,35514,1,0,0:0:0:0:
192,192,35514,1,0,0:0:0:0:
320,192,35582,1,0,0:0:0:0:
448,192,35650,1,0,0:0:0:0:
64,192,35650,1,0,0:0:0:0:
192,192,35719,1,0,0:0:0:0:
320,192,35787,1,0,0:0:0:0:
64,192,35787,1,0,0:0:0:0:
448,192,35787,1,0,0:0:0:0:
192,192,35855,1,0,0:0:0:0:
320,192,35923,1,0,0:0:0:0:
448,192,35991,1,0,0:0:0:0:
64,192,36060,1,0,0:0:0:0:
192,192,36060,1,0,0:0:0:0:
320,192,36128,1,0,0:0:0:0:
64,192,36196,1,0,0:0:0:0:
192,192,36196,1,0,0:0:0:0:
448,192,36264,1,0,0:0:0:0:
64,192,36332,1,0,0:0:0:0:
192,192,36332,1,0,0:0:0:0:
448,192,36400,1,0,0:0:0:0:
192,192,36469,1,0,0:0:0:0:
320,192,36537,1,0,0:0:0:0:
448,192,36537,1,0,0:0:0:0:
64,192,36605,1,0,0:0:0:0:
320,192,36673,1,0,0:0:0:0:
448,192,36673,1,0,0:0:0:0:
192,192,36741,1,0,0:0:0:0:
320,192,36810,1,0,0:0:0:0:
448,192,36810,1,0,0:0:0:0:
192,192,36878,1,0,0:0:0:0:
64,192,36878,1,0,0:0:0:0:
320,192,36878,1,0,0:0:0:0:
448,192,36878,1,0,0:0:0:0:
64,192,37150,1,0,0:0:0:0:
192,192,37150,1,0,0:0:0:0:
320,192,37150,1,0,0:0:0:0:
320,192,37287,1,0,0:0:0:0:
192,192,37287,1,0,0:0:0:0:
64,192,37423,1,0,0:0:0:0:
192,192,37423,1,0,0:0:0:0:
320,192,37423,1,0,0:0:0:0:
448,192,37423,1,0,0:0:0:0:
192,192,37560,1,0,0:0:0:0:
448,192,37560,1,0,0:0:0:0:
64,192,37696,1,0,0:0:0:0:
320,192,37696,1,0,0:0:0:0:
448,192,37696,1,0,0:0:0:0:
192,192,37832,1,0,0:0:0:0:
64,192,37832,1,0,0:0:0:0:
320,192,37969,1,0,0:0:0:0:
192,192,37969,1,0,0:0:0:0:
64,192,37969,1,0,0:0:0:0:
448,192,37969,1,0,0:0:0:0:
320,192,38105,1,0,0:0:0:0:
64,192,38105,1,0,0:0:0:0:
448,192,38105,1,0,0:0:0:0:
320,192,38241,1,0,0:0:0:0:
192,192,38241,1,0,0:0:0:0:
64,192,38241,1,0,0:0:0:0:
448,192,38241,1,0,0:0:0:0:
192,192,38378,1,0,0:0:0:0:
320,192,38378,1,0,0:0:0:0:
448,192,38378,1,0,0:0:0:0:
320,192,38514,1,0,0:0:0:0:
192,192,38514,1,0,0:0:0:0:
64,192,38514,1,0,0:0:0:0:
448,192,38514,1,0,0:0:0:0:
192,192,38650,1,0,0:0:0:0:
64,192,38650,1,0,0:0:0:0:
64,192,38787,1,0,0:0:0:0:
320,192,38787,1,0,0:0:0:0:
448,192,38787,1,0,0:0:0:0:
320,192,38923,1,0,0:0:0:0:
192,192,38923,1,0,0:0:0:0:
64,192,39060,1,0,0:0:0:0:
192,192,39060,1,0,0:0:0:0:
448,192,39060,1,0,0:0:0:0:
320,192,39128,1,0,0:0:0:0:
64,192,39196,1,0,0:0:0:0:
192,192,39196,1,0,0:0:0:0:
448,192,39196,1,0,0:0:0:0:
320,192,39332,1,0,0:0:0:0:
192,192,39332,1,0,0:0:0:0:
64,192,39332,1,0,0:0:0:0:
448,192,39332,1,0,0:0:0:0:
192,192,39469,1,0,0:0:0:0:
320,192,39469,1,0,0:0:0:0:
64,192,39605,1,0,0:0:0:0:
320,192,39605,1,0,0:0:0:0:
448,192,39605,1,0,0:0:0:0:
192,192,39673,1,0,0:0:0:0:
64,192,39741,1,0,0:0:0:0:
320,192,39741,1,0,0:0:0:0:
448,192,39741,1,0,0:0:0:0:
192,192,39810,1,0,0:0:0:0:
64,192,39878,1,0,0:0:0:0:
320,192,39878,1,0,0:0:0:0:
448,192,39878,1,0,0:0:0:0:
64,192,40014,1,0,0:0:0:0:
192,192,40014,1,0,0:0:0:0:
64,192,40150,1,0,0:0:0:0:
192,192,40150,1,0,0:0:0:0:
320,192,40150,1,0,0:0:0:0:
448,192,40150,1,0,0:0:0:0:
448,192,40287,1,0,0:0:0:0:
320,192,40287,1,0,0:0:0:0:
64,192,40287,1,0,0:0:0:0:
320,192,40423,1,0,0:0:0:0:
192,192,40423,1,0,0:0:0:0:
64,192,40423,1,0,0:0:0:0:
448,192,40423,1,0,0:0:0:0:
64,192,40560,1,0,0:0:0:0:
448,192,40560,1,0,0:0:0:0:
192,192,40560,1,0,0:0:0:0:
320,192,40696,1,0,0:0:0:0:
192,192,40696,1,0,0:0:0:0:
64,192,40696,1,0,0:0:0:0:
448,192,40696,1,0,0:0:0:0:
448,192,40832,1,0,0:0:0:0:
320,192,40832,1,0,0:0:0:0:
64,192,40969,1,0,0:0:0:0:
192,192,40969,1,0,0:0:0:0:
320,192,40969,1,0,0:0:0:0:
64,192,41105,1,0,0:0:0:0:
192,192,41105,1,0,0:0:0:0:
320,192,41105,1,0,0:0:0:0:
320,192,41241,1,0,0:0:0:0:
448,192,41241,1,0,0:0:0:0:
320,192,41310,1,0,0:0:0:0:
448,192,41310,1,0,0:0:0:0:
192,192,41378,1,0,0:0:0:0:
64,192,41378,1,0,0:0:0:0:
64,192,41446,1,0,0:0:0:0:
192,192,41446,1,0,0:0:0:0:
320,192,41514,1,0,0:0:0:0:
448,192,41514,1,0,0:0:0:0:
192,192,41650,1,0,0:0:0:0:
320,192,41650,1,0,0:0:0:0:
64,192,41787,1,0,0:0:0:0:
192,192,41787,1,0,0:0:0:0:
320,192,41787,1,0,0:0:0:0:
448,192,41787,1,0,0:0:0:0:
64,192,41923,1,0,0:0:0:0:
448,192,41923,1,0,0:0:0:0:
320,192,42060,1,0,0:0:0:0:
192,192,42060,1,0,0:0:0:0:
64,192,42060,1,0,0:0:0:0:
192,192,42196,1,0,0:0:0:0:
448,192,42196,1,0,0:0:0:0:
320,192,42332,1,0,0:0:0:0:
192,192,42332,1,0,0:0:0:0:
64,192,42332,1,0,0:0:0:0:
448,192,42332,1,0,0:0:0:0:
192,192,42469,1,0,0:0:0:0:
64,192,42469,1,0,0:0:0:0:
320,192,42469,1,0,0:0:0:0:
320,192,42605,1,0,0:0:0:0:
192,192,42605,1,0,0:0:0:0:
64,192,42605,1,0,0:0:0:0:
448,192,42605,1,0,0:0:0:0:
192,192,42741,1,0,0:0:0:0:
320,192,42741,1,0,0:0:0:0:
448,192,42741,1,0,0:0:0:0:
320,192,42878,1,0,0:0:0:0:
192,192,42878,1,0,0:0:0:0:
64,192,42878,1,0,0:0:0:0:
448,192,42878,1,0,0:0:0:0:
64,192,43014,1,0,0:0:0:0:
448,192,43014,1,0,0:0:0:0:
320,192,43150,1,0,0:0:0:0:
448,192,43150,1,0,0:0:0:0:
192,192,43150,1,0,0:0:0:0:
64,192,43287,1,0,0:0:0:0:
192,192,43287,1,0,0:0:0:0:
192,192,43423,1,0,0:0:0:0:
320,192,43423,1,0,0:0:0:0:
448,192,43423,1,0,0:0:0:0:
64,192,43491,1,0,0:0:0:0:
192,192,43560,1,0,0:0:0:0:
320,192,43560,1,0,0:0:0:0:
448,192,43560,1,0,0:0:0:0:
320,192,43696,1,0,0:0:0:0:
192,192,43696,1,0,0:0:0:0:
64,192,43696,1,0,0:0:0:0:
448,192,43696,1,0,0:0:0:0:
64,192,43832,1,0,0:0:0:0:
320,192,43832,1,0,0:0:0:0:
448,192,43969,1,0,0:0:0:0:
192,192,43969,1,0,0:0:0:0:
320,192,44037,1,0,0:0:0:0:
64,192,44037,1,0,0:0:0:0:
448,192,44105,1,0,0:0:0:0:
192,192,44105,1,0,0:0:0:0:
320,192,44173,1,0,0:0:0:0:
64,192,44173,1,0,0:0:0:0:
448,192,44241,1,0,0:0:0:0:
192,192,44241,1,0,0:0:0:0:
320,192,44378,1,0,0:0:0:0:
192,192,44378,1,0,0:0:0:0:
64,192,44514,1,0,0:0:0:0:
192,192,44514,1,0,0:0:0:0:
320,192,44514,1,0,0:0:0:0:
448,192,44514,1,0,0:0:0:0:
64,192,44650,1,0,0:0:0:0:
448,192,44650,1,0,0:0:0:0:
192,192,44650,1,0,0:0:0:0:
320,192,44787,1,0,0:0:0:0:
192,192,44787,1,0,0:0:0:0:
64,192,44787,1,0,0:0:0:0:
448,192,44787,1,0,0:0:0:0:
64,192,44923,1,0,0:0:0:0:
448,192,44923,1,0,0:0:0:0:
192,192,44923,1,0,0:0:0:0:
320,192,45060,1,0,0:0:0:0:
192,192,45060,1,0,0:0:0:0:
64,192,45060,1,0,0:0:0:0:
448,192,45060,1,0,0:0:0:0:
320,192,45196,1,0,0:0:0:0:
192,192,45196,1,0,0:0:0:0:
320,192,45332,1,0,0:0:0:0:
448,192,45332,1,0,0:0:0:0:
64,192,45332,1,0,0:0:0:0:
320,192,45469,1,0,0:0:0:0:
448,192,45469,1,0,0:0:0:0:
64,192,45469,1,0,0:0:0:0:
64,192,45605,1,0,0:0:0:0:
192,192,45605,1,0,0:0:0:0:
64,192,45673,1,0,0:0:0:0:
192,192,45673,1,0,0:0:0:0:
320,192,45741,1,0,0:0:0:0:
448,192,45741,1,0,0:0:0:0:
448,192,45810,1,0,0:0:0:0:
320,192,45810,1,0,0:0:0:0:
192,192,45878,1,0,0:0:0:0:
64,192,45878,1,0,0:0:0:0:
192,192,46014,1,0,0:0:0:0:
448,192,46014,1,0,0:0:0:0:
192,192,46150,1,0,0:0:0:0:
320,192,46150,1,0,0:0:0:0:
64,192,46219,1,0,0:0:0:0:
448,192,46219,1,0,0:0:0:0:
192,192,46287,1,0,0:0:0:0:
320,192,46287,1,0,0:0:0:0:
64,192,46355,1,0,0:0:0:0:
448,192,46355,1,0,0:0:0:0:
192,192,46423,1,0,0:0:0:0:
320,192,46423,1,0,0:0:0:0:
64,192,46560,1,0,0:0:0:0:
192,192,46560,1,0,0:0:0:0:
192,192,46696,1,0,0:0:0:0:
320,192,46696,1,0,0:0:0:0:
448,192,46696,1,0,0:0:0:0:
64,192,46832,1,0,0:0:0:0:
320,192,46832,1,0,0:0:0:0:
64,192,46969,1,0,0:0:0:0:
192,192,46969,1,0,0:0:0:0:
448,192,46969,1,0,0:0:0:0:
320,192,47105,1,0,0:0:0:0:
192,192,47105,1,0,0:0:0:0:
320,192,47241,1,0,0:0:0:0:
448,192,47241,1,0,0:0:0:0:
192,192,47241,1,0,0:0:0:0:
64,192,47378,1,0,0:0:0:0:
448,192,47378,1,0,0:0:0:0:
320,192,47378,1,0,0:0:0:0:
192,192,47446,1,0,0:0:0:0:
64,192,47514,1,0,0:0:0:0:
448,192,47514,1,0,0:0:0:0:
320,192,47514,1,0,0:0:0:0:
192,192,47650,1,0,0:0:0:0:
64,192,47650,1,0,0:0:0:0:
320,192,47650,1,0,0:0:0:0:
64,192,47787,1,0,0:0:0:0:
448,192,47787,1,0,0:0:0:0:
320,192,47787,1,0,0:0:0:0:
192,192,47855,1,0,0:0:0:0:
64,192,47923,1,0,0:0:0:0:
320,192,47923,1,0,0:0:0:0:
448,192,47923,1,0,0:0:0:0:
192,192,47991,1,0,0:0:0:0:
64,192,48060,1,0,0:0:0:0:
320,192,48060,1,0,0:0:0:0:
448,192,48060,1,0,0:0:0:0:
320,192,48196,1,0,0:0:0:0:
192,192,48196,1,0,0:0:0:0:
64,192,48332,1,0,0:0:0:0:
320,192,48332,1,0,0:0:0:0:
448,192,48332,1,0,0:0:0:0:
320,192,48469,1,0,0:0:0:0:
192,192,48469,1,0,0:0:0:0:
448,192,48537,1,0,0:0:0:0:
64,192,48605,1,0,0:0:0:0:
192,192,48605,1,0,0:0:0:0:
320,192,48605,1,0,0:0:0:0:
320,192,48741,1,0,0:0:0:0:
64,192,48741,1,0,0:0:0:0:
320,192,48878,1,0,0:0:0:0:
192,192,48878,1,0,0:0:0:0:
448,192,48878,1,0,0:0:0:0:
320,192,49014,1,0,0:0:0:0:
64,192,49014,1,0,0:0:0:0:
192,192,49082,1,0,0:0:0:0:
64,192,49150,1,0,0:0:0:0:
320,192,49150,1,0,0:0:0:0:
448,192,49150,1,0,0:0:0:0:
320,192,49287,1,0,0:0:0:0:
192,192,49287,1,0,0:0:0:0:
64,192,49423,1,0,0:0:0:0:
320,192,49423,1,0,0:0:0:0:
448,192,49423,1,0,0:0:0:0:
64,192,49560,1,0,0:0:0:0:
192,192,49560,1,0,0:0:0:0:
320,192,49696,1,0,0:0:0:0:
192,192,49696,1,0,0:0:0:0:
448,192,49696,1,0,0:0:0:0:
64,192,49832,1,0,0:0:0:0:
320,192,49832,1,0,0:0:0:0:
192,192,49969,1,0,0:0:0:0:
64,192,49969,1,0,0:0:0:0:
320,192,50037,1,0,0:0:0:0:
448,192,50037,1,0,0:0:0:0:
192,192,50105,1,0,0:0:0:0:
64,192,50105,1,0,0:0:0:0:
448,192,50173,1,0,0:0:0:0:
320,192,50173,1,0,0:0:0:0:
64,192,50241,1,0,0:0:0:0:
192,192,50241,1,0,0:0:0:0:
320,192,50241,1,0,0:0:0:0:
448,192,50241,1,0,0:0:0:0:
192,192,50378,1,0,0:0:0:0:
64,192,50378,1,0,0:0:0:0:
320,192,50378,1,0,0:0:0:0:
64,192,50514,1,0,0:0:0:0:
320,192,50514,1,0,0:0:0:0:
448,192,50514,1,0,0:0:0:0:
320,192,50650,1,0,0:0:0:0:
64,192,50650,1,0,0:0:0:0:
448,192,50650,1,0,0:0:0:0:
192,192,50787,1,0,0:0:0:0:
64,192,50787,1,0,0:0:0:0:
448,192,50787,1,0,0:0:0:0:
192,192,50923,1,0,0:0:0:0:
64,192,50923,1,0,0:0:0:0:
448,192,50923,1,0,0:0:0:0:
192,192,51060,1,0,0:0:0:0:
320,192,51060,1,0,0:0:0:0:
448,192,51060,1,0,0:0:0:0:
320,192,51196,1,0,0:0:0:0:
192,192,51196,1,0,0:0:0:0:
448,192,51196,1,0,0:0:0:0:
192,192,51332,1,0,0:0:0:0:
448,192,51332,1,0,0:0:0:0:
64,192,51332,1,0,0:0:0:0:
192,192,51469,1,0,0:0:0:0:
320,192,51469,1,0,0:0:0:0:
448,192,51469,1,0,0:0:0:0:
320,192,51605,1,0,0:0:0:0:
64,192,51605,1,0,0:0:0:0:
448,192,51605,1,0,0:0:0:0:
448,192,51741,1,0,0:0:0:0:
192,192,51741,1,0,0:0:0:0:
64,192,51741,1,0,0:0:0:0:
192,192,51878,1,0,0:0:0:0:
448,192,51878,1,0,0:0:0:0:
320,192,51878,1,0,0:0:0:0:
64,192,52014,1,0,0:0:0:0:
448,192,52014,1,0,0:0:0:0:
192,192,52014,1,0,0:0:0:0:
192,192,52150,1,0,0:0:0:0:
320,192,52150,1,0,0:0:0:0:
448,192,52150,1,0,0:0:0:0:
64,192,52287,1,0,0:0:0:0:
320,192,52287,1,0,0:0:0:0:
192,192,52287,1,0,0:0:0:0:
320,192,52423,1,0,0:0:0:0:
192,192,52423,1,0,0:0:0:0:
448,192,52423,1,0,0:0:0:0:
64,192,52491,1,0,0:0:0:0:
320,192,52560,1,0,0:0:0:0:
448,192,52560,1,0,0:0:0:0:
192,192,52628,1,0,0:0:0:0:
64,192,52628,1,0,0:0:0:0:
320,192,52696,1,0,0:0:0:0:
448,192,52696,1,0,0:0:0:0:
64,192,52764,1,0,0:0:0:0:
192,192,52764,1,0,0:0:0:0:
320,192,52832,1,0,0:0:0:0:
448,192,52832,1,0,0:0:0:0:
64,192,52900,1,0,0:0:0:0:
192,192,52900,1,0,0:0:0:0:
320,192,52969,1,0,0:0:0:0:
448,192,52969,1,0,0:0:0:0:
64,192,53037,1,0,0:0:0:0:
192,192,53037,1,0,0:0:0:0:
320,192,53105,1,0,0:0:0:0:
448,192,53105,1,0,0:0:0:0:
192,192,53173,1,0,0:0:0:0:
64,192,53173,1,0,0:0:0:0:
448,192,53241,1,0,0:0:0:0:
320,192,53241,1,0,0:0:0:0:
64,192,53310,1,0,0:0:0:0:
192,192,53310,1,0,0:0:0:0:
320,192,53378,1,0,0:0:0:0:
448,192,53378,1,0,0:0:0:0:
64,192,53446,1,0,0:0:0:0:
192,192,53446,1,0,0:0:0:0:
320,192,53514,1,0,0:0:0:0:
448,192,53514,128,0,53548:0:0:0:0:
320,192,53650,128,0,53685:0:0:0:0:
192,192,53787,128,0,53821:0:0:0:0:
64,192,53923,128,0,53957:0:0:0:0:
448,192,54060,1,0,0:0:0:0:
320,192,54094,1,0,0:0:0:0:
192,192,54128,1,0,0:0:0:0:
64,192,54162,1,0,0:0:0:0:
448,192,54196,1,0,0:0:0:0:
320,192,54230,1,0,0:0:0:0:
192,192,54264,1,0,0:0:0:0:
64,192,54298,1,0,0:0:0:0:
448,192,54332,1,0,0:0:0:0:
320,192,54366,1,0,0:0:0:0:
192,192,54400,1,0,0:0:0:0:
64,192,54435,1,0,0:0:0:0:
448,192,54469,1,0,0:0:0:0:
320,192,54503,1,0,0:0:0:0:
192,192,54537,1,0,0:0:0:0:
64,192,54571,1,0,0:0:0:0:
448,192,54605,1,0,0:0:0:0:
320,192,54605,1,0,0:0:0:0:
192,192,54650,1,0,0:0:0:0:
64,192,54696,1,0,0:0:0:0:
320,192,54741,1,0,0:0:0:0:
192,192,54787,1,0,0:0:0:0:
448,192,54832,1,0,0:0:0:0:
320,192,54878,1,0,0:0:0:0:
192,192,54923,1,0,0:0:0:0:
320,192,54969,1,0,0:0:0:0:
64,192,55014,1,0,0:0:0:0:
192,192,55060,1,0,0:0:0:0:
320,192,55105,1,0,0:0:0:0:
64,192,55150,1,0,0:0:0:0:
448,192,55150,1,0,0:0:0:0:
192,192,55150,1,0,0:0:0:0:
192,192,55287,1,0,0:0:0:0:
320,192,55287,1,0,0:0:0:0:
64,192,55423,1,0,0:0:0:0:
192,192,55423,1,0,0:0:0:0:
448,192,55423,1,0,0:0:0:0:
320,192,55560,1,0,0:0:0:0:
192,192,55560,1,0,0:0:0:0:
64,192,55560,1,0,0:0:0:0:
64,192,55696,1,0,0:0:0:0:
192,192,55696,1,0,0:0:0:0:
448,192,55696,1,0,0:0:0:0:
320,192,55832,1,0,0:0:0:0:
64,192,55878,1,0,0:0:0:0:
192,192,55923,1,0,0:0:0:0:
64,192,55969,1,0,0:0:0:0:
448,192,56014,1,0,0:0:0:0:
64,192,56060,1,0,0:0:0:0:
320,192,56105,1,0,0:0:0:0:
64,192,56150,1,0,0:0:0:0:
192,192,56196,1,0,0:0:0:0:
64,192,56241,1,0,0:0:0:0:
320,192,56241,1,0,0:0:0:0:
448,192,56241,1,0,0:0:0:0:
192,192,56378,1,0,0:0:0:0:
320,192,56378,1,0,0:0:0:0:
64,192,56514,1,0,0:0:0:0:
192,192,56548,1,0,0:0:0:0:
448,192,56582,1,0,0:0:0:0:
320,192,56616,1,0,0:0:0:0:
64,192,56650,1,0,0:0:0:0:
192,192,56685,1,0,0:0:0:0:
448,192,56719,1,0,0:0:0:0:
320,192,56753,1,0,0:0:0:0:
192,192,56787,1,0,0:0:0:0:
64,192,56787,1,0,0:0:0:0:
192,192,56923,1,0,0:0:0:0:
320,192,56923,1,0,0:0:0:0:
320,192,57060,1,0,0:0:0:0:
448,192,57060,1,0,0:0:0:0:
192,192,57196,1,0,0:0:0:0:
320,192,57196,1,0,0:0:0:0:
64,192,57332,1,0,0:0:0:0:
192,192,57332,1,0,0:0:0:0:
448,192,57332,1,0,0:0:0:0:
192,192,57469,1,0,0:0:0:0:
64,192,57605,1,0,0:0:0:0:
320,192,57605,1,0,0:0:0:0:
448,192,57605,1,0,0:0:0:0:
320,192,57741,1,0,0:0:0:0:
64,192,57741,1,0,0:0:0:0:
448,192,57741,1,0,0:0:0:0:
64,192,57878,1,0,0:0:0:0:
320,192,57878,1,0,0:0:0:0:
448,192,57878,1,0,0:0:0:0:
64,192,58014,1,0,0:0:0:0:
320,192,58014,1,0,0:0:0:0:
448,192,58014,1,0,0:0:0:0:
192,192,58150,1,0,0:0:0:0:
320,192,58196,1,0,0:0:0:0:
448,192,58241,1,0,0:0:0:0:
64,192,58287,1,0,0:0:0:0:
192,192,58332,1,0,0:0:0:0:
320,192,58378,1,0,0:0:0:0:
192,192,58423,1,0,0:0:0:0:
448,192,58423,1,0,0:0:0:0:
64,192,58423,1,0,0:0:0:0:
320,192,58491,1,0,0:0:0:0:
192,192,58560,1,0,0:0:0:0:
64,192,58560,1,0,0:0:0:0:
448,192,58628,1,0,0:0:0:0:
64,192,58696,1,0,0:0:0:0:
320,192,58696,1,0,0:0:0:0:
448,192,58764,1,0,0:0:0:0:
192,192,58832,1,0,0:0:0:0:
64,192,58832,1,0,0:0:0:0:
448,192,58900,1,0,0:0:0:0:
192,192,58969,1,0,0:0:0:0:
320,192,58969,128,0,59105:0:0:0:0:
64,192,59105,1,0,0:0:0:0:
192,192,59105,128,0,59241:0:0:0:0:
448,192,59241,128,0,59378:0:0:0:0:
320,192,59241,1,0,0:0:0:0:
64,192,59378,128,0,59514:0:0:0:0:
192,192,59378,1,0,0:0:0:0:
192,192,59514,1,0,0:0:0:0:
320,192,59514,1,0,0:0:0:0:
448,192,59514,1,0,0:0:0:0:
64,192,59650,1,0,0:0:0:0:
192,192,59696,1,0,0:0:0:0:
64,192,59741,1,0,0:0:0:0:
192,192,59787,1,0,0:0:0:0:
320,192,59832,1,0,0:0:0:0:
192,192,59878,1,0,0:0:0:0:
320,192,59923,1,0,0:0:0:0:
448,192,59969,1,0,0:0:0:0:
320,192,60014,1,0,0:0:0:0:
64,192,60060,1,0,0:0:0:0:
192,192,60060,1,0,0:0:0:0:
448,192,60060,1,0,0:0:0:0:
320,192,60128,1,0,0:0:0:0:
192,192,60196,1,0,0:0:0:0:
64,192,60196,1,0,0:0:0:0:
448,192,60264,1,0,0:0:0:0:
320,192,60332,1,0,0:0:0:0:
192,192,60332,1,0,0:0:0:0:
64,192,60400,1,0,0:0:0:0:
448,192,60469,1,0,0:0:0:0:
320,192,60469,1,0,0:0:0:0:
192,192,60537,1,0,0:0:0:0:
64,192,60605,1,0,0:0:0:0:
320,192,60605,1,0,0:0:0:0:
448,192,60605,1,0,0:0:0:0:
64,192,60741,1,0,0:0:0:0:
192,192,60741,1,0,0:0:0:0:
192,192,60878,1,0,0:0:0:0:
448,192,60878,1,0,0:0:0:0:
320,192,61014,1,0,0:0:0:0:
64,192,61014,1,0,0:0:0:0:
64,192,61150,1,0,0:0:0:0:
192,192,61150,1,0,0:0:0:0:
320,192,61150,1,0,0:0:0:0:
64,192,61287,1,0,0:0:0:0:
192,192,61287,1,0,0:0:0:0:
320,192,61287,1,0,0:0:0:0:
320,192,61423,1,0,0:0:0:0:
192,192,61423,1,0,0:0:0:0:
64,192,61560,1,0,0:0:0:0:
320,192,61560,1,0,0:0:0:0:
448,192,61560,1,0,0:0:0:0:
320,192,61696,1,0,0:0:0:0:
64,192,61696,1,0,0:0:0:0:
448,192,61696,1,0,0:0:0:0:
320,192,61832,1,0,0:0:0:0:
192,192,61832,1,0,0:0:0:0:
192,192,61969,1,0,0:0:0:0:
64,192,61969,1,0,0:0:0:0:
448,192,61969,1,0,0:0:0:0:
192,192,62105,1,0,0:0:0:0:
64,192,62105,1,0,0:0:0:0:
448,192,62105,1,0,0:0:0:0:
192,192,62241,1,0,0:0:0:0:
320,192,62241,1,0,0:0:0:0:
320,192,62378,1,0,0:0:0:0:
192,192,62378,1,0,0:0:0:0:
448,192,62378,1,0,0:0:0:0:
192,192,62514,1,0,0:0:0:0:
320,192,62514,1,0,0:0:0:0:
448,192,62514,1,0,0:0:0:0:
192,192,62650,1,0,0:0:0:0:
320,192,62650,1,0,0:0:0:0:
64,192,62787,1,0,0:0:0:0:
192,192,62787,1,0,0:0:0:0:
448,192,62787,1,0,0:0:0:0:
192,192,62923,1,0,0:0:0:0:
64,192,62923,1,0,0:0:0:0:
448,192,62923,1,0,0:0:0:0:
64,192,63060,1,0,0:0:0:0:
192,192,63077,1,0,0:0:0:0:
448,192,63196,1,0,0:0:0:0:
320,192,63213,1,0,0:0:0:0:
64,192,63332,1,0,0:0:0:0:
192,192,63378,1,0,0:0:0:0:
320,192,63423,1,0,0:0:0:0:
192,192,63469,1,0,0:0:0:0:
320,192,63514,1,0,0:0:0:0:
448,192,63560,1,0,0:0:0:0:
320,192,63605,1,0,0:0:0:0:
192,192,63650,1,0,0:0:0:0:
64,192,63696,1,0,0:0:0:0:
448,192,63741,1,0,0:0:0:0:
320,192,63787,1,0,0:0:0:0:
192,192,63832,1,0,0:0:0:0:
448,192,63878,1,0,0:0:0:0:
320,192,63912,1,0,0:0:0:0:
192,192,63946,1,0,0:0:0:0:
64,192,63980,1,0,0:0:0:0:
448,192,64014,1,0,0:0:0:0:
320,192,64048,1,0,0:0:0:0:
192,192,64082,1,0,0:0:0:0:
64,192,64116,1,0,0:0:0:0:
448,192,64150,1,0,0:0:0:0:
320,192,64185,1,0,0:0:0:0:
192,192,64219,1,0,0:0:0:0:
64,192,64253,1,0,0:0:0:0:
448,192,64287,1,0,0:0:0:0:
320,192,64321,1,0,0:0:0:0:
192,192,64355,1,0,0:0:0:0:
64,192,64389,1,0,0:0:0:0:
320,192,64423,1,0,0:0:0:0:
448,192,64423,1,0,0:0:0:0:
320,192,64560,1,0,0:0:0:0:
192,192,64560,1,0,0:0:0:0:
64,192,64560,1,0,0:0:0:0:
448,192,64696,1,0,0:0:0:0:
320,192,64696,1,0,0:0:0:0:
192,192,64764,1,0,0:0:0:0:
64,192,64832,1,0,0:0:0:0:
448,192,64832,1,0,0:0:0:0:
320,192,64900,1,0,0:0:0:0:
192,192,64969,1,0,0:0:0:0:
448,192,64969,1,0,0:0:0:0:
64,192,64969,1,0,0:0:0:0:
64,192,65105,1,0,0:0:0:0:
192,192,65241,1,0,0:0:0:0:
320,192,65241,1,0,0:0:0:0:
448,192,65378,1,0,0:0:0:0:
64,192,65378,1,0,0:0:0:0:
320,192,65514,1,0,0:0:0:0:
448,192,65514,1,0,0:0:0:0:
64,192,65514,1,0,0:0:0:0:
64,192,65650,1,0,0:0:0:0:
192,192,65650,1,0,0:0:0:0:
448,192,65650,1,0,0:0:0:0:
320,192,65787,1,0,0:0:0:0:
192,192,65787,1,0,0:0:0:0:
64,192,65787,1,0,0:0:0:0:
64,192,65923,1,0,0:0:0:0:
320,192,65923,1,0,0:0:0:0:
448,192,65923,1,0,0:0:0:0:
192,192,66060,1,0,0:0:0:0:
64,192,66060,1,0,0:0:0:0:
320,192,66060,1,0,0:0:0:0:
320,192,66196,1,0,0:0:0:0:
64,192,66332,1,0,0:0:0:0:
192,192,66332,1,0,0:0:0:0:
448,192,66332,1,0,0:0:0:0:
192,192,66469,1,0,0:0:0:0:
64,192,66469,1,0,0:0:0:0:
448,192,66469,1,0,0:0:0:0:
64,192,66605,1,0,0:0:0:0:
192,192,66605,1,0,0:0:0:0:
448,192,66605,1,0,0:0:0:0:
192,192,66741,1,0,0:0:0:0:
64,192,66741,1,0,0:0:0:0:
448,192,66741,1,0,0:0:0:0:
448,192,66878,1,0,0:0:0:0:
320,192,66923,1,0,0:0:0:0:
192,192,66969,1,0,0:0:0:0:
320,192,67014,1,0,0:0:0:0:
448,192,67060,1,0,0:0:0:0:
64,192,67105,1,0,0:0:0:0:
448,192,67150,1,0,0:0:0:0:
192,192,67150,1,0,0:0:0:0:
320,192,67150,1,0,0:0:0:0:
320,192,67287,1,0,0:0:0:0:
192,192,67423,1,0,0:0:0:0:
320,192,67423,1,0,0:0:0:0:
448,192,67423,1,0,0:0:0:0:
320,192,67560,1,0,0:0:0:0:
192,192,67560,1,0,0:0:0:0:
64,192,67560,1,0,0:0:0:0:
64,192,67696,1,0,0:0:0:0:
192,192,67741,1,0,0:0:0:0:
320,192,67787,1,0,0:0:0:0:
192,192,67832,1,0,0:0:0:0:
64,192,67878,1,0,0:0:0:0:
448,192,67923,1,0,0:0:0:0:
320,192,67969,1,0,0:0:0:0:
192,192,68014,1,0,0:0:0:0:
320,192,68060,1,0,0:0:0:0:
448,192,68105,1,0,0:0:0:0:
64,192,68150,1,0,0:0:0:0:
192,192,68196,1,0,0:0:0:0:
448,192,68241,1,0,0:0:0:0:
320,192,68241,1,0,0:0:0:0:
192,192,68514,1,0,0:0:0:0:
320,192,68514,1,0,0:0:0:0:
320,192,68650,1,0,0:0:0:0:
192,192,68650,1,0,0:0:0:0:
64,192,68787,1,0,0:0:0:0:
192,192,68787,1,0,0:0:0:0:
320,192,68787,1,0,0:0:0:0:
448,192,68832,1,0,0:0:0:0:
192,192,68878,1,0,0:0:0:0:
320,192,68923,1,0,0:0:0:0:
448,192,68969,1,0,0:0:0:0:
64,192,69014,1,0,0:0:0:0:
192,192,69060,1,0,0:0:0:0:
320,192,69105,1,0,0:0:0:0:
448,192,69150,1,0,0:0:0:0:
192,192,69196,1,0,0:0:0:0:
64,192,69241,1,0,0:0:0:0:
192,192,69287,1,0,0:0:0:0:
320,192,69332,1,0,0:0:0:0:
192,192,69605,128,0,69628:0:0:0:0:
192,192,69741,128,0,69764:0:0:0:0:
64,192,69878,1,0,0:0:0:0:
192,192,69878,1,0,0:0:0:0:
320,192,69878,1,0,0:0:0:0:
64,192,70014,1,0,0:0:0:0:
192,192,70014,1,0,0:0:0:0:
320,192,70014,1,0,0:0:0:0:
64,192,70150,1,0,0:0:0:0:
192,192,70150,1,0,0:0:0:0:
192,192,70287,1,0,0:0:0:0:
320,192,70287,1,0,0:0:0:0:
448,192,70287,1,0,0:0:0:0:
192,192,70423,1,0,0:0:0:0:
320,192,70423,1,0,0:0:0:0:
448,192,70423,1,0,0:0:0:0:
320,192,70560,1,0,0:0:0:0:
448,192,70560,1,0,0:0:0:0:
64,192,70696,1,0,0:0:0:0:
192,192,70696,1,0,0:0:0:0:
448,192,70696,1,0,0:0:0:0:
64,192,70832,1,0,0:0:0:0:
192,192,70832,1,0,0:0:0:0:
448,192,70832,1,0,0:0:0:0:
192,192,70969,1,0,0:0:0:0:
320,192,70969,1,0,0:0:0:0:
64,192,71105,1,0,0:0:0:0:
320,192,71105,1,0,0:0:0:0:
448,192,71105,1,0,0:0:0:0:
320,192,71241,1,0,0:0:0:0:
64,192,71241,1,0,0:0:0:0:
448,192,71241,1,0,0:0:0:0:
192,192,71378,1,0,0:0:0:0:
320,192,71378,1,0,0:0:0:0:
192,192,71514,1,0,0:0:0:0:
64,192,71514,1,0,0:0:0:0:
448,192,71514,1,0,0:0:0:0:
64,192,71650,1,0,0:0:0:0:
192,192,71650,1,0,0:0:0:0:
448,192,71650,1,0,0:0:0:0:
192,192,71787,1,0,0:0:0:0:
320,192,71804,1,0,0:0:0:0:
192,192,71923,1,0,0:0:0:0:
320,192,71940,1,0,0:0:0:0:
64,192,72060,1,0,0:0:0:0:
192,192,72060,1,0,0:0:0:0:
320,192,72060,1,0,0:0:0:0:
448,192,72060,128,0,74241:0:0:0:0:
192,192,72196,1,0,0:0:0:0:
64,192,72332,1,0,0:0:0:0:
192,192,72469,1,0,0:0:0:0:
320,192,72605,1,0,0:0:0:0:
192,192,72741,1,0,0:0:0:0:
64,192,72878,1,0,0:0:0:0:
320,192,73014,1,0,0:0:0:0:
192,192,73150,1,0,0:0:0:0:
64,192,73287,1,0,0:0:0:0:
192,192,73423,1,0,0:0:0:0:
320,192,73560,1,0,0:0:0:0:
64,192,73696,1,0,0:0:0:0:
192,192,73832,1,0,0:0:0:0:
320,192,73969,1,0,0:0:0:0:
192,192,74105,1,0,0:0:0:0:
320,192,74241,128,0,76423:0:0:0:0:
192,192,74378,1,0,0:0:0:0:
64,192,74514,1,0,0:0:0:0:
448,192,74650,1,0,0:0:0:0:
192,192,74787,1,0,0:0:0:0:
64,192,74923,1,0,0:0:0:0:
192,192,75060,1,0,0:0:0:0:
448,192,75196,1,0,0:0:0:0:
64,192,75332,1,0,0:0:0:0:
192,192,75469,1,0,0:0:0:0:
64,192,75605,1,0,0:0:0:0:
448,192,75741,1,0,0:0:0:0:
192,192,75878,1,0,0:0:0:0:
448,192,76014,1,0,0:0:0:0:
64,192,76150,1,0,0:0:0:0:
448,192,76287,1,0,0:0:0:0:
192,192,76423,128,0,78605:0:0:0:0:
64,192,76560,1,0,0:0:0:0:
320,192,76696,1,0,0:0:0:0:
448,192,76832,1,0,0:0:0:0:
320,192,76969,1,0,0:0:0:0:
64,192,77105,1,0,0:0:0:0:
448,192,77241,1,0,0:0:0:0:
320,192,77378,1,0,0:0:0:0:
448,192,77514,1,0,0:0:0:0:
320,192,77650,1,0,0:0:0:0:
64,192,77787,1,0,0:0:0:0:
320,192,77923,1,0,0:0:0:0:
64,192,78060,1,0,0:0:0:0:
320,192,78196,1,0,0:0:0:0:
448,192,78332,1,0,0:0:0:0:
320,192,78469,1,0,0:0:0:0:
64,192,78605,128,0,80787:0:0:0:0:
192,192,78741,1,0,0:0:0:0:
320,192,78878,1,0,0:0:0:0:
192,192,79014,1,0,0:0:0:0:
320,192,79150,1,0,0:0:0:0:
448,192,79287,1,0,0:0:0:0:
320,192,79423,1,0,0:0:0:0:
192,192,79560,1,0,0:0:0:0:
320,192,79696,128,0,80787:0:0:0:0:
448,192,79969,128,0,80787:0:0:0:0:
192,192,81605,1,0,0:0:0:0:
64,192,81673,1,0,0:0:0:0:
192,192,81741,1,0,0:0:0:0:
320,192,81810,1,0,0:0:0:0:
448,192,81878,1,0,0:0:0:0:
192,192,81878,1,0,0:0:0:0:
320,192,82082,1,0,0:0:0:0:
64,192,82082,1,0,0:0:0:0:
448,192,82219,1,0,0:0:0:0:
320,192,82287,1,0,0:0:0:0:
192,192,82355,1,0,0:0:0:0:
64,192,82423,1,0,0:0:0:0:
320,192,82491,1,0,0:0:0:0:
192,192,82560,1,0,0:0:0:0:
448,192,82628,1,0,0:0:0:0:
320,192,82696,1,0,0:0:0:0:
64,192,82764,1,0,0:0:0:0:
192,192,82832,1,0,0:0:0:0:
320,192,82900,1,0,0:0:0:0:
64,192,82969,1,0,0:0:0:0:
448,192,82969,1,0,0:0:0:0:
192,192,83173,1,0,0:0:0:0:
320,192,83173,1,0,0:0:0:0:
320,192,83378,1,0,0:0:0:0:
448,192,83378,1,0,0:0:0:0:
64,192,83514,1,0,0:0:0:0:
192,192,83582,1,0,0:0:0:0:
64,192,83650,1,0,0:0:0:0:
320,192,83719,1,0,0:0:0:0:
64,192,83787,1,0,0:0:0:0:
448,192,83855,1,0,0:0:0:0:
64,192,83923,1,0,0:0:0:0:
192,192,83991,1,0,0:0:0:0:
320,192,84060,1,0,0:0:0:0:
448,192,84060,1,0,0:0:0:0:
64,192,84264,1,0,0:0:0:0:
192,192,84264,1,0,0:0:0:0:
192,192,84469,1,0,0:0:0:0:
320,192,84537,1,0,0:0:0:0:
448,192,84605,1,0,0:0:0:0:
192,192,84810,1,0,0:0:0:0:
320,192,84810,1,0,0:0:0:0:
64,192,85014,1,0,0:0:0:0:
192,192,85082,1,0,0:0:0:0:
320,192,85150,1,0,0:0:0:0:
448,192,85150,1,0,0:0:0:0:
192,192,85355,1,0,0:0:0:0:
64,192,85423,1,0,0:0:0:0:
192,192,85491,1,0,0:0:0:0:
320,192,85560,1,0,0:0:0:0:
192,192,85628,1,0,0:0:0:0:
64,192,85696,1,0,0:0:0:0:
320,192,85696,1,0,0:0:0:0:
448,192,85696,1,0,0:0:0:0:
320,192,85900,1,0,0:0:0:0:
192,192,85969,1,0,0:0:0:0:
320,192,86037,1,0,0:0:0:0:
448,192,86105,1,0,0:0:0:0:
320,192,86173,1,0,0:0:0:0:
64,192,86241,1,0,0:0:0:0:
192,192,86241,1,0,0:0:0:0:
448,192,86241,1,0,0:0:0:0:
64,192,86446,1,0,0:0:0:0:
192,192,86446,1,0,0:0:0:0:
320,192,86446,128,0,86991:0:0:0:0:
64,192,87128,1,0,0:0:0:0:
192,192,87196,1,0,0:0:0:0:
320,192,87264,1,0,0:0:0:0:
448,192,87332,1,0,0:0:0:0:
64,192,87537,1,0,0:0:0:0:
192,192,87741,1,0,0:0:0:0:
64,192,87810,1,0,0:0:0:0:
192,192,87878,1,0,0:0:0:0:
448,192,87946,1,0,0:0:0:0:
320,192,88014,1,0,0:0:0:0:
448,192,88082,1,0,0:0:0:0:
64,192,88150,1,0,0:0:0:0:
192,192,88219,1,0,0:0:0:0:
64,192,88287,1,0,0:0:0:0:
320,192,88355,1,0,0:0:0:0:
448,192,88423,128,0,88560:0:0:0:0:
64,192,88560,128,0,88696:0:0:0:0:
192,192,88696,128,0,88832:0:0:0:0:
320,192,88832,128,0,88969:0:0:0:0:
64,192,88969,1,0,0:0:0:0:
192,192,88969,1,0,0:0:0:0:
320,192,89037,1,0,0:0:0:0:
448,192,89037,1,0,0:0:0:0:
64,192,89105,1,0,0:0:0:0:
192,192,89105,1,0,0:0:0:0:
320,192,89173,1,0,0:0:0:0:
448,192,89173,1,0,0:0:0:0:
64,192,89241,1,0,0:0:0:0:
192,192,89241,1,0,0:0:0:0:
320,192,89310,1,0,0:0:0:0:
448,192,89310,1,0,0:0:0:0:
64,192,89378,1,0,0:0:0:0:
192,192,89378,1,0,0:0:0:0:
448,192,89446,1,0,0:0:0:0:
64,192,89514,1,0,0:0:0:0:
192,192,89514,1,0,0:0:0:0:
320,192,89514,1,0,0:0:0:0:
320,192,89650,1,0,0:0:0:0:
192,192,89650,1,0,0:0:0:0:
448,192,89650,1,0,0:0:0:0:
64,192,89787,1,0,0:0:0:0:
192,192,89787,1,0,0:0:0:0:
320,192,89787,1,0,0:0:0:0:
448,192,89787,1,0,0:0:0:0:
320,192,89923,1,0,0:0:0:0:
192,192,89923,1,0,0:0:0:0:
64,192,89923,1,0,0:0:0:0:
192,192,90060,1,0,0:0:0:0:
320,192,90060,1,0,0:0:0:0:
448,192,90060,1,0,0:0:0:0:
320,192,90196,1,0,0:0:0:0:
192,192,90196,1,0,0:0:0:0:
64,192,90196,1,0,0:0:0:0:
448,192,90196,1,0,0:0:0:0:
64,192,90332,1,0,0:0:0:0:
192,192,90332,1,0,0:0:0:0:
320,192,90332,1,0,0:0:0:0:
320,192,90469,1,0,0:0:0:0:
192,192,90469,1,0,0:0:0:0:
448,192,90469,1,0,0:0:0:0:
192,192,90605,1,0,0:0:0:0:
320,192,90605,1,0,0:0:0:0:
448,192,90605,1,0,0:0:0:0:
64,192,90673,1,0,0:0:0:0:
192,192,90741,1,0,0:0:0:0:
320,192,90741,1,0,0:0:0:0:
448,192,90741,1,0,0:0:0:0:
64,192,90810,1,0,0:0:0:0:
192,192,90878,1,0,0:0:0:0:
320,192,90878,1,0,0:0:0:0:
448,192,90946,1,0,0:0:0:0:
192,192,91014,1,0,0:0:0:0:
320,192,91014,1,0,0:0:0:0:
64,192,91014,1,0,0:0:0:0:
448,192,91082,1,0,0:0:0:0:
192,192,91150,1,0,0:0:0:0:
320,192,91150,1,0,0:0:0:0:
64,192,91150,1,0,0:0:0:0:
448,192,91219,1,0,0:0:0:0:
320,192,91287,1,0,0:0:0:0:
64,192,91287,1,0,0:0:0:0:
192,192,91355,1,0,0:0:0:0:
448,192,91423,1,0,0:0:0:0:
64,192,91423,1,0,0:0:0:0:
320,192,91423,1,0,0:0:0:0:
192,192,91491,1,0,0:0:0:0:
320,192,91560,1,0,0:0:0:0:
448,192,91560,1,0,0:0:0:0:
64,192,91628,1,0,0:0:0:0:
320,192,91696,1,0,0:0:0:0:
448,192,91696,1,0,0:0:0:0:
192,192,91696,1,0,0:0:0:0:
320,192,91832,1,0,0:0:0:0:
192,192,91832,1,0,0:0:0:0:
64,192,91832,1,0,0:0:0:0:
64,192,91969,1,0,0:0:0:0:
192,192,91969,1,0,0:0:0:0:
320,192,91969,1,0,0:0:0:0:
448,192,91969,1,0,0:0:0:0:
320,192,92105,1,0,0:0:0:0:
192,192,92105,1,0,0:0:0:0:
448,192,92105,1,0,0:0:0:0:
64,192,92241,1,0,0:0:0:0:
192,192,92241,1,0,0:0:0:0:
320,192,92241,1,0,0:0:0:0:
320,192,92378,1,0,0:0:0:0:
192,192,92378,1,0,0:0:0:0:
64,192,92378,1,0,0:0:0:0:
448,192,92378,1,0,0:0:0:0:
192,192,92514,1,0,0:0:0:0:
320,192,92514,1,0,0:0:0:0:
448,192,92514,1,0,0:0:0:0:
320,192,92650,1,0,0:0:0:0:
192,192,92650,1,0,0:0:0:0:
64,192,92650,1,0,0:0:0:0:
64,192,92787,1,0,0:0:0:0:
320,192,92787,1,0,0:0:0:0:
448,192,92787,1,0,0:0:0:0:
192,192,92855,1,0,0:0:0:0:
64,192,92923,1,0,0:0:0:0:
320,192,92923,1,0,0:0:0:0:
448,192,92923,1,0,0:0:0:0:
192,192,92991,1,0,0:0:0:0:
64,192,93060,1,0,0:0:0:0:
448,192,93060,1,0,0:0:0:0:
320,192,93128,1,0,0:0:0:0:
64,192,93196,1,0,0:0:0:0:
192,192,93196,1,0,0:0:0:0:
448,192,93196,1,0,0:0:0:0:
320,192,93264,1,0,0:0:0:0:
64,192,93332,1,0,0:0:0:0:
192,192,93332,1,0,0:0:0:0:
448,192,93332,1,0,0:0:0:0:
320,192,93400,1,0,0:0:0:0:
448,192,93469,1,0,0:0:0:0:
64,192,93469,1,0,0:0:0:0:
192,192,93537,1,0,0:0:0:0:
64,192,93605,1,0,0:0:0:0:
320,192,93605,1,0,0:0:0:0:
448,192,93605,1,0,0:0:0:0:
192,192,93673,1,0,0:0:0:0:
320,192,93741,1,0,0:0:0:0:
448,192,93741,1,0,0:0:0:0:
192,192,93810,1,0,0:0:0:0:
64,192,93878,1,0,0:0:0:0:
320,192,93878,1,0,0:0:0:0:
448,192,93878,1,0,0:0:0:0:
64,192,94014,1,0,0:0:0:0:
192,192,94014,1,0,0:0:0:0:
448,192,94014,1,0,0:0:0:0:
320,192,94150,1,0,0:0:0:0:
192,192,94150,1,0,0:0:0:0:
64,192,94150,1,0,0:0:0:0:
448,192,94150,1,0,0:0:0:0:
64,192,94287,1,0,0:0:0:0:
320,192,94287,1,0,0:0:0:0:
448,192,94287,1,0,0:0:0:0:
192,192,94423,1,0,0:0:0:0:
64,192,94423,1,0,0:0:0:0:
448,192,94423,1,0,0:0:0:0:
64,192,94560,1,0,0:0:0:0:
192,192,94560,1,0,0:0:0:0:
320,192,94560,1,0,0:0:0:0:
448,192,94560,1,0,0:0:0:0:
320,192,94696,1,0,0:0:0:0:
64,192,94696,1,0,0:0:0:0:
448,192,94696,1,0,0:0:0:0:
64,192,94832,1,0,0:0:0:0:
192,192,94832,1,0,0:0:0:0:
448,192,94832,1,0,0:0:0:0:
64,192,94969,1,0,0:0:0:0:
192,192,94969,1,0,0:0:0:0:
320,192,94969,1,0,0:0:0:0:
448,192,94969,1,0,0:0:0:0:
320,192,95105,1,0,0:0:0:0:
64,192,95105,1,0,0:0:0:0:
448,192,95105,1,0,0:0:0:0:
64,192,95241,1,0,0:0:0:0:
192,192,95241,1,0,0:0:0:0:
448,192,95241,1,0,0:0:0:0:
320,192,95378,1,0,0:0:0:0:
448,192,95378,1,0,0:0:0:0:
64,192,95446,1,0,0:0:0:0:
192,192,95446,1,0,0:0:0:0:
320,192,95514,1,0,0:0:0:0:
448,192,95514,1,0,0:0:0:0:
64,192,95582,1,0,0:0:0:0:
192,192,95650,1,0,0:0:0:0:
320,192,95719,1,0,0:0:0:0:
448,192,95719,1,0,0:0:0:0:
64,192,95787,1,0,0:0:0:0:
192,192,95855,1,0,0:0:0:0:
448,192,95923,1,0,0:0:0:0:
320,192,95957,1,0,0:0:0:0:
192,192,95991,1,0,0:0:0:0:
64,192,96025,1,0,0:0:0:0:
320,192,96060,1,0,0:0:0:0:
448,192,96060,1,0,0:0:0:0:
192,192,96128,1,0,0:0:0:0:
64,192,96196,1,0,0:0:0:0:
448,192,96196,1,0,0:0:0:0:
320,192,96264,1,0,0:0:0:0:
192,192,96332,1,0,0:0:0:0:
64,192,96332,1,0,0:0:0:0:
448,192,96400,1,0,0:0:0:0:
64,192,96469,1,0,0:0:0:0:
192,192,96469,1,0,0:0:0:0:
320,192,96469,1,0,0:0:0:0:
448,192,96537,1,0,0:0:0:0:
64,192,96605,1,0,0:0:0:0:
192,192,96639,1,0,0:0:0:0:
320,192,96673,1,0,0:0:0:0:
448,192,96707,1,0,0:0:0:0:
64,192,96741,1,0,0:0:0:0:
192,192,96741,1,0,0:0:0:0:
320,192,96810,1,0,0:0:0:0:
448,192,96810,1,0,0:0:0:0:
192,192,96878,1,0,0:0:0:0:
64,192,96878,1,0,0:0:0:0:
320,192,96946,1,0,0:0:0:0:
448,192,96946,1,0,0:0:0:0:
64,192,97014,1,0,0:0:0:0:
192,192,97014,1,0,0:0:0:0:
64,192,97150,1,0,0:0:0:0:
320,192,97150,1,0,0:0:0:0:
64,192,97287,1,0,0:0:0:0:
448,192,97287,1,0,0:0:0:0:
192,192,97287,1,0,0:0:0:0:
64,192,97423,1,0,0:0:0:0:
320,192,97423,1,0,0:0:0:0:
448,192,97423,1,0,0:0:0:0:
64,192,97560,1,0,0:0:0:0:
192,192,97560,1,0,0:0:0:0:
320,192,97560,1,0,0:0:0:0:
64,192,97696,1,0,0:0:0:0:
320,192,97696,1,0,0:0:0:0:
448,192,97696,1,0,0:0:0:0:
64,192,97764,1,0,0:0:0:0:
192,192,97832,1,0,0:0:0:0:
192,192,97900,1,0,0:0:0:0:
320,192,97969,1,0,0:0:0:0:
320,192,98037,1,0,0:0:0:0:
448,192,98105,1,0,0:0:0:0:
448,192,98173,1,0,0:0:0:0:
192,192,98241,1,0,0:0:0:0:
64,192,98241,1,0,0:0:0:0:
320,192,98310,1,0,0:0:0:0:
448,192,98310,1,0,0:0:0:0:
64,192,98378,1,0,0:0:0:0:
192,192,98378,1,0,0:0:0:0:
448,192,98446,1,0,0:0:0:0:
320,192,98446,1,0,0:0:0:0:
192,192,98514,1,0,0:0:0:0:
64,192,98514,1,0,0:0:0:0:
448,192,98582,1,0,0:0:0:0:
320,192,98582,1,0,0:0:0:0:
64,192,98650,1,0,0:0:0:0:
192,192,98650,1,0,0:0:0:0:
448,192,98719,1,0,0:0:0:0:
320,192,98719,1,0,0:0:0:0:
192,192,98787,1,0,0:0:0:0:
64,192,98787,1,0,0:0:0:0:
448,192,98855,1,0,0:0:0:0:
320,192,98855,1,0,0:0:0:0:
64,192,98923,1,0,0:0:0:0:
192,192,98923,1,0,0:0:0:0:
448,192,98991,1,0,0:0:0:0:
320,192,98991,1,0,0:0:0:0:
192,192,99060,1,0,0:0:0:0:
64,192,99060,1,0,0:0:0:0:
448,192,99128,1,0,0:0:0:0:
320,192,99128,1,0,0:0:0:0:
64,192,99196,1,0,0:0:0:0:
192,192,99196,1,0,0:0:0:0:
448,192,99264,1,0,0:0:0:0:
320,192,99264,1,0,0:0:0:0:
192,192,99332,1,0,0:0:0:0:
64,192,99332,1,0,0:0:0:0:
320,192,99400,1,0,0:0:0:0:
448,192,99400,1,0,0:0:0:0:
192,192,99469,1,0,0:0:0:0:
64,192,99469,1,0,0:0:0:0:
448,192,99537,1,0,0:0:0:0:
320,192,99537,1,0,0:0:0:0:
64,192,99605,1,0,0:0:0:0:
192,192,99605,1,0,0:0:0:0:
448,192,99673,1,0,0:0:0:0:
320,192,99673,1,0,0:0:0:0:
64,192,99741,1,0,0:0:0:0:
192,192,99741,1,0,0:0:0:0:
448,192,99810,1,0,0:0:0:0:
320,192,99810,1,0,0:0:0:0:
64,192,99878,128,0,100082:0:0:0:0:
192,192,99878,128,0,100082:0:0:0:0:
320,192,99878,128,0,100082:0:0:0:0:
448,192,99878,128,0,100082:0:0:0:0:
64,192,100150,1,0,0:0:0:0:
320,192,100150,1,0,0:0:0:0:
448,192,100150,1,0,0:0:0:0:
192,192,100219,1,0,0:0:0:0:
320,192,100287,1,0,0:0:0:0:
192,192,100355,1,0,0:0:0:0:
448,192,100423,1,0,0:0:0:0:
320,192,100423,1,0,0:0:0:0:
192,192,100491,1,0,0:0:0:0:
64,192,100491,1,0,0:0:0:0:
448,192,100560,1,0,0:0:0:0:
320,192,100560,1,0,0:0:0:0:
192,192,100628,1,0,0:0:0:0:
64,192,100628,1,0,0:0:0:0:
448,192,100696,1,0,0:0:0:0:
320,192,100696,1,0,0:0:0:0:
192,192,100764,1,0,0:0:0:0:
64,192,100764,1,0,0:0:0:0:
448,192,100832,1,0,0:0:0:0:
320,192,100832,1,0,0:0:0:0:
192,192,100900,1,0,0:0:0:0:
64,192,100900,1,0,0:0:0:0:
448,192,100969,1,0,0:0:0:0:
320,192,100969,1,0,0:0:0:0:
192,192,101037,1,0,0:0:0:0:
64,192,101037,1,0,0:0:0:0:
448,192,101105,1,0,0:0:0:0:
320,192,101105,1,0,0:0:0:0:
192,192,101173,1,0,0:0:0:0:
64,192,101173,1,0,0:0:0:0:
448,192,101241,1,0,0:0:0:0:
320,192,101241,1,0,0:0:0:0:
192,192,101310,1,0,0:0:0:0:
64,192,101310,1,0,0:0:0:0:
448,192,101378,1,0,0:0:0:0:
320,192,101378,1,0,0:0:0:0:
192,192,101446,1,0,0:0:0:0:
64,192,101446,1,0,0:0:0:0:
448,192,101514,1,0,0:0:0:0:
320,192,101514,1,0,0:0:0:0:
192,192,101582,1,0,0:0:0:0:
64,192,101582,1,0,0:0:0:0:
448,192,101650,1,0,0:0:0:0:
320,192,101650,1,0,0:0:0:0:
192,192,101719,1,0,0:0:0:0:
64,192,101719,1,0,0:0:0:0:
448,192,101787,1,0,0:0:0:0:
320,192,101787,1,0,0:0:0:0:
192,192,101855,1,0,0:0:0:0:
64,192,101855,1,0,0:0:0:0:
448,192,101923,1,0,0:0:0:0:
320,192,101923,1,0,0:0:0:0:
192,192,101991,1,0,0:0:0:0:
64,192,101991,1,0,0:0:0:0:
448,192,102060,128,0,102264:0:0:0:0:
320,192,102060,128,0,102264:0:0:0:0:
192,192,102060,128,0,102264:0:0:0:0:
64,192,102060,128,0,102264:0:0:0:0:
448,192,102332,1,0,0:0:0:0:
64,192,102332,1,0,0:0:0:0:
192,192,102332,1,0,0:0:0:0:
320,192,102400,1,0,0:0:0:0:
192,192,102469,1,0,0:0:0:0:
320,192,102537,1,0,0:0:0:0:
64,192,102605,1,0,0:0:0:0:
192,192,102605,1,0,0:0:0:0:
448,192,102605,1,0,0:0:0:0:
320,192,102673,1,0,0:0:0:0:
64,192,102741,1,0,0:0:0:0:
192,192,102741,1,0,0:0:0:0:
448,192,102810,1,0,0:0:0:0:
320,192,102810,1,0,0:0:0:0:
64,192,102878,1,0,0:0:0:0:
192,192,102912,1,0,0:0:0:0:
320,192,102946,1,0,0:0:0:0:
448,192,102980,1,0,0:0:0:0:
64,192,103014,1,0,0:0:0:0:
192,192,103014,1,0,0:0:0:0:
320,192,103082,1,0,0:0:0:0:
192,192,103150,1,0,0:0:0:0:
64,192,103150,1,0,0:0:0:0:
448,192,103150,1,0,0:0:0:0:
320,192,103219,1,0,0:0:0:0:
64,192,103287,1,0,0:0:0:0:
192,192,103287,1,0,0:0:0:0:
448,192,103355,1,0,0:0:0:0:
64,192,103423,1,0,0:0:0:0:
192,192,103423,1,0,0:0:0:0:
320,192,103423,1,0,0:0:0:0:
448,192,103491,1,0,0:0:0:0:
320,192,103560,1,0,0:0:0:0:
192,192,103560,1,0,0:0:0:0:
64,192,103628,1,0,0:0:0:0:
192,192,103696,1,0,0:0:0:0:
448,192,103696,1,0,0:0:0:0:
320,192,103696,1,0,0:0:0:0:
192,192,103832,1,0,0:0:0:0:
320,192,103832,1,0,0:0:0:0:
448,192,103832,1,0,0:0:0:0:
64,192,103900,1,0,0:0:0:0:
192,192,103969,1,0,0:0:0:0:
320,192,103969,1,0,0:0:0:0:
448,192,104037,1,0,0:0:0:0:
64,192,104105,1,0,0:0:0:0:
320,192,104105,1,0,0:0:0:0:
192,192,104173,1,0,0:0:0:0:
64,192,104241,1,0,0:0:0:0:
320,192,104241,1,0,0:0:0:0:
448,192,104241,1,0,0:0:0:0:
192,192,104310,1,0,0:0:0:0:
320,192,104378,1,0,0:0:0:0:
64,192,104446,1,0,0:0:0:0:
192,192,104446,1,0,0:0:0:0:
448,192,104446,1,0,0:0:0:0:
320,192,104514,1,0,0:0:0:0:
448,192,104582,1,0,0:0:0:0:
64,192,104650,1,0,0:0:0:0:
192,192,104650,1,0,0:0:0:0:
320,192,104650,1,0,0:0:0:0:
448,192,104719,1,0,0:0:0:0:
64,192,104787,1,0,0:0:0:0:
192,192,104787,1,0,0:0:0:0:
320,192,104787,1,0,0:0:0:0:
448,192,104855,1,0,0:0:0:0:
320,192,104923,1,0,0:0:0:0:
192,192,104923,1,0,0:0:0:0:
64,192,104991,1,0,0:0:0:0:
320,192,105060,1,0,0:0:0:0:
448,192,105060,1,0,0:0:0:0:
192,192,105128,1,0,0:0:0:0:
64,192,105196,1,0,0:0:0:0:
320,192,105196,1,0,0:0:0:0:
448,192,105264,1,0,0:0:0:0:
64,192,105332,1,0,0:0:0:0:
192,192,105332,1,0,0:0:0:0:
320,192,105332,1,0,0:0:0:0:
448,192,105400,1,0,0:0:0:0:
64,192,105469,1,0,0:0:0:0:
192,192,105469,1,0,0:0:0:0:
448,192,105537,1,0,0:0:0:0:
192,192,105605,1,0,0:0:0:0:
320,192,105605,1,0,0:0:0:0:
448,192,105673,1,0,0:0:0:0:
320,192,105741,1,0,0:0:0:0:
64,192,105741,1,0,0:0:0:0:
192,192,105810,1,0,0:0:0:0:
448,192,105878,1,0,0:0:0:0:
320,192,105912,1,0,0:0:0:0:
64,192,105946,1,0,0:0:0:0:
192,192,105980,1,0,0:0:0:0:
320,192,106014,1,0,0:0:0:0:
448,192,106014,1,0,0:0:0:0:
320,192,106150,1,0,0:0:0:0:
64,192,106150,1,0,0:0:0:0:
448,192,106150,1,0,0:0:0:0:
64,192,106287,1,0,0:0:0:0:
320,192,106287,1,0,0:0:0:0:
448,192,106287,1,0,0:0:0:0:
192,192,106423,1,0,0:0:0:0:
448,192,106423,1,0,0:0:0:0:
64,192,106423,1,0,0:0:0:0:
448,192,106491,1,0,0:0:0:0:
320,192,106560,1,0,0:0:0:0:
320,192,106628,1,0,0:0:0:0:
192,192,106696,1,0,0:0:0:0:
192,192,106764,1,0,0:0:0:0:
64,192,106832,1,0,0:0:0:0:
64,192,106900,1,0,0:0:0:0:
192,192,106969,1,0,0:0:0:0:
320,192,106969,1,0,0:0:0:0:
448,192,106969,1,0,0:0:0:0:
320,192,107105,1,0,0:0:0:0:
192,192,107105,1,0,0:0:0:0:
64,192,107105,1,0,0:0:0:0:
64,192,107241,1,0,0:0:0:0:
320,192,107241,1,0,0:0:0:0:
448,192,107241,1,0,0:0:0:0:
192,192,107241,1,0,0:0:0:0:
320,192,107378,1,0,0:0:0:0:
192,192,107378,1,0,0:0:0:0:
448,192,107378,1,0,0:0:0:0:
192,192,107514,1,0,0:0:0:0:
320,192,107514,1,0,0:0:0:0:
64,192,107514,1,0,0:0:0:0:
192,192,107650,1,0,0:0:0:0:
64,192,107650,1,0,0:0:0:0:
320,192,107650,1,0,0:0:0:0:
448,192,107650,1,0,0:0:0:0:
192,192,107787,1,0,0:0:0:0:
320,192,107787,1,0,0:0:0:0:
448,192,107787,1,0,0:0:0:0:
320,192,107923,1,0,0:0:0:0:
64,192,107923,1,0,0:0:0:0:
192,192,107923,1,0,0:0:0:0:
320,192,108060,1,0,0:0:0:0:
64,192,108060,1,0,0:0:0:0:
192,192,108060,1,0,0:0:0:0:
448,192,108060,1,0,0:0:0:0:
320,192,108196,1,0,0:0:0:0:
192,192,108196,1,0,0:0:0:0:
448,192,108196,1,0,0:0:0:0:
192,192,108332,1,0,0:0:0:0:
64,192,108332,1,0,0:0:0:0:
320,192,108332,1,0,0:0:0:0:
192,192,108469,1,0,0:0:0:0:
64,192,108469,1,0,0:0:0:0:
320,192,108469,1,0,0:0:0:0:
448,192,108469,1,0,0:0:0:0:
192,192,108605,1,0,0:0:0:0:
64,192,108605,1,0,0:0:0:0:
320,192,108673,1,0,0:0:0:0:
448,192,108673,1,0,0:0:0:0:
64,192,108741,1,0,0:0:0:0:
192,192,108741,1,0,0:0:0:0:
320,192,108810,1,0,0:0:0:0:
448,192,108810,1,0,0:0:0:0:
64,192,108878,1,0,0:0:0:0:
192,192,108878,1,0,0:0:0:0:
448,192,108946,1,0,0:0:0:0:
320,192,108946,1,0,0:0:0:0:
64,192,109014,1,0,0:0:0:0:
192,192,109014,1,0,0:0:0:0:
448,192,109082,1,0,0:0:0:0:
64,192,109150,1,0,0:0:0:0:
320,192,109150,1,0,0:0:0:0:
192,192,109150,1,0,0:0:0:0:
192,192,109287,1,0,0:0:0:0:
320,192,109287,1,0,0:0:0:0:
448,192,109287,1,0,0:0:0:0:
192,192,109423,1,0,0:0:0:0:
64,192,109423,1,0,0:0:0:0:
320,192,109423,1,0,0:0:0:0:
448,192,109423,1,0,0:0:0:0:
192,192,109560,1,0,0:0:0:0:
320,192,109560,1,0,0:0:0:0:
64,192,109560,1,0,0:0:0:0:
320,192,109696,1,0,0:0:0:0:
192,192,109696,1,0,0:0:0:0:
448,192,109696,1,0,0:0:0:0:
320,192,109832,1,0,0:0:0:0:
64,192,109832,1,0,0:0:0:0:
192,192,109832,1,0,0:0:0:0:
448,192,109832,1,0,0:0:0:0:
64,192,109969,1,0,0:0:0:0:
320,192,109969,1,0,0:0:0:0:
192,192,109969,1,0,0:0:0:0:
192,192,110105,1,0,0:0:0:0:
320,192,110105,1,0,0:0:0:0:
448,192,110105,1,0,0:0:0:0:
192,192,110241,1,0,0:0:0:0:
64,192,110241,1,0,0:0:0:0:
320,192,110241,1,0,0:0:0:0:
448,192,110241,1,0,0:0:0:0:
192,192,110378,1,0,0:0:0:0:
320,192,110378,1,0,0:0:0:0:
64,192,110378,1,0,0:0:0:0:
192,192,110514,1,0,0:0:0:0:
320,192,110514,1,0,0:0:0:0:
448,192,110514,1,0,0:0:0:0:
320,192,110650,1,0,0:0:0:0:
192,192,110650,1,0,0:0:0:0:
64,192,110650,1,0,0:0:0:0:
448,192,110650,1,0,0:0:0:0:
64,192,110787,1,0,0:0:0:0:
448,192,110787,1,0,0:0:0:0:
192,192,110855,1,0,0:0:0:0:
320,192,110855,1,0,0:0:0:0:
64,192,110923,1,0,0:0:0:0:
448,192,110923,1,0,0:0:0:0:
192,192,110991,1,0,0:0:0:0:
320,192,110991,1,0,0:0:0:0:
64,192,111060,1,0,0:0:0:0:
448,192,111060,1,0,0:0:0:0:
192,192,111128,1,0,0:0:0:0:
320,192,111128,1,0,0:0:0:0:
64,192,111196,1,0,0:0:0:0:
448,192,111196,1,0,0:0:0:0:
192,192,111264,1,0,0:0:0:0:
320,192,111264,1,0,0:0:0:0:
64,192,111332,1,0,0:0:0:0:
448,192,111332,1,0,0:0:0:0:
64,192,111469,1,0,0:0:0:0:
192,192,111469,1,0,0:0:0:0:
448,192,111469,1,0,0:0:0:0:
320,192,111605,1,0,0:0:0:0:
64,192,111605,1,0,0:0:0:0:
448,192,111605,1,0,0:0:0:0:
64,192,111741,1,0,0:0:0:0:
320,192,111741,1,0,0:0:0:0:
192,192,111741,1,0,0:0:0:0:
448,192,111741,1,0,0:0:0:0:
192,192,111878,1,0,0:0:0:0:
64,192,111878,1,0,0:0:0:0:
448,192,111878,1,0,0:0:0:0:
64,192,112014,1,0,0:0:0:0:
320,192,112014,1,0,0:0:0:0:
448,192,112014,1,0,0:0:0:0:
192,192,112150,1,0,0:0:0:0:
320,192,112150,1,0,0:0:0:0:
64,192,112150,1,0,0:0:0:0:
448,192,112150,1,0,0:0:0:0:
64,192,112287,1,0,0:0:0:0:
192,192,112287,1,0,0:0:0:0:
448,192,112287,1,0,0:0:0:0:
320,192,112423,1,0,0:0:0:0:
64,192,112423,1,0,0:0:0:0:
448,192,112423,1,0,0:0:0:0:
64,192,112560,1,0,0:0:0:0:
320,192,112560,1,0,0:0:0:0:
192,192,112560,1,0,0:0:0:0:
448,192,112560,1,0,0:0:0:0:
192,192,112696,1,0,0:0:0:0:
64,192,112696,1,0,0:0:0:0:
448,192,112696,1,0,0:0:0:0:
64,192,112832,1,0,0:0:0:0:
320,192,112832,1,0,0:0:0:0:
448,192,112832,1,0,0:0:0:0:
64,192,112969,1,0,0:0:0:0:
320,192,112969,1,0,0:0:0:0:
192,192,113037,1,0,0:0:0:0:
448,192,113037,1,0,0:0:0:0:
64,192,113105,1,0,0:0:0:0:
320,192,113105,1,0,0:0:0:0:
192,192,113173,1,0,0:0:0:0:
448,192,113173,1,0,0:0:0:0:
64,192,113241,1,0,0:0:0:0:
320,192,113241,1,0,0:0:0:0:
192,192,113310,1,0,0:0:0:0:
448,192,113310,1,0,0:0:0:0:
64,192,113378,1,0,0:0:0:0:
320,192,113378,1,0,0:0:0:0:
192,192,113446,1,0,0:0:0:0:
448,192,113446,1,0,0:0:0:0:
64,192,113514,1,0,0:0:0:0:
320,192,113514,1,0,0:0:0:0:
64,192,113650,1,0,0:0:0:0:
320,192,113650,1,0,0:0:0:0:
448,192,113650,1,0,0:0:0:0:
192,192,113787,1,0,0:0:0:0:
64,192,113787,1,0,0:0:0:0:
448,192,113787,1,0,0:0:0:0:
192,192,113923,1,0,0:0:0:0:
320,192,113923,1,0,0:0:0:0:
64,192,113923,1,0,0:0:0:0:
448,192,113923,1,0,0:0:0:0:
320,192,114060,1,0,0:0:0:0:
64,192,114060,1,0,0:0:0:0:
448,192,114060,1,0,0:0:0:0:
64,192,114196,1,0,0:0:0:0:
192,192,114196,1,0,0:0:0:0:
448,192,114196,1,0,0:0:0:0:
64,192,114332,1,0,0:0:0:0:
320,192,114332,1,0,0:0:0:0:
192,192,114332,1,0,0:0:0:0:
448,192,114332,1,0,0:0:0:0:
64,192,114469,1,0,0:0:0:0:
320,192,114469,1,0,0:0:0:0:
448,192,114469,1,0,0:0:0:0:
192,192,114605,1,0,0:0:0:0:
64,192,114605,1,0,0:0:0:0:
448,192,114605,1,0,0:0:0:0:
192,192,114741,1,0,0:0:0:0:
320,192,114741,1,0,0:0:0:0:
64,192,114741,1,0,0:0:0:0:
448,192,114741,1,0,0:0:0:0:
320,192,114878,1,0,0:0:0:0:
64,192,114878,1,0,0:0:0:0:
448,192,114878,1,0,0:0:0:0:
64,192,115014,1,0,0:0:0:0:
192,192,115014,1,0,0:0:0:0:
448,192,115014,1,0,0:0:0:0:
448,192,115150,128,0,115287:0:0:0:0:
320,192,115423,128,0,115560:0:0:0:0:
64,192,115696,128,0,116105:0:0:0:0:
192,192,116332,128,0,118878:0:0:0:0:
448,192,117332,128,0,117605:0:0:0:0:
64,192,117423,1,0,0:0:0:0:
64,192,117514,1,0,0:0:0:0:
320,192,117605,128,0,117878:0:0:0:0:
64,192,117696,1,0,0:0:0:0:
448,192,117787,1,0,0:0:0:0:
64,192,117878,1,0,0:0:0:0:
448,192,117969,1,0,0:0:0:0:
320,192,118060,1,0,0:0:0:0:
64,192,118150,1,0,0:0:0:0:
320,192,118241,1,0,0:0:0:0:
64,192,118332,1,0,0:0:0:0:
448,192,118423,1,0,0:0:0:0:
64,192,118514,1,0,0:0:0:0:
320,192,118605,1,0,0:0:0:0:
64,192,118696,1,0,0:0:0:0:
320,192,118787,1,0,0:0:0:0:
448,192,118878,1,0,0:0:0:0:
