osu file format v14

[General]
AudioFilename: audio.mp3
AudioLeadIn: 0
PreviewTime: 88900
Countdown: 0
SampleSet: Normal
StackLeniency: 0.7
Mode: 3
LetterboxInBreaks: 0
SpecialStyle: 0
WidescreenStoryboard: 1

[Editor]
DistanceSpacing: 1.2
BeatDivisor: 4
GridSize: 4
TimelineZoom: 1.5

[Metadata]
Title:EmbryO
TitleUnicode:ΣmbryØ
Artist:Kabocha
ArtistUnicode:かぼちゃ
Creator:Fresh Chicken
Version:BASIC
Source:SOUND VOLTEX IV HEAVENLY HAVEN
Tags:sdvx 4 The 8th KONAMI Arcade Championship KAC オリジナル楽曲コンテスト 最優秀賞品 蒼弐 ΩDimension Phase 6 video game instrumental BEMANI Electronic
BeatmapID:1937105
BeatmapSetID:925317

[Difficulty]
HPDrainRate:7
CircleSize:4
OverallDifficulty:7
ApproachRate:5
SliderMultiplier:1.4
SliderTickRate:1

[Events]
//Background and Video events
0,0,"unknow.jpg",0,0
//Break Periods
2,73282,81427
//Storyboard Layer 0 (Background)
//Storyboard Layer 1 (Fail)
//Storyboard Layer 2 (Pass)
//Storyboard Layer 3 (Foreground)
//Storyboard Layer 4 (Overlay)
//Storyboard Sound Samples
Sample,7354,0,"LR_Drum_Hit_P.wav",50
Sample,46900,0,"CrashL.wav",50
Sample,51263,0,"CrashL.wav",50
Sample,56172,0,"LR_Drum_Hit_P.wav",50
Sample,57263,0,"LR_Drum_Hit_P.wav",50
Sample,58354,0,"LR_Drum_Hit_P.wav",50
Sample,59445,0,"LR_Drum_Hit_P.wav",50
Sample,60536,0,"LR_Drum_Hit_P.wav",50
Sample,61627,0,"LR_Drum_Hit_P.wav",50
Sample,65991,0,"LR_Drum_Hit_P.wav",50
Sample,67082,0,"LR_Drum_Hit_P.wav",50
Sample,68172,0,"LR_Drum_Hit_P.wav",50
Sample,69263,0,"LR_Drum_Hit_P.wav",50
Sample,89991,0,"LR_Drum_Hit_P.wav",50
Sample,90536,0,"CrashL.wav",50
Sample,92172,0,"BaSSs.wav",50
Sample,92445,0,"BaSSs.wav",50
Sample,92718,0,"BaSSs.wav",50
Sample,94354,0,"LR_Drum_Hit_P.wav",50
Sample,94900,0,"CrashL.wav",50
Sample,97082,0,"BaSSs.wav",50
Sample,107991,0,"CrashL.wav",50
Sample,109627,0,"BaSSs.wav",50
Sample,110172,0,"LR_Drum_Hit_P.wav",50
Sample,111809,0,"BaSSs.wav",50
Sample,112354,0,"BaSSs.wav",50
Sample,113991,0,"LR_Drum_Hit_P.wav",50
Sample,114536,0,"LR_Drum_Hit_P.wav",50

[TimingPoints]
1082,272.727272727273,4,1,1,40,1,0
90536,-100,4,1,1,40,0,1
98718,-100,4,1,1,40,0,0
99263,-100,4,1,1,40,0,1
107445,-100,4,1,1,40,0,0
107991,-100,4,1,1,40,0,1
116172,-100,4,1,1,40,0,0

[HitObjects]
64,192,1082,5,0,0:0:0:0:
192,192,1082,128,0,2718:0:0:0:0:
448,192,3263,1,0,0:0:0:50:LR_Drum_Hit_P.wav
64,192,3263,1,0,0:0:0:0:
320,192,3536,1,0,0:0:0:0:
448,192,3672,1,0,0:0:0:50:LR_Drum_Hit_P.wav
192,192,3945,1,0,0:0:0:0:
64,192,4082,1,0,0:0:0:50:LR_Drum_Hit_P.wav
320,192,4354,1,0,0:0:0:0:
448,192,4491,1,0,0:0:0:50:LR_Drum_Hit_P.wav
192,192,4763,1,0,0:0:0:0:
320,192,4900,1,0,0:0:0:50:LR_Drum_Hit_P.wav
192,192,5172,1,0,0:0:0:50:LR_Drum_Hit_P.wav
64,192,5445,1,0,0:0:0:50:LR_Drum_Hit_P.wav
448,192,5445,1,0,0:0:0:0:
192,192,5718,1,0,0:0:0:0:
64,192,5854,1,0,0:0:0:50:LR_Drum_Hit_P.wav
320,192,6127,1,0,0:0:0:0:
448,192,6263,1,0,0:0:0:50:LR_Drum_Hit_P.wav
192,192,6536,1,0,0:0:0:0:
64,192,6672,1,0,0:0:0:50:LR_Drum_Hit_P.wav
320,192,6945,1,0,0:0:0:0:
192,192,7082,1,0,0:0:0:50:LR_Drum_Hit_P.wav
320,192,7354,1,0,0:0:0:70:CrashS.wav
448,192,7627,128,0,8172:0:0:0:0:
64,192,8172,128,0,8718:0:0:0:0:
320,192,8718,128,0,9263:0:0:0:0:
192,192,9263,128,0,9809:0:0:0:0:
448,192,9809,1,0,0:0:0:20:LR_Drum_Hit_P.wav
448,192,10082,1,0,0:0:0:20:LR_Drum_Hit_P.wav
320,192,10354,1,0,0:0:0:30:LR_Drum_Hit_P.wav
320,192,10627,1,0,0:0:0:30:LR_Drum_Hit_P.wav
192,192,10900,1,0,0:0:0:40:LR_Drum_Hit_P.wav
192,192,11172,128,0,11445:0:0:0:40:LR_Drum_Hit_P.wav
64,192,11445,128,0,11991:0:0:0:0:
448,192,11991,1,0,0:0:0:50:BaSSs.wav
192,192,11991,1,0,0:0:0:50:CrashL.wav
320,192,12263,1,0,0:0:0:50:LR_Drum_Hit_P.wav
64,192,12536,1,0,0:0:0:50:BaSSs.wav
448,192,12809,1,0,0:0:0:50:LR_Drum_Hit_P.wav
192,192,12945,1,0,0:0:0:50:BaSSs.wav
64,192,13082,1,0,0:0:0:50:BaSSs.wav
320,192,13354,1,0,0:0:0:50:LR_Drum_Hit_P.wav
192,192,13627,1,0,0:0:0:50:BaSSs.wav
320,192,13900,1,0,0:0:0:50:LR_Drum_Hit_P.wav
448,192,14036,1,0,0:0:0:50:BaSSs.wav
64,192,14172,1,0,0:0:0:50:BaSSs.wav
192,192,14445,1,0,0:0:0:50:LR_Drum_Hit_P.wav
448,192,14718,1,0,0:0:0:50:BaSSs.wav
320,192,14991,1,0,0:0:0:50:LR_Drum_Hit_P.wav
192,192,15127,1,0,0:0:0:50:BaSSs.wav
64,192,15263,1,0,0:0:0:50:BaSSs.wav
448,192,15536,1,0,0:0:0:50:LR_Drum_Hit_P.wav
192,192,15809,1,0,0:0:0:50:BaSSs.wav
320,192,16082,1,0,0:0:0:50:LR_Drum_Hit_P.wav
64,192,16218,1,0,0:0:0:50:BaSSs.wav
448,192,16354,1,0,0:0:0:50:CrashL.wav
192,192,16627,1,0,0:0:0:50:LR_Drum_Hit_P.wav
320,192,16900,1,0,0:0:0:50:BaSSs.wav
64,192,17172,1,0,0:0:0:50:LR_Drum_Hit_P.wav
192,192,17309,1,0,0:0:0:50:BaSSs.wav
448,192,17445,1,0,0:0:0:50:BaSSs.wav
192,192,17718,1,0,0:0:0:50:LR_Drum_Hit_P.wav
320,192,17991,1,0,0:0:0:50:BaSSs.wav
192,192,18263,1,0,0:0:0:50:LR_Drum_Hit_P.wav
64,192,18400,1,0,0:0:0:50:BaSSs.wav
448,192,18536,1,0,0:0:0:50:BaSSs.wav
320,192,18809,1,0,0:0:0:50:LR_Drum_Hit_P.wav
64,192,19082,1,0,0:0:0:50:BaSSs.wav
192,192,19354,1,0,0:0:0:50:LR_Drum_Hit_P.wav
320,192,19491,1,0,0:0:0:50:BaSSs.wav
448,192,19627,1,0,0:0:0:50:BaSSs.wav
64,192,19900,1,0,0:0:0:50:LR_Drum_Hit_P.wav
320,192,20172,1,0,0:0:0:50:LR_Drum_Hit_P.wav
448,192,20309,1,0,0:0:0:50:LR_Drum_Hit_P.wav
192,192,20445,1,0,0:0:0:50:LR_Drum_Hit_P.wav
64,192,20582,1,0,0:0:0:50:LR_Drum_Hit_P.wav
448,192,20718,128,0,20991:0:0:0:50:BaSSs.wav
192,192,20991,1,0,0:0:0:50:LR_Drum_Hit_P.wav
320,192,21263,128,0,21536:0:0:0:50:BaSSs.wav
64,192,21536,1,0,0:0:0:50:LR_Drum_Hit_P.wav
448,192,21809,128,0,22082:0:0:0:50:BaSSs.wav
192,192,22082,128,0,22354:0:0:0:50:LR_Drum_Hit_P.wav
320,192,22354,128,0,22627:0:0:0:50:BaSSs.wav
64,192,22627,128,0,22900:0:0:0:50:LR_Drum_Hit_P.wav
192,192,22900,128,0,23172:0:0:0:50:BaSSs.wav
320,192,23172,1,0,0:0:0:50:LR_Drum_Hit_P.wav
64,192,23445,128,0,23718:0:0:0:50:BaSSs.wav
448,192,23718,1,0,0:0:0:50:LR_Drum_Hit_P.wav
192,192,23991,128,0,24263:0:0:0:50:BaSSs.wav
320,192,24263,128,0,24536:0:0:0:50:LR_Drum_Hit_P.wav
64,192,24536,128,0,25082:0:0:0:50:BaSSs.wav
192,192,24809,128,0,25082:0:0:0:0:
448,192,25082,128,0,25354:0:0:0:50:BaSSs.wav
192,192,25354,1,0,0:0:0:50:LR_Drum_Hit_P.wav
320,192,25627,128,0,25900:0:0:0:50:BaSSs.wav
64,192,25900,1,0,0:0:0:50:LR_Drum_Hit_P.wav
448,192,26172,128,0,26445:0:0:0:50:BaSSs.wav
192,192,26445,128,0,26718:0:0:0:50:LR_Drum_Hit_P.wav
320,192,26718,128,0,26991:0:0:0:50:BaSSs.wav
64,192,26991,128,0,27263:0:0:0:50:LR_Drum_Hit_P.wav
192,192,27263,128,0,27536:0:0:0:50:BaSSs.wav
320,192,27536,1,0,0:0:0:50:LR_Drum_Hit_P.wav
64,192,27809,128,0,28082:0:0:0:50:BaSSs.wav
448,192,28082,1,0,0:0:0:50:LR_Drum_Hit_P.wav
320,192,28354,1,0,0:0:0:50:CrashS.wav
192,192,28354,1,0,0:0:0:0:
320,192,28763,1,0,0:0:0:50:CrashS.wav
192,192,28763,1,0,0:0:0:0:
320,192,29172,128,0,29445:0:0:0:0:
64,192,29445,1,0,0:0:0:50:CrashL.wav
192,192,29718,1,0,0:0:0:50:LR_Drum_Hit_P.wav
320,192,29991,128,0,30263:0:0:0:50:BaSSs.wav
192,192,30263,1,0,0:0:0:50:LR_Drum_Hit_P.wav
448,192,30536,128,0,30809:0:0:0:50:BaSSs.wav
64,192,30809,128,0,31082:0:0:0:50:LR_Drum_Hit_P.wav
320,192,31082,128,0,31354:0:0:0:50:BaSSs.wav
192,192,31354,128,0,31627:0:0:0:50:LR_Drum_Hit_P.wav
64,192,31627,1,0,0:0:0:50:BaSSs.wav
192,192,31900,1,0,0:0:0:50:LR_Drum_Hit_P.wav
448,192,32172,128,0,32445:0:0:0:50:BaSSs.wav
320,192,32445,1,0,0:0:0:50:LR_Drum_Hit_P.wav
64,192,32718,128,0,32991:0:0:0:50:BaSSs.wav
192,192,32991,128,0,33263:0:0:0:50:LR_Drum_Hit_P.wav
448,192,33263,128,0,33809:0:0:0:50:BaSSs.wav
320,192,33536,128,0,33809:0:0:0:0:
64,192,33809,1,0,0:0:0:50:CrashL.wav
192,192,34082,1,0,0:0:0:50:LR_Drum_Hit_P.wav
320,192,34354,128,0,34627:0:0:0:50:BaSSs.wav
192,192,34627,1,0,0:0:0:50:LR_Drum_Hit_P.wav
448,192,34900,128,0,35172:0:0:0:50:BaSSs.wav
64,192,35172,128,0,35445:0:0:0:50:LR_Drum_Hit_P.wav
320,192,35445,128,0,35718:0:0:0:50:BaSSs.wav
192,192,35718,128,0,35991:0:0:0:50:LR_Drum_Hit_P.wav
64,192,35991,1,0,0:0:0:50:BaSSs.wav
192,192,36263,1,0,0:0:0:50:LR_Drum_Hit_P.wav
448,192,36536,128,0,36809:0:0:0:50:BaSSs.wav
320,192,36809,1,0,0:0:0:50:LR_Drum_Hit_P.wav
192,192,37082,1,0,0:0:0:50:LR_Drum_Hit_P.wav
192,192,37354,1,0,0:0:0:50:LR_Drum_Hit_P.wav
320,192,37627,1,0,0:0:0:50:LR_Drum_Hit_P.wav
448,192,37900,1,0,0:0:0:50:LR_Drum_Hit_P.wav
64,192,37900,1,0,0:0:0:50:BaSSs.wav
320,192,38172,1,0,0:0:0:50:CrashL.wav
192,192,38445,1,0,0:0:0:50:LR_Drum_Hit_P.wav
448,192,38718,1,0,0:0:0:50:BaSSs.wav
192,192,38991,1,0,0:0:0:50:LR_Drum_Hit_P.wav
320,192,39263,128,0,39536:0:0:0:50:LR_Drum_Hit_P.wav
64,192,39536,128,0,39809:0:0:0:50:LR_Drum_Hit_P.wav
448,192,39809,128,0,40082:0:0:0:50:BaSSs.wav
192,192,40082,128,0,40354:0:0:0:50:LR_Drum_Hit_P.wav
448,192,40354,1,0,0:0:0:50:LR_Drum_Hit_P.wav
192,192,40627,1,0,0:0:0:50:LR_Drum_Hit_P.wav
320,192,40900,1,0,0:0:0:50:BaSSs.wav
192,192,41172,1,0,0:0:0:50:LR_Drum_Hit_P.wav
448,192,41445,1,0,0:0:0:50:LR_Drum_Hit_P.wav
64,192,41718,128,0,41991:0:0:0:50:LR_Drum_Hit_P.wav
192,192,41991,1,0,0:0:0:50:BaSSs.wav
192,192,42263,1,0,0:0:0:50:LR_Drum_Hit_P.wav
320,192,42536,1,0,0:0:0:50:CrashL.wav
192,192,42809,1,0,0:0:0:50:LR_Drum_Hit_P.wav
448,192,43082,1,0,0:0:0:50:BaSSs.wav
192,192,43354,1,0,0:0:0:50:LR_Drum_Hit_P.wav
320,192,43627,128,0,43900:0:0:0:50:LR_Drum_Hit_P.wav
64,192,43900,128,0,44172:0:0:0:50:LR_Drum_Hit_P.wav
448,192,44172,128,0,44445:0:0:0:50:BaSSs.wav
192,192,44445,128,0,44718:0:0:0:50:LR_Drum_Hit_P.wav
448,192,44718,1,0,0:0:0:50:LR_Drum_Hit_P.wav
192,192,44991,1,0,0:0:0:50:LR_Drum_Hit_P.wav
320,192,45263,1,0,0:0:0:50:BaSSs.wav
192,192,45536,1,0,0:0:0:50:LR_Drum_Hit_P.wav
448,192,45809,1,0,0:0:0:50:LR_Drum_Hit_P.wav
64,192,46082,128,0,46354:0:0:0:50:LR_Drum_Hit_P.wav
192,192,46354,1,0,0:0:0:50:BaSSs.wav
192,192,46627,1,0,0:0:0:50:LR_Drum_Hit_P.wav
448,192,46900,1,0,0:0:0:50:LR_Drum_Hit_P.wav
320,192,47172,1,0,0:0:0:50:LR_Drum_Hit_P.wav
64,192,47445,1,0,0:0:0:50:LR_Drum_Hit_P.wav
320,192,47718,1,0,0:0:0:50:LR_Drum_Hit_P.wav
192,192,47991,128,0,48263:0:0:0:50:LR_Drum_Hit_P.wav
448,192,48263,128,0,48536:0:0:0:50:LR_Drum_Hit_P.wav
64,192,48536,128,0,48809:0:0:0:50:LR_Drum_Hit_P.wav
320,192,48809,128,0,49082:0:0:0:50:LR_Drum_Hit_P.wav
64,192,49082,1,0,0:0:0:50:LR_Drum_Hit_P.wav
320,192,49354,1,0,0:0:0:50:LR_Drum_Hit_P.wav
192,192,49627,1,0,0:0:0:50:LR_Drum_Hit_P.wav
448,192,49900,1,0,0:0:0:50:LR_Drum_Hit_P.wav
64,192,50172,1,0,0:0:0:50:LR_Drum_Hit_P.wav
448,192,50445,128,0,50718:0:0:0:50:LR_Drum_Hit_P.wav
320,192,50718,1,0,0:0:0:50:LR_Drum_Hit_P.wav
320,192,50991,1,0,0:0:0:50:LR_Drum_Hit_P.wav
64,192,51263,1,0,0:0:0:50:BaSSs.wav
192,192,51400,1,0,0:0:0:50:BaSSs.wav
320,192,51536,1,0,0:0:0:50:LR_Drum_Hit_P.wav
448,192,51809,1,0,0:0:0:50:BaSSs.wav
64,192,51945,1,0,0:0:0:50:BaSSs.wav
192,192,52082,1,0,0:0:0:50:LR_Drum_Hit_P.wav
64,192,52354,1,0,0:0:0:50:BaSSs.wav
320,192,52491,1,0,0:0:0:50:BaSSs.wav
192,192,52627,1,0,0:0:0:50:LR_Drum_Hit_P.wav
64,192,52900,1,0,0:0:0:50:BaSSs.wav
448,192,53036,1,0,0:0:0:50:BaSSs.wav
320,192,53172,1,0,0:0:0:50:LR_Drum_Hit_P.wav
64,192,53445,1,0,0:0:0:50:BaSSs.wav
448,192,53582,1,0,0:0:0:50:BaSSs.wav
64,192,53718,1,0,0:0:0:50:BaSSs.wav
448,192,53991,1,0,0:0:0:50:BaSSs.wav
64,192,54127,1,0,0:0:0:50:BaSSs.wav
448,192,54263,1,0,0:0:0:50:BaSSs.wav
448,192,55082,1,0,0:0:0:50:LR_Drum_Hit_P.wav
64,192,55082,1,0,0:0:0:0:
320,192,55354,1,0,0:0:0:50:BaSSs.wav
192,192,55627,128,0,56172:0:0:0:50:BaSSs.wav
320,192,56172,128,0,56445:0:0:0:50:BaSSs.wav
64,192,56718,128,0,57263:0:0:0:50:BaSSs.wav
448,192,57263,128,0,57536:0:0:0:50:BaSSs.wav
192,192,57809,1,0,0:0:0:50:BaSSs.wav
192,192,58082,1,0,0:0:0:0:
448,192,58354,128,0,58627:0:0:0:50:BaSSs.wav
64,192,58627,1,0,0:0:0:50:BaSSs.wav
64,192,58900,1,0,0:0:0:0:
192,192,59172,128,0,59445:0:0:0:0:
448,192,59445,128,0,59718:0:0:0:50:BaSSs.wav
320,192,59718,1,0,0:0:0:50:BaSSs.wav
192,192,59991,128,0,60536:0:0:0:50:BaSSs.wav
448,192,60536,128,0,60809:0:0:0:50:BaSSs.wav
64,192,61082,128,0,61627:0:0:0:0:
320,192,61627,128,0,61900:0:0:0:50:BaSSs.wav
64,192,62172,1,0,0:0:0:50:BaSSs.wav
192,192,62309,1,0,0:0:0:50:LR_Drum_Hit_P.wav
448,192,62582,1,0,0:0:0:50:BaSSs.wav
320,192,62718,1,0,0:0:0:50:LR_Drum_Hit_P.wav
64,192,62991,1,0,0:0:0:50:BaSSs.wav
192,192,63127,1,0,0:0:0:50:LR_Drum_Hit_P.wav
448,192,63400,1,0,0:0:0:50:BaSSs.wav
320,192,63536,1,0,0:0:0:50:LR_Drum_Hit_P.wav
64,192,63809,1,0,0:0:0:50:LR_Drum_Hit_P.wav
192,192,63945,1,0,0:0:0:50:BaSSs.wav
448,192,64354,128,0,65445:0:0:0:50:BaSSs.wav
320,192,64900,128,0,65445:0:0:0:0:
192,192,65445,128,0,65991:0:0:0:50:BaSSs.wav
64,192,65991,128,0,66263:0:0:0:50:BaSSs.wav
320,192,66536,1,0,0:0:0:50:BaSSs.wav
320,192,66809,1,0,0:0:0:0:
64,192,67082,128,0,67354:0:0:0:50:BaSSs.wav
448,192,67354,1,0,0:0:0:50:BaSSs.wav
448,192,67627,1,0,0:0:0:0:
320,192,67900,128,0,68172:0:0:0:0:
64,192,68172,128,0,68445:0:0:0:50:BaSSs.wav
192,192,68445,1,0,0:0:0:50:BaSSs.wav
320,192,68718,128,0,69263:0:0:0:50:BaSSs.wav
64,192,69263,128,0,69536:0:0:0:50:BaSSs.wav
448,192,69809,128,0,70627:0:0:0:50:BaSSs.wav
448,192,70900,1,0,0:0:0:50:BaSSs.wav
320,192,71036,1,0,0:0:0:50:LR_Drum_Hit_P.wav
64,192,71309,1,0,0:0:0:50:BaSSs.wav
192,192,71445,1,0,0:0:0:50:LR_Drum_Hit_P.wav
448,192,71718,1,0,0:0:0:50:BaSSs.wav
320,192,71854,1,0,0:0:0:50:LR_Drum_Hit_P.wav
64,192,72127,1,0,0:0:0:50:BaSSs.wav
192,192,72263,1,0,0:0:0:50:LR_Drum_Hit_P.wav
448,192,72536,1,0,0:0:0:50:BaSSs.wav
320,192,72672,1,0,0:0:0:50:LR_Drum_Hit_P.wav
192,192,73082,1,0,0:0:0:50:BaSSs.wav
64,192,73082,1,0,0:0:0:0:
64,192,82627,5,0,0:0:0:0:
192,192,82900,1,0,0:0:0:0:
448,192,83445,1,0,0:0:0:0:
320,192,83991,1,0,0:0:0:0:
192,192,84536,1,0,0:0:0:0:
448,192,85082,1,0,0:0:0:0:
64,192,85627,1,0,0:0:0:0:
320,192,86172,1,0,0:0:0:0:
448,192,86718,1,0,0:0:0:0:
320,192,87263,1,0,0:0:0:0:
192,192,87468,1,0,0:0:0:0:
64,192,89445,1,0,0:0:0:0:
192,192,89718,1,0,0:0:0:0:
320,192,89991,128,0,90263:0:0:0:50:BaSSs.wav
448,192,90263,128,0,90536:0:0:0:50:BaSSs.wav
64,192,90536,1,0,0:0:0:50:BaSSs.wav
320,192,90809,1,0,0:0:0:50:LR_Drum_Hit_P.wav
192,192,90945,1,0,0:0:0:50:BaSSs.wav
448,192,91218,1,0,0:0:0:50:LR_Drum_Hit_P.wav
320,192,91354,1,0,0:0:0:50:BaSSs.wav
64,192,91627,1,0,0:0:0:50:LR_Drum_Hit_P.wav
192,192,91763,1,0,0:0:0:50:BaSSs.wav
448,192,92036,1,0,0:0:0:50:LR_Drum_Hit_P.wav
320,192,92172,128,0,92445:0:0:0:50:LR_Drum_Hit_P.wav
192,192,92445,128,0,92718:0:0:0:50:LR_Drum_Hit_P.wav
448,192,92718,1,0,0:0:0:50:CrashL.wav
192,192,92991,1,0,0:0:0:50:LR_Drum_Hit_P.wav
320,192,93127,1,0,0:0:0:50:BaSSs.wav
64,192,93400,1,0,0:0:0:50:LR_Drum_Hit_P.wav
192,192,93536,1,0,0:0:0:50:BaSSs.wav
448,192,93809,1,0,0:0:0:50:LR_Drum_Hit_P.wav
320,192,93945,1,0,0:0:0:50:BaSSs.wav
64,192,94218,1,0,0:0:0:50:LR_Drum_Hit_P.wav
192,192,94354,128,0,94627:0:0:0:50:BaSSs.wav
320,192,94627,128,0,94900:0:0:0:50:BaSSs.wav
64,192,94900,1,0,0:0:0:50:BaSSs.wav
192,192,95172,1,0,0:0:0:50:BaSSs.wav
64,192,95309,1,0,0:0:0:50:LR_Drum_Hit_P.wav
320,192,95582,1,0,0:0:0:50:LR_Drum_Hit_P.wav
448,192,95718,1,0,0:0:0:50:BaSSs.wav
192,192,95991,1,0,0:0:0:50:BaSSs.wav
320,192,96127,1,0,0:0:0:50:LR_Drum_Hit_P.wav
64,192,96400,1,0,0:0:0:50:LR_Drum_Hit_P.wav
192,192,96536,1,0,0:0:0:50:BaSSs.wav
320,192,96741,1,0,0:0:0:0:
448,192,96945,1,0,0:0:0:50:LR_Drum_Hit_P.wav
64,192,97082,128,0,97627:0:0:0:50:CrashL.wav
192,192,97627,128,0,98172:0:0:0:50:BaSSs.wav
448,192,98172,1,0,0:0:0:50:BaSSs.wav
448,192,98445,1,0,0:0:0:50:LR_Drum_Hit_P.wav
192,192,98718,1,0,0:0:0:50:LR_Drum_Hit_P.wav
192,192,98991,1,0,0:0:0:50:LR_Drum_Hit_P.wav
448,192,99263,1,0,0:0:0:50:BaSSs.wav
448,192,99536,1,0,0:0:0:50:BaSSs.wav
320,192,99672,1,0,0:0:0:50:LR_Drum_Hit_P.wav
192,192,99809,1,0,0:0:0:50:BaSSs.wav
64,192,100082,1,0,0:0:0:50:BaSSs.wav
64,192,100354,1,0,0:0:0:50:BaSSs.wav
192,192,100491,1,0,0:0:0:50:LR_Drum_Hit_P.wav
320,192,100627,1,0,0:0:0:50:BaSSs.wav
64,192,100900,128,0,101172:0:0:0:50:BaSSs.wav
448,192,101172,128,0,101445:0:0:0:50:BaSSs.wav
192,192,101445,1,0,0:0:0:50:BaSSs.wav
192,192,101718,1,0,0:0:0:50:BaSSs.wav
320,192,101854,1,0,0:0:0:50:LR_Drum_Hit_P.wav
64,192,101991,1,0,0:0:0:50:BaSSs.wav
320,192,102263,1,0,0:0:0:50:BaSSs.wav
320,192,102536,1,0,0:0:0:50:BaSSs.wav
448,192,102672,1,0,0:0:0:50:LR_Drum_Hit_P.wav
192,192,102809,1,0,0:0:0:50:BaSSs.wav
320,192,103082,128,0,103354:0:0:0:50:BaSSs.wav
192,192,103354,128,0,103627:0:0:0:50:BaSSs.wav
448,192,103627,1,0,0:0:0:50:BaSSs.wav
448,192,103900,1,0,0:0:0:50:BaSSs.wav
192,192,104036,1,0,0:0:0:50:LR_Drum_Hit_P.wav
448,192,104172,1,0,0:0:0:50:BaSSs.wav
64,192,104445,1,0,0:0:0:50:BaSSs.wav
64,192,104718,1,0,0:0:0:50:BaSSs.wav
320,192,104854,1,0,0:0:0:50:LR_Drum_Hit_P.wav
64,192,104991,1,0,0:0:0:50:BaSSs.wav
448,192,105263,1,0,0:0:0:50:BaSSs.wav
320,192,105468,1,0,0:0:0:50:BaSSs.wav
192,192,105672,1,0,0:0:0:50:LR_Drum_Hit_P.wav
64,192,105809,128,0,106354:0:0:0:50:BaSSs.wav
192,192,106354,128,0,106900:0:0:0:50:BaSSs.wav
448,192,106900,1,0,0:0:0:50:BaSSs.wav
448,192,107172,1,0,0:0:0:50:LR_Drum_Hit_P.wav
192,192,107445,1,0,0:0:0:50:LR_Drum_Hit_P.wav
192,192,107718,1,0,0:0:0:50:LR_Drum_Hit_P.wav
320,192,107991,1,0,0:0:0:50:BaSSs.wav
64,192,107991,1,0,0:0:0:50:LR_Drum_Hit_P.wav
448,192,108400,1,0,0:0:0:50:LR_Drum_Hit_P.wav
192,192,108400,1,0,0:0:0:50:BaSSs.wav
320,192,108809,1,0,0:0:0:50:BaSSs.wav
64,192,108809,1,0,0:0:0:50:LR_Drum_Hit_P.wav
192,192,109218,1,0,0:0:0:50:BaSSs.wav
448,192,109218,1,0,0:0:0:50:LR_Drum_Hit_P.wav
320,192,109627,128,0,109900:0:0:0:50:LR_Drum_Hit_P.wav
192,192,109900,128,0,110172:0:0:0:50:LR_Drum_Hit_P.wav
448,192,110172,1,0,0:0:0:50:BaSSs.wav
64,192,110172,1,0,0:0:0:50:CrashL.wav
320,192,110582,1,0,0:0:0:50:LR_Drum_Hit_P.wav
192,192,110582,1,0,0:0:0:50:BaSSs.wav
448,192,110991,1,0,0:0:0:50:BaSSs.wav
64,192,110991,1,0,0:0:0:50:LR_Drum_Hit_P.wav
320,192,111400,1,0,0:0:0:50:BaSSs.wav
192,192,111400,1,0,0:0:0:50:LR_Drum_Hit_P.wav
64,192,111809,128,0,112082:0:0:0:50:LR_Drum_Hit_P.wav
448,192,112082,128,0,112354:0:0:0:50:LR_Drum_Hit_P.wav
192,192,112354,1,0,0:0:0:50:LR_Drum_Hit_P.wav
64,192,112354,1,0,0:0:0:50:CrashL.wav
320,192,112763,1,0,0:0:0:50:BaSSs.wav
448,192,112763,1,0,0:0:0:50:LR_Drum_Hit_P.wav
192,192,113172,1,0,0:0:0:50:LR_Drum_Hit_P.wav
64,192,113172,1,0,0:0:0:50:BaSSs.wav
320,192,113582,1,0,0:0:0:50:LR_Drum_Hit_P.wav
448,192,113582,1,0,0:0:0:50:BaSSs.wav
192,192,113991,128,0,114263:0:0:0:50:BaSSs.wav
320,192,114263,128,0,114536:0:0:0:50:LR_Drum_Hit_P.wav
448,192,114536,1,0,0:0:0:50:BaSSs.wav
64,192,114536,1,0,0:0:0:50:CrashL.wav
64,192,114945,1,0,0:0:0:50:LR_Drum_Hit_P.wav
448,192,114945,1,0,0:0:0:50:BaSSs.wav
448,192,115354,1,0,0:0:0:50:BaSSs.wav
64,192,115354,1,0,0:0:0:50:LR_Drum_Hit_P.wav
448,192,115763,1,0,0:0:0:50:BaSSs.wav
64,192,115763,1,0,0:0:0:50:LR_Drum_Hit_P.wav
192,192,116172,1,0,0:0:0:0:
320,192,116445,1,0,0:0:0:0:
64,192,116718,1,0,0:0:0:50:BaSSs.wav
448,192,116718,128,0,119991:0:0:0:50:CrashS.wav
64,192,118900,128,0,119991:0:0:0:0:
