osu file format v14

[General]
AudioFilename: audio.mp3
AudioLeadIn: 0
PreviewTime: 82392
Countdown: 0
SampleSet: None
StackLeniency: 0.7
Mode: 1
LetterboxInBreaks: 0
WidescreenStoryboard: 1

[Editor]
Bookmarks: 27434,43705,51841,68112,84383,100655,116926,117434,121502
DistanceSpacing: 1.2
BeatDivisor: 6
GridSize: 32
TimelineZoom: 5.899996

[Metadata]
Title:EgO
TitleUnicode:ΣgØ
Artist:Kabocha
ArtistUnicode:かぼちゃ
Creator:Capu
Version:radar's Maximum
Source:SOUND VOLTEX VIVID WAVE
Tags:hirok skull kid skid radar electronic instrumental dnb drum and bass rhythm game fast stream sdvx vvw
BeatmapID:2609689
BeatmapSetID:1156337

[Difficulty]
HPDrainRate:5
CircleSize:5
OverallDifficulty:7.5
ApproachRate:5
SliderMultiplier:1.4
SliderTickRate:1

[Events]
//Background and Video events
0,0,"12789641.jpeg",0,100
//Break Periods
2,68312,75048
//Storyboard Layer 0 (Background)
//Storyboard Layer 1 (Fail)
//Storyboard Layer 2 (Pass)
//Storyboard Layer 3 (Foreground)
//Storyboard Layer 4 (Overlay)
//Storyboard Sound Samples

[TimingPoints]
994,254.237288135593,4,1,0,20,1,0
2265,-100,4,1,0,30,0,0
2519,-100,4,1,0,40,0,0
3027,-100,4,1,0,80,0,0
19299,-102.040816326531,4,1,0,80,0,0
19362,-103.092783505155,4,1,0,80,0,0
19426,-104.166666666667,4,1,0,80,0,0
19553,-111.111111111111,4,1,0,80,0,0
27434,-100,4,1,0,80,0,0
51015,-105.263157894737,4,1,0,80,0,0
51269,-108.108108108108,4,1,0,80,0,0
51523,-111.111111111111,4,1,0,80,0,0
52095,-108.108108108108,4,1,0,80,0,0
52222,-105.263157894737,4,1,0,80,0,0
52349,-100,4,1,0,80,0,0
68239,-100,4,1,0,10,0,0
76184,-111.111111111111,4,1,0,50,0,0
80061,-109.89010989011,4,1,0,50,0,0
80125,-108.695652173913,4,1,0,50,0,0
80188,-107.52688172043,4,1,0,50,0,0
80252,-106.382978723404,4,1,0,50,0,0
80316,-105.263157894737,4,1,0,55,0,0
80443,-104.166666666667,4,1,0,55,0,0
80570,-103.092783505155,4,1,0,55,0,0
80697,-102.040816326531,4,1,0,57,0,0
80824,-101.010101010101,4,1,0,57,0,0
80951,-100,4,1,0,57,0,0
81078,-99.009900990099,4,1,0,59,0,0
81205,-98.0392156862745,4,1,0,59,0,0
81332,-97.0873786407767,4,1,0,61,0,0
81460,-96.1538461538461,4,1,0,61,0,0
81587,-95.2380952380952,4,1,0,63,0,0
81714,-94.3396226415094,4,1,0,63,0,0
81841,-93.4579439252336,4,1,0,65,0,0
81905,-92.5925925925926,4,1,0,65,0,0
81968,-91.743119266055,4,1,0,65,0,0
82032,-90.9090909090909,4,1,0,65,0,0
82095,-90.0900900900901,4,1,0,65,0,0
82159,-89.2857142857143,4,1,0,65,0,0
82222,-87.719298245614,4,1,0,65,0,0
82286,-86.9565217391304,4,1,0,65,0,0
82349,-86.2068965517241,4,1,0,65,0,0
83366,-111.111111111111,4,1,0,65,0,0
84129,-108.695652173913,4,1,0,65,0,0
84193,-106.382978723404,4,1,0,65,0,0
84256,-104.166666666667,4,1,0,65,0,0
84320,-102.040816326531,4,1,0,65,0,0
84383,-100,4,1,0,80,0,1
87943,-100,4,1,0,80,0,0
88451,-100,4,1,0,80,0,1
92265,-100,4,1,0,80,0,1
92519,-100,4,1,0,80,0,1
116926,-100,4,1,0,80,0,0
117434,-100,4,1,0,80,0,1
120993,-100,4,1,0,80,0,0

[HitObjects]
256,192,2010,12,0,2773,0:0:0:0:
94,257,3027,5,8,0:0:0:0:
94,257,3091,1,8,0:0:0:0:
94,257,3155,1,0,0:0:0:0:
94,257,3282,1,8,0:0:0:0:
94,257,3409,1,0,0:0:0:0:
94,257,3472,1,0,0:0:0:0:
94,257,3536,1,8,0:0:0:0:
94,257,3663,1,0,0:0:0:0:
94,257,3790,1,8,0:0:0:0:
94,257,3854,1,0,0:0:0:0:
94,257,3917,1,8,0:0:0:0:
94,257,4044,1,8,0:0:0:0:
94,257,4171,1,0,0:0:0:0:
94,257,4235,1,8,0:0:0:0:
94,257,4299,1,0,0:0:0:0:
94,257,4426,1,0,0:0:0:0:
96,270,4553,1,8,0:0:0:0:
96,270,4616,1,8,0:0:0:0:
96,270,4680,1,0,0:0:0:0:
96,270,4743,1,0,0:0:0:0:
96,270,4807,1,8,0:0:0:0:
96,270,4871,1,8,0:0:0:0:
96,270,4934,1,8,0:0:0:0:
96,270,4998,1,8,0:0:0:0:
96,270,5061,1,0,0:0:0:0:
96,270,5125,1,0,0:0:0:0:
96,270,5188,1,8,0:0:0:0:
98,278,5316,1,0,0:0:0:0:
98,278,5443,1,8,0:0:0:0:
98,278,5506,1,8,0:0:0:0:
98,278,5570,1,0,0:0:0:0:
98,278,5697,1,8,0:0:0:0:
105,288,5824,1,0,0:0:0:0:
105,288,5888,1,8,0:0:0:0:
105,288,5951,1,0,0:0:0:0:
112,285,6078,1,8,0:0:0:0:
111,285,6205,1,8,0:0:0:0:
111,285,6269,1,0,0:0:0:0:
111,285,6332,1,8,0:0:0:0:
109,273,6460,1,0,0:0:0:0:
108,277,6587,1,8,0:0:0:0:
108,277,6650,1,8,0:0:0:0:
108,277,6714,1,0,0:0:0:0:
108,277,6777,1,8,0:0:0:0:
108,277,6841,1,0,0:0:0:0:
108,277,6905,1,0,0:0:0:0:
108,277,6968,1,8,0:0:0:0:
108,277,7032,1,0,0:0:0:0:
105,303,7095,1,8,0:0:0:0:
105,303,7159,1,8,0:0:0:0:
105,303,7222,1,0,0:0:0:0:
105,303,7349,1,8,0:0:0:0:
105,303,7477,1,0,0:0:0:0:
105,303,7540,1,0,0:0:0:0:
105,303,7604,1,8,0:0:0:0:
105,303,7731,1,0,0:0:0:0:
105,303,7858,1,8,0:0:0:0:
105,303,7921,1,0,0:0:0:0:
105,303,7985,1,8,0:0:0:0:
111,318,8112,1,0,0:0:0:0:
111,318,8239,1,0,0:0:0:0:
111,318,8303,1,8,0:0:0:0:
111,318,8366,1,0,0:0:0:0:
116,312,8493,1,0,0:0:0:0:
119,324,8621,1,8,0:0:0:0:
119,324,8811,1,8,0:0:0:0:
119,324,9002,1,0,0:0:0:0:
119,324,9066,1,0,0:0:0:0:
119,324,9129,1,8,0:0:0:0:
119,324,9193,1,8,0:0:0:0:
119,324,9256,1,0,0:0:0:0:
119,324,9383,1,8,0:0:0:0:
119,324,9510,1,0,0:0:0:0:
119,324,9574,1,8,0:0:0:0:
119,324,9638,1,0,0:0:0:0:
115,315,9765,1,0,0:0:0:0:
115,315,9892,1,8,0:0:0:0:
115,315,9955,1,0,0:0:0:0:
115,315,10019,1,8,0:0:0:0:
116,313,10146,1,8,0:0:0:0:
116,313,10273,1,0,0:0:0:0:
116,313,10337,1,0,0:0:0:0:
116,313,10400,1,8,0:0:0:0:
115,315,10527,1,0,0:0:0:0:
115,315,10655,1,8,0:0:0:0:
122,319,10718,1,8,0:0:0:0:
122,319,10782,1,0,0:0:0:0:
122,319,10845,1,0,0:0:0:0:
122,319,10909,1,8,0:0:0:0:
116,313,11163,1,0,0:0:0:0:
116,313,11227,1,0,0:0:0:0:
115,315,11290,1,8,0:0:0:0:
115,315,11417,1,0,0:0:0:0:
122,319,11544,1,8,0:0:0:0:
122,319,11608,1,8,0:0:0:0:
122,319,11671,1,0,0:0:0:0:
116,313,11799,1,8,0:0:0:0:
116,313,11926,1,8,0:0:0:0:
116,313,11989,1,0,0:0:0:0:
115,315,12053,1,8,0:0:0:0:
115,315,12180,1,0,0:0:0:0:
122,319,12307,1,0,0:0:0:0:
122,319,12371,1,8,0:0:0:0:
122,319,12434,1,0,0:0:0:0:
126,314,12561,1,8,0:0:0:0:
130,319,12688,1,0,0:0:0:0:
130,319,12752,1,0,0:0:0:0:
115,304,12816,1,8,0:0:0:0:
130,319,12879,1,0,0:0:0:0:
123,319,12943,1,8,0:0:0:0:
122,319,13006,1,8,0:0:0:0:
122,319,13070,1,0,0:0:0:0:
122,319,13133,1,0,0:0:0:0:
122,319,13197,1,8,0:0:0:0:
123,319,13260,1,8,0:0:0:0:
123,319,13324,1,0,0:0:0:0:
125,312,13451,1,8,0:0:0:0:
125,312,13578,1,0,0:0:0:0:
125,312,13642,1,0,0:0:0:0:
125,312,13705,1,8,0:0:0:0:
125,312,13832,1,0,0:0:0:0:
131,319,13960,1,8,0:0:0:0:
131,319,14023,1,8,0:0:0:0:
131,319,14087,1,0,0:0:0:0:
131,319,14214,1,8,0:0:0:0:
136,315,14341,1,0,0:0:0:0:
136,315,14405,1,8,0:0:0:0:
136,315,14468,1,0,0:0:0:0:
136,315,14595,1,0,0:0:0:0:
139,306,14722,1,8,0:0:0:0:
139,306,14786,1,0,0:0:0:0:
139,306,14849,1,8,0:0:0:0:
139,304,14913,1,0,0:0:0:0:
139,304,14977,1,8,0:0:0:0:
139,304,15040,1,8,0:0:0:0:
139,304,15104,1,8,0:0:0:0:
139,304,15167,1,8,0:0:0:0:
139,304,15231,1,0,0:0:0:0:
138,307,15294,1,0,0:0:0:0:
138,307,15358,1,8,0:0:0:0:
139,306,15485,1,0,0:0:0:0:
139,306,15612,1,8,0:0:0:0:
139,304,15676,1,0,0:0:0:0:
139,304,15739,1,8,0:0:0:0:
139,289,15866,1,8,0:0:0:0:
139,289,15993,1,0,0:0:0:0:
139,289,16057,1,8,0:0:0:0:
139,289,16121,1,0,0:0:0:0:
131,286,16248,1,0,0:0:0:0:
131,284,16375,1,8,0:0:0:0:
131,284,16438,1,8,0:0:0:0:
131,284,16502,1,0,0:0:0:0:
131,292,16629,1,0,0:0:0:0:
131,294,16756,1,8,0:0:0:0:
131,294,16947,1,8,0:0:0:0:
131,294,17138,1,0,0:0:0:0:
131,284,17201,1,0,0:0:0:0:
131,284,17265,1,8,0:0:0:0:
131,286,17328,1,8,0:0:0:0:
131,286,17392,1,0,0:0:0:0:
131,294,17519,1,8,0:0:0:0:
134,285,17646,1,0,0:0:0:0:
134,285,17710,1,0,0:0:0:0:
134,285,17773,1,8,0:0:0:0:
134,285,17900,1,0,0:0:0:0:
131,284,18027,1,8,0:0:0:0:
131,286,18091,1,0,0:0:0:0:
139,286,18155,1,8,0:0:0:0:
139,286,18282,1,8,0:0:0:0:
139,286,18409,1,0,0:0:0:0:
139,286,18472,1,8,0:0:0:0:
139,286,18536,1,0,0:0:0:0:
134,285,18663,1,0,0:0:0:0:
156,263,18790,1,8,0:0:0:0:
157,263,19044,1,0,0:0:0:0:
139,286,19299,1,8,0:0:0:0:
134,285,19362,1,8,0:0:0:0:
134,285,19426,1,0,0:0:0:0:
133,281,19638,1,0,0:0:0:0:
135,278,20061,1,8,0:0:0:0:
135,278,20443,1,0,0:0:0:0:
135,278,20697,1,0,0:0:0:0:
135,278,20760,1,0,0:0:0:0:
135,278,20824,1,8,0:0:0:0:
142,281,20993,1,8,0:0:0:0:
144,259,21163,1,0,0:0:0:0:
144,259,21332,1,8,0:0:0:0:
144,259,21396,1,8,0:0:0:0:
144,259,21460,1,0,0:0:0:0:
140,261,21714,1,0,0:0:0:0:
154,271,22095,1,8,0:0:0:0:
150,261,22349,1,0,0:0:0:0:
150,261,22540,1,8,0:0:0:0:
150,261,22731,1,0,0:0:0:0:
150,261,22858,1,8,0:0:0:0:
150,261,23049,1,0,0:0:0:0:
150,261,23239,1,8,0:0:0:0:
147,272,23303,1,8,0:0:0:0:
147,272,23366,1,0,0:0:0:0:
147,272,23430,1,0,0:0:0:0:
145,273,23493,1,8,0:0:0:0:
152,268,23705,1,8,0:0:0:0:
152,284,24002,1,0,0:0:0:0:
152,284,24066,1,0,0:0:0:0:
152,284,24129,1,8,0:0:0:0:
156,285,24256,1,8,0:0:0:0:
149,287,24383,1,8,0:0:0:0:
146,285,24510,1,0,0:0:0:0:
144,280,24765,1,0,0:0:0:0:
144,280,24828,1,0,0:0:0:0:
144,280,24892,1,8,0:0:0:0:
144,280,25061,1,0,0:0:0:0:
144,280,25231,1,8,0:0:0:0:
145,290,25400,1,0,0:0:0:0:
145,290,25464,1,0,0:0:0:0:
145,290,25527,1,8,0:0:0:0:
144,290,25782,1,8,0:0:0:0:
154,273,25909,1,0,0:0:0:0:
154,273,26036,1,0,0:0:0:0:
144,279,26163,1,8,0:0:0:0:
144,279,26290,1,0,0:0:0:0:
144,279,26417,1,0,0:0:0:0:
136,269,26608,1,8,0:0:0:0:
136,269,26799,1,8,0:0:0:0:
127,43,27434,1,12,0:0:0:0:
129,298,27561,1,0,0:0:0:0:
129,298,27625,1,0,0:0:0:0:
129,298,27688,1,8,0:0:0:0:
131,279,27816,1,0,0:0:0:0:
131,279,27943,1,8,0:0:0:0:
131,291,28006,1,8,0:0:0:0:
131,279,28070,1,0,0:0:0:0:
131,279,28133,1,0,0:0:0:0:
140,265,28197,1,8,0:0:0:0:
139,289,28324,1,0,0:0:0:0:
139,289,28388,1,0,0:0:0:0:
87,57,28451,1,12,0:0:0:0:
127,288,28578,1,0,0:0:0:0:
124,287,28705,1,8,0:0:0:0:
124,287,28769,1,8,0:0:0:0:
124,287,28832,1,0,0:0:0:0:
123,318,28960,1,8,0:0:0:0:
124,287,29087,1,0,0:0:0:0:
124,287,29150,1,8,0:0:0:0:
133,284,29214,1,0,0:0:0:0:
118,306,29277,1,0,0:0:0:0:
123,269,29341,1,8,0:0:0:0:
123,269,29405,1,8,0:0:0:0:
108,0,29468,1,4,0:0:0:0:
123,275,29595,1,0,0:0:0:0:
123,275,29659,1,0,0:0:0:0:
123,275,29722,1,8,0:0:0:0:
123,275,29849,1,0,0:0:0:0:
133,300,29977,1,8,0:0:0:0:
110,277,30040,1,8,0:0:0:0:
114,290,30104,1,0,0:0:0:0:
114,290,30167,1,8,0:0:0:0:
97,285,30231,1,0,0:0:0:0:
112,274,30358,1,8,0:0:0:0:
108,291,30485,1,0,0:0:0:0:
108,291,30549,1,0,0:0:0:0:
108,291,30612,1,8,0:0:0:0:
108,291,30676,1,0,0:0:0:0:
108,288,30739,1,8,0:0:0:0:
104,284,30866,1,8,0:0:0:0:
104,284,30930,1,8,0:0:0:0:
104,284,30993,1,0,0:0:0:0:
104,284,31057,1,0,0:0:0:0:
104,284,31121,1,8,0:0:0:0:
98,277,31248,1,8,0:0:0:0:
142,237,31311,1,0,0:0:0:0:
98,277,31375,1,8,0:0:0:0:
98,277,31438,1,8,0:0:0:0:
105,29,31502,1,4,0:0:0:0:
105,279,31629,1,0,0:0:0:0:
64,232,31693,1,0,0:0:0:0:
104,273,31756,1,8,0:0:0:0:
115,281,31883,1,0,0:0:0:0:
115,281,32010,1,0,0:0:0:0:
115,281,32074,1,0,0:0:0:0:
115,281,32138,1,8,0:0:0:0:
122,256,32201,1,0,0:0:0:0:
123,256,32265,1,8,0:0:0:0:
110,280,32392,1,0,0:0:0:0:
110,280,32455,1,0,0:0:0:0:
91,21,32519,1,12,0:0:0:0:
106,288,32646,1,0,0:0:0:0:
93,274,32773,1,8,0:0:0:0:
123,262,32900,1,0,0:0:0:0:
123,256,32964,1,0,0:0:0:0:
96,270,33027,1,8,0:0:0:0:
99,278,33091,1,8,0:0:0:0:
97,270,33155,1,0,0:0:0:0:
118,264,33282,1,8,0:0:0:0:
118,264,33345,1,0,0:0:0:0:
118,264,33409,1,8,0:0:0:0:
123,262,33472,1,8,0:0:0:0:
83,0,33536,1,4,0:0:0:0:
121,263,33663,1,0,0:0:0:0:
139,239,33727,1,0,0:0:0:0:
121,263,33790,1,8,0:0:0:0:
130,270,33917,1,0,0:0:0:0:
96,254,34044,1,8,0:0:0:0:
137,259,34108,1,8,0:0:0:0:
137,259,34171,1,0,0:0:0:0:
132,255,34299,1,8,0:0:0:0:
132,255,34426,1,0,0:0:0:0:
132,255,34489,1,8,0:0:0:0:
132,255,34553,1,8,0:0:0:0:
132,255,34680,1,0,0:0:0:0:
137,259,34807,1,8,0:0:0:0:
137,259,34871,1,8,0:0:0:0:
137,259,34934,1,0,0:0:0:0:
134,260,35061,1,0,0:0:0:0:
134,260,35125,1,8,0:0:0:0:
134,260,35188,1,0,0:0:0:0:
134,260,35252,1,0,0:0:0:0:
134,260,35316,1,8,0:0:0:0:
115,246,35443,1,8,0:0:0:0:
141,251,35506,1,8,0:0:0:0:
127,43,35570,1,4,0:0:0:0:
129,298,35697,1,0,0:0:0:0:
129,298,35761,1,0,0:0:0:0:
129,298,35824,1,8,0:0:0:0:
131,279,35952,1,0,0:0:0:0:
131,279,36079,1,8,0:0:0:0:
131,291,36142,1,8,0:0:0:0:
131,279,36206,1,0,0:0:0:0:
131,279,36269,1,0,0:0:0:0:
140,265,36333,1,8,0:0:0:0:
139,289,36460,1,0,0:0:0:0:
139,289,36524,1,0,0:0:0:0:
87,57,36587,1,12,0:0:0:0:
127,288,36714,1,0,0:0:0:0:
124,287,36841,1,8,0:0:0:0:
124,287,36905,1,8,0:0:0:0:
124,287,36968,1,0,0:0:0:0:
123,318,37096,1,8,0:0:0:0:
124,287,37223,1,0,0:0:0:0:
124,287,37286,1,8,0:0:0:0:
133,284,37350,1,0,0:0:0:0:
118,306,37413,1,0,0:0:0:0:
123,269,37477,1,8,0:0:0:0:
123,269,37541,1,8,0:0:0:0:
108,0,37604,1,4,0:0:0:0:
123,275,37731,1,0,0:0:0:0:
123,275,37795,1,0,0:0:0:0:
123,275,37858,1,8,0:0:0:0:
123,275,37985,1,0,0:0:0:0:
133,300,38113,1,8,0:0:0:0:
110,277,38176,1,8,0:0:0:0:
114,290,38240,1,0,0:0:0:0:
114,290,38303,1,8,0:0:0:0:
97,285,38367,1,0,0:0:0:0:
112,274,38494,1,8,0:0:0:0:
108,291,38621,1,0,0:0:0:0:
108,291,38685,1,0,0:0:0:0:
108,291,38748,1,8,0:0:0:0:
108,291,38812,1,0,0:0:0:0:
108,288,38875,1,8,0:0:0:0:
104,284,39002,1,8,0:0:0:0:
104,284,39066,1,8,0:0:0:0:
104,284,39129,1,0,0:0:0:0:
104,284,39193,1,0,0:0:0:0:
104,284,39257,1,8,0:0:0:0:
98,277,39384,1,8,0:0:0:0:
142,237,39447,1,0,0:0:0:0:
98,277,39511,1,8,0:0:0:0:
98,277,39574,1,8,0:0:0:0:
105,29,39638,1,4,0:0:0:0:
105,279,39765,1,0,0:0:0:0:
64,232,39829,1,0,0:0:0:0:
104,273,39892,1,8,0:0:0:0:
115,281,40019,1,0,0:0:0:0:
115,281,40146,1,0,0:0:0:0:
115,281,40210,1,0,0:0:0:0:
115,281,40274,1,8,0:0:0:0:
122,256,40337,1,0,0:0:0:0:
123,256,40401,1,8,0:0:0:0:
110,280,40528,1,0,0:0:0:0:
110,280,40591,1,0,0:0:0:0:
91,21,40655,1,12,0:0:0:0:
106,288,40782,1,0,0:0:0:0:
93,274,40909,1,8,0:0:0:0:
123,262,41036,1,0,0:0:0:0:
123,256,41100,1,0,0:0:0:0:
96,270,41163,1,8,0:0:0:0:
99,278,41227,1,8,0:0:0:0:
97,270,41291,1,0,0:0:0:0:
118,264,41418,1,8,0:0:0:0:
118,264,41481,1,0,0:0:0:0:
118,264,41545,1,8,0:0:0:0:
123,262,41608,1,8,0:0:0:0:
83,0,41672,1,4,0:0:0:0:
121,263,41799,1,0,0:0:0:0:
139,239,41863,1,0,0:0:0:0:
121,263,41926,1,8,0:0:0:0:
119,3,42053,1,4,0:0:0:0:
122,275,42180,1,8,0:0:0:0:
122,275,42243,1,8,0:0:0:0:
122,275,42307,1,0,0:0:0:0:
122,275,42371,1,0,0:0:0:0:
118,72,42434,1,12,0:0:0:0:
115,274,42561,1,0,0:0:0:0:
115,274,42625,1,0,0:0:0:0:
117,288,42688,1,8,0:0:0:0:
117,288,42752,1,8,0:0:0:0:
117,288,42816,1,0,0:0:0:0:
117,288,42879,1,8,0:0:0:0:
131,288,42943,1,0,0:0:0:0:
118,264,43070,1,8,0:0:0:0:
116,268,43197,1,0,0:0:0:0:
116,268,43260,1,0,0:0:0:0:
116,268,43324,1,8,0:0:0:0:
116,268,43451,1,0,0:0:0:0:
116,268,43515,1,0,0:0:0:0:
128,264,43578,1,0,0:0:0:0:
128,264,43642,1,0,0:0:0:0:
122,280,43705,1,8,0:0:0:0:
122,280,43790,1,0,0:0:0:0:
122,280,43875,1,0,0:0:0:0:
122,280,43960,1,8,0:0:0:0:
122,280,44044,1,8,0:0:0:0:
122,280,44129,1,0,0:0:0:0:
122,280,44214,1,8,0:0:0:0:
134,275,44299,1,8,0:0:0:0:
134,275,44383,1,8,0:0:0:0:
140,263,44468,1,0,0:0:0:0:
139,263,44638,1,0,0:0:0:0:
144,267,44722,1,8,0:0:0:0:
144,267,44807,1,8,0:0:0:0:
144,267,44892,1,0,0:0:0:0:
144,267,44977,1,8,0:0:0:0:
144,267,45061,1,0,0:0:0:0:
144,267,45146,1,0,0:0:0:0:
151,278,45231,1,8,0:0:0:0:
151,278,45316,1,0,0:0:0:0:
151,278,45400,1,8,0:0:0:0:
144,267,45485,1,0,0:0:0:0:
144,267,45655,1,0,0:0:0:0:
141,277,45739,1,8,0:0:0:0:
140,271,45824,1,0,0:0:0:0:
141,277,45909,1,0,0:0:0:0:
141,277,45993,1,8,0:0:0:0:
141,277,46078,1,0,0:0:0:0:
141,277,46163,1,0,0:0:0:0:
142,279,46248,1,8,0:0:0:0:
142,279,46332,1,8,0:0:0:0:
142,279,46417,1,0,0:0:0:0:
141,277,46502,1,8,0:0:0:0:
141,277,46671,1,0,0:0:0:0:
141,277,46756,1,8,0:0:0:0:
141,277,46841,1,8,0:0:0:0:
141,277,46926,1,0,0:0:0:0:
142,279,47010,1,8,0:0:0:0:
142,279,47095,1,0,0:0:0:0:
142,252,47180,1,0,0:0:0:0:
141,277,47265,1,8,0:0:0:0:
141,277,47349,1,0,0:0:0:0:
141,277,47434,1,8,0:0:0:0:
145,280,47519,1,0,0:0:0:0:
145,280,47646,1,0,0:0:0:0:
126,289,47773,1,8,0:0:0:0:
126,289,47900,1,0,0:0:0:0:
126,289,48027,1,8,0:0:0:0:
152,283,48155,1,0,0:0:0:0:
145,280,48282,1,8,0:0:0:0:
145,280,48409,1,8,0:0:0:0:
142,283,48536,1,0,0:0:0:0:
142,283,48663,1,8,0:0:0:0:
155,273,48790,1,0,0:0:0:0:
139,290,48917,1,0,0:0:0:0:
142,286,49044,1,8,0:0:0:0:
142,286,49171,1,0,0:0:0:0:
142,283,49299,1,8,0:0:0:0:
142,283,49426,1,8,0:0:0:0:
141,282,49553,1,0,0:0:0:0:
141,282,49680,1,0,0:0:0:0:
142,286,49743,1,0,0:0:0:0:
139,275,49807,1,8,0:0:0:0:
139,275,49871,1,8,0:0:0:0:
139,275,49934,1,0,0:0:0:0:
139,275,49998,1,0,0:0:0:0:
139,275,50061,1,8,0:0:0:0:
139,275,50125,1,8,0:0:0:0:
139,275,50188,1,0,0:0:0:0:
139,275,50252,1,0,0:0:0:0:
138,275,50316,1,8,0:0:0:0:
139,275,50379,1,8,0:0:0:0:
139,275,50443,1,8,0:0:0:0:
139,275,50506,1,8,0:0:0:0:
139,275,50570,1,8,0:0:0:0:
139,275,50633,1,8,0:0:0:0:
139,275,50697,1,8,0:0:0:0:
139,275,50760,1,8,0:0:0:0:
139,275,50824,1,0,0:0:0:0:
139,269,51078,1,0,0:0:0:0:
139,269,51332,1,0,0:0:0:0:
139,269,51587,1,0,0:0:0:0:
139,269,51714,1,8,0:0:0:0:
94,52,51841,1,4,0:0:0:0:
134,283,52095,1,8,0:0:0:0:
135,278,52222,1,0,0:0:0:0:
125,60,52349,1,12,0:0:0:0:
119,292,52477,1,0,0:0:0:0:
119,292,52604,1,0,0:0:0:0:
119,292,52731,1,8,0:0:0:0:
119,292,52858,1,0,0:0:0:0:
127,300,53112,1,0,0:0:0:0:
127,300,53239,1,0,0:0:0:0:
117,59,53366,1,12,0:0:0:0:
126,306,53493,1,0,0:0:0:0:
126,306,53621,1,0,0:0:0:0:
126,306,53748,1,8,0:0:0:0:
126,306,53875,1,0,0:0:0:0:
126,306,54129,1,8,0:0:0:0:
126,306,54256,1,0,0:0:0:0:
96,52,54383,1,12,0:0:0:0:
140,294,54510,1,0,0:0:0:0:
145,303,54638,1,0,0:0:0:0:
145,303,54765,1,0,0:0:0:0:
99,77,54892,1,12,0:0:0:0:
144,282,55019,1,0,0:0:0:0:
144,286,55146,1,0,0:0:0:0:
144,286,55273,1,0,0:0:0:0:
119,68,55400,1,12,0:0:0:0:
144,282,55655,1,0,0:0:0:0:
144,282,55782,1,0,0:0:0:0:
147,280,55909,1,8,0:0:0:0:
144,282,56163,1,8,0:0:0:0:
144,282,56290,1,0,0:0:0:0:
118,64,56417,1,12,0:0:0:0:
144,282,56544,1,0,0:0:0:0:
147,280,56671,1,0,0:0:0:0:
144,282,56799,1,8,0:0:0:0:
144,282,56926,1,0,0:0:0:0:
144,282,57180,1,8,0:0:0:0:
144,282,57307,1,0,0:0:0:0:
106,42,57434,1,12,0:0:0:0:
144,282,57561,1,0,0:0:0:0:
144,282,57688,1,8,0:0:0:0:
144,282,57816,1,8,0:0:0:0:
144,282,57943,1,0,0:0:0:0:
144,282,58197,1,0,0:0:0:0:
144,282,58324,1,0,0:0:0:0:
99,31,58451,1,12,0:0:0:0:
144,282,58578,1,0,0:0:0:0:
144,282,58705,1,0,0:0:0:0:
144,282,58832,1,0,0:0:0:0:
127,49,58960,1,12,0:0:0:0:
152,282,59087,1,0,0:0:0:0:
152,282,59214,1,0,0:0:0:0:
152,282,59341,1,0,0:0:0:0:
111,46,59468,1,12,0:0:0:0:
138,292,59722,1,0,0:0:0:0:
138,292,59849,1,8,0:0:0:0:
138,292,59977,1,8,0:0:0:0:
138,292,60104,1,0,0:0:0:0:
138,292,60231,1,8,0:0:0:0:
138,292,60358,1,0,0:0:0:0:
105,42,60485,1,12,0:0:0:0:
147,281,60612,1,0,0:0:0:0:
147,281,60739,1,0,0:0:0:0:
147,281,60866,1,8,0:0:0:0:
147,281,60993,1,0,0:0:0:0:
145,281,61121,1,8,0:0:0:0:
145,281,61184,1,8,0:0:0:0:
138,46,61248,1,4,0:0:0:0:
138,46,61502,1,12,0:0:0:0:
132,281,61629,1,0,0:0:0:0:
138,278,61756,1,8,0:0:0:0:
138,296,61883,1,8,0:0:0:0:
138,296,62010,1,0,0:0:0:0:
138,296,62138,1,8,0:0:0:0:
140,290,62201,1,8,0:0:0:0:
119,51,62265,1,4,0:0:0:0:
145,295,62392,1,0,0:0:0:0:
127,79,62519,1,12,0:0:0:0:
128,279,62646,1,0,0:0:0:0:
128,279,62773,1,0,0:0:0:0:
138,296,62900,1,8,0:0:0:0:
119,96,63027,1,4,0:0:0:0:
145,295,63155,1,8,0:0:0:0:
140,294,63282,1,8,0:0:0:0:
140,294,63409,1,0,0:0:0:0:
118,89,63536,1,12,0:0:0:0:
140,283,63790,1,8,0:0:0:0:
140,283,63917,1,8,0:0:0:0:
140,283,64044,1,0,0:0:0:0:
140,283,64171,1,0,0:0:0:0:
131,292,64235,1,0,0:0:0:0:
103,81,64299,1,12,0:0:0:0:
120,295,64426,1,0,0:0:0:0:
123,0,64553,1,12,0:0:0:0:
120,295,64680,1,0,0:0:0:0:
120,295,64807,1,0,0:0:0:0:
122,290,64934,1,8,0:0:0:0:
122,289,65061,1,0,0:0:0:0:
122,289,65188,1,8,0:0:0:0:
126,285,65252,1,8,0:0:0:0:
107,37,65316,1,4,0:0:0:0:
107,37,65570,1,12,0:0:0:0:
127,289,65697,1,0,0:0:0:0:
127,289,65824,1,8,0:0:0:0:
127,289,65951,1,8,0:0:0:0:
127,289,66078,1,0,0:0:0:0:
127,289,66205,1,8,0:0:0:0:
148,272,66269,1,8,0:0:0:0:
107,37,66332,1,4,0:0:0:0:
108,76,66587,1,12,0:0:0:0:
142,267,66714,1,0,0:0:0:0:
142,267,66841,1,8,0:0:0:0:
142,267,66968,1,8,0:0:0:0:
103,74,67095,1,4,0:0:0:0:
133,266,67222,1,8,0:0:0:0:
126,242,67349,1,0,0:0:0:0:
133,266,67477,1,0,0:0:0:0:
106,64,67604,1,12,0:0:0:0:
142,268,67858,1,8,0:0:0:0:
142,268,67985,1,0,0:0:0:0:
142,268,68112,1,0,0:0:0:0:
104,57,76248,5,12,0:0:0:0:
125,281,76502,1,0,0:0:0:0:
125,281,76629,1,8,0:0:0:0:
125,281,76883,1,0,0:0:0:0:
125,281,77010,1,8,0:0:0:0:
139,283,77265,1,0,0:0:0:0:
139,283,77392,1,0,0:0:0:0:
139,282,77519,1,8,0:0:0:0:
139,282,77646,1,0,0:0:0:0:
139,282,77773,1,8,0:0:0:0:
139,283,77900,1,8,0:0:0:0:
139,283,78027,1,0,0:0:0:0:
125,271,78282,1,8,0:0:0:0:
125,271,78536,1,0,0:0:0:0:
125,271,78663,1,8,0:0:0:0:
125,271,78917,1,0,0:0:0:0:
125,271,79044,1,8,0:0:0:0:
125,271,79299,1,8,0:0:0:0:
125,271,79426,1,0,0:0:0:0:
125,271,79553,1,8,0:0:0:0:
125,271,79680,1,0,0:0:0:0:
128,262,79807,1,8,0:0:0:0:
128,262,79934,1,8,0:0:0:0:
128,262,80061,1,0,0:0:0:0:
128,262,80125,1,0,0:0:0:0:
128,262,80188,1,0,0:0:0:0:
128,262,80252,1,0,0:0:0:0:
128,262,80316,1,8,0:0:0:0:
135,270,80443,1,0,0:0:0:0:
135,270,80570,1,0,0:0:0:0:
135,270,80697,1,8,0:0:0:0:
135,270,80824,1,0,0:0:0:0:
135,270,80951,1,0,0:0:0:0:
135,270,81078,1,8,0:0:0:0:
135,270,81205,1,0,0:0:0:0:
135,270,81332,1,8,0:0:0:0:
135,270,81460,1,0,0:0:0:0:
135,270,81587,1,8,0:0:0:0:
135,270,81714,1,8,0:0:0:0:
135,270,81841,1,8,0:0:0:0:
162,276,81905,1,8,0:0:0:0:
135,270,81968,1,8,0:0:0:0:
135,270,82032,1,8,0:0:0:0:
135,270,82095,1,8,0:0:0:0:
139,267,82159,1,8,0:0:0:0:
139,267,82222,1,8,0:0:0:0:
139,267,82286,1,8,0:0:0:0:
184,318,84129,1,0,0:0:0:0:
184,318,84193,1,0,0:0:0:0:
184,318,84256,1,0,0:0:0:0:
184,318,84320,1,0,0:0:0:0:
101,48,84383,1,12,0:0:0:0:
111,303,84574,1,8,0:0:0:0:
111,303,84638,1,0,0:0:0:0:
103,290,84765,1,0,0:0:0:0:
105,289,84828,1,0,0:0:0:0:
104,284,84892,1,8,0:0:0:0:
100,281,85082,1,8,0:0:0:0:
100,281,85146,1,0,0:0:0:0:
100,281,85273,1,0,0:0:0:0:
100,281,85337,1,8,0:0:0:0:
100,281,85400,1,0,0:0:0:0:
102,280,85591,1,8,0:0:0:0:
104,284,85655,1,0,0:0:0:0:
100,281,85782,1,8,0:0:0:0:
100,281,85845,1,0,0:0:0:0:
100,281,85909,1,8,0:0:0:0:
94,275,86163,1,0,0:0:0:0:
94,275,86227,1,0,0:0:0:0:
94,275,86290,1,0,0:0:0:0:
94,275,86354,1,0,0:0:0:0:
90,36,86417,1,12,0:0:0:0:
79,280,86608,1,8,0:0:0:0:
79,280,86671,1,0,0:0:0:0:
79,280,86799,1,0,0:0:0:0:
79,280,86862,1,0,0:0:0:0:
79,280,86926,1,8,0:0:0:0:
85,273,87116,1,8,0:0:0:0:
85,273,87180,1,0,0:0:0:0:
85,273,87307,1,0,0:0:0:0:
85,273,87371,1,8,0:0:0:0:
85,273,87434,1,0,0:0:0:0:
97,275,87625,1,8,0:0:0:0:
97,275,87688,1,0,0:0:0:0:
97,275,87816,1,8,0:0:0:0:
97,275,87879,1,0,0:0:0:0:
97,275,87943,1,8,0:0:0:0:
97,275,88197,1,0,0:0:0:0:
102,274,88260,1,0,0:0:0:0:
102,275,88324,1,0,0:0:0:0:
102,275,88388,1,0,0:0:0:0:
95,14,88451,1,12,0:0:0:0:
102,277,88578,1,0,0:0:0:0:
102,277,88642,1,0,0:0:0:0:
93,279,88705,1,8,0:0:0:0:
93,279,88832,1,0,0:0:0:0:
87,275,88896,1,8,0:0:0:0:
87,275,88960,1,0,0:0:0:0:
93,261,89023,1,0,0:0:0:0:
93,261,89087,1,8,0:0:0:0:
93,261,89150,1,8,0:0:0:0:
91,268,89214,1,0,0:0:0:0:
85,264,89341,1,0,0:0:0:0:
85,264,89405,1,0,0:0:0:0:
84,251,89468,1,8,0:0:0:0:
93,279,89595,1,8,0:0:0:0:
92,277,89659,1,0,0:0:0:0:
92,277,89722,1,8,0:0:0:0:
92,277,89786,1,8,0:0:0:0:
92,277,89849,1,0,0:0:0:0:
91,268,89977,1,8,0:0:0:0:
92,272,90040,1,0,0:0:0:0:
92,272,90104,1,8,0:0:0:0:
92,272,90167,1,0,0:0:0:0:
92,272,90231,1,8,0:0:0:0:
92,272,90294,1,8,0:0:0:0:
92,272,90358,1,8,0:0:0:0:
92,272,90421,1,8,0:0:0:0:
99,43,90485,1,4,0:0:0:0:
92,277,90612,1,0,0:0:0:0:
91,268,90676,1,8,0:0:0:0:
91,268,90739,1,8,0:0:0:0:
89,267,90803,1,0,0:0:0:0:
89,267,90866,1,8,0:0:0:0:
89,267,90930,1,0,0:0:0:0:
89,267,90993,1,8,0:0:0:0:
97,261,91057,1,0,0:0:0:0:
97,261,91121,1,0,0:0:0:0:
97,261,91184,1,8,0:0:0:0:
97,261,91248,1,0,0:0:0:0:
97,261,91311,1,0,0:0:0:0:
97,261,91375,1,8,0:0:0:0:
97,261,91438,1,8,0:0:0:0:
94,257,91502,1,0,0:0:0:0:
97,284,91566,1,0,0:0:0:0:
97,282,91629,1,8,0:0:0:0:
101,271,91693,1,0,0:0:0:0:
88,272,91756,1,8,0:0:0:0:
89,271,91820,1,8,0:0:0:0:
89,271,91883,1,0,0:0:0:0:
105,273,91947,1,8,0:0:0:0:
103,274,92010,1,0,0:0:0:0:
103,274,92074,1,8,0:0:0:0:
103,274,92138,1,0,0:0:0:0:
103,274,92201,1,0,0:0:0:0:
103,274,92265,1,8,0:0:0:0:
103,274,92328,1,8,0:0:0:0:
103,274,92392,1,8,0:0:0:0:
101,271,92455,1,0,0:0:0:0:
107,57,92519,1,12,0:0:0:0:
102,260,92646,1,0,0:0:0:0:
102,260,92710,1,0,0:0:0:0:
94,261,92773,1,8,0:0:0:0:
102,260,92837,1,0,0:0:0:0:
94,261,92900,1,8,0:0:0:0:
94,261,92964,1,8,0:0:0:0:
102,260,93027,1,8,0:0:0:0:
102,260,93091,1,0,0:0:0:0:
102,260,93155,1,0,0:0:0:0:
94,261,93218,1,8,0:0:0:0:
102,260,93282,1,0,0:0:0:0:
102,260,93345,1,0,0:0:0:0:
94,261,93409,1,8,0:0:0:0:
94,261,93472,1,8,0:0:0:0:
102,256,93536,1,8,0:0:0:0:
102,260,93599,1,0,0:0:0:0:
102,256,93663,1,0,0:0:0:0:
94,261,93727,1,8,0:0:0:0:
102,260,93790,1,0,0:0:0:0:
102,260,93854,1,0,0:0:0:0:
94,261,93917,1,8,0:0:0:0:
102,256,93981,1,0,0:0:0:0:
94,261,94044,1,8,0:0:0:0:
104,264,94108,1,8,0:0:0:0:
104,264,94171,1,0,0:0:0:0:
104,264,94235,1,0,0:0:0:0:
104,264,94299,1,8,0:0:0:0:
104,264,94362,1,8,0:0:0:0:
104,264,94426,1,8,0:0:0:0:
104,264,94489,1,8,0:0:0:0:
104,264,94553,1,0,0:0:0:0:
111,272,94616,1,0,0:0:0:0:
127,255,94680,1,0,0:0:0:0:
127,255,94743,1,8,0:0:0:0:
121,258,94807,1,0,0:0:0:0:
121,258,94871,1,0,0:0:0:0:
121,258,94934,1,8,0:0:0:0:
121,258,94998,1,8,0:0:0:0:
121,258,95061,1,8,0:0:0:0:
120,254,95125,1,0,0:0:0:0:
120,254,95188,1,0,0:0:0:0:
121,258,95252,1,8,0:0:0:0:
120,254,95316,1,0,0:0:0:0:
120,254,95379,1,0,0:0:0:0:
120,254,95443,1,8,0:0:0:0:
120,254,95506,1,8,0:0:0:0:
121,258,95570,1,8,0:0:0:0:
121,258,95633,1,0,0:0:0:0:
121,258,95697,1,0,0:0:0:0:
125,239,95760,1,8,0:0:0:0:
131,244,95824,1,0,0:0:0:0:
131,244,95888,1,0,0:0:0:0:
131,244,95951,1,8,0:0:0:0:
131,244,96015,1,0,0:0:0:0:
131,244,96078,1,8,0:0:0:0:
120,260,96142,1,8,0:0:0:0:
120,260,96205,1,8,0:0:0:0:
120,260,96269,1,8,0:0:0:0:
121,258,96332,1,8,0:0:0:0:
121,258,96396,1,8,0:0:0:0:
121,258,96460,1,8,0:0:0:0:
121,260,96523,1,8,0:0:0:0:
91,47,96587,1,4,0:0:0:0:
121,279,96714,1,0,0:0:0:0:
121,279,96777,1,8,0:0:0:0:
117,262,96841,1,0,0:0:0:0:
138,257,96905,1,0,0:0:0:0:
121,279,96968,1,8,0:0:0:0:
121,279,97032,1,8,0:0:0:0:
121,279,97095,1,8,0:0:0:0:
136,258,97159,1,0,0:0:0:0:
136,258,97222,1,0,0:0:0:0:
115,267,97286,1,8,0:0:0:0:
136,258,97349,1,0,0:0:0:0:
136,258,97413,1,0,0:0:0:0:
114,267,97477,1,8,0:0:0:0:
114,267,97540,1,8,0:0:0:0:
114,267,97604,1,8,0:0:0:0:
138,257,97667,1,0,0:0:0:0:
138,257,97731,1,0,0:0:0:0:
114,267,97794,1,8,0:0:0:0:
136,258,97858,1,0,0:0:0:0:
136,258,97921,1,0,0:0:0:0:
115,267,97985,1,8,0:0:0:0:
115,267,98049,1,8,0:0:0:0:
114,267,98112,1,8,0:0:0:0:
136,258,98176,1,0,0:0:0:0:
136,258,98239,1,0,0:0:0:0:
136,258,98303,1,0,0:0:0:0:
114,267,98366,1,8,0:0:0:0:
113,260,98430,1,8,0:0:0:0:
113,260,98493,1,8,0:0:0:0:
113,260,98557,1,8,0:0:0:0:
136,258,98621,1,0,0:0:0:0:
136,258,98684,1,0,0:0:0:0:
136,258,98748,1,0,0:0:0:0:
113,257,98811,1,8,0:0:0:0:
136,258,98875,1,0,0:0:0:0:
136,258,98938,1,0,0:0:0:0:
113,257,99002,1,8,0:0:0:0:
114,257,99066,1,8,0:0:0:0:
114,257,99129,1,8,0:0:0:0:
136,258,99193,1,0,0:0:0:0:
136,258,99256,1,0,0:0:0:0:
113,260,99320,1,8,0:0:0:0:
136,258,99383,1,0,0:0:0:0:
136,258,99447,1,0,0:0:0:0:
113,257,99510,1,8,0:0:0:0:
113,257,99574,1,8,0:0:0:0:
113,257,99638,1,0,0:0:0:0:
122,269,99701,1,0,0:0:0:0:
124,268,99765,1,8,0:0:0:0:
110,274,99828,1,0,0:0:0:0:
114,246,99892,1,8,0:0:0:0:
116,249,99955,1,8,0:0:0:0:
116,263,100019,1,0,0:0:0:0:
95,270,100082,1,8,0:0:0:0:
121,272,100146,1,0,0:0:0:0:
121,272,100188,1,0,0:0:0:0:
121,272,100231,1,0,0:0:0:0:
121,272,100273,1,8,0:0:0:0:
115,279,100337,1,8,0:0:0:0:
120,265,100400,1,0,0:0:0:0:
120,265,100443,1,0,0:0:0:0:
123,268,100485,1,0,0:0:0:0:
123,268,100527,1,8,0:0:0:0:
120,265,100591,1,0,0:0:0:0:
97,8,100655,1,12,0:0:0:0:
125,255,100782,1,0,0:0:0:0:
125,255,100845,1,0,0:0:0:0:
125,255,100909,1,0,0:0:0:0:
125,255,100972,1,0,0:0:0:0:
125,255,101036,1,0,0:0:0:0:
125,255,101099,1,0,0:0:0:0:
125,255,101163,1,8,0:0:0:0:
125,255,101227,1,8,0:0:0:0:
116,258,101290,1,0,0:0:0:0:
116,258,101354,1,0,0:0:0:0:
125,255,101417,1,8,0:0:0:0:
125,255,101481,1,8,0:0:0:0:
116,258,101544,1,0,0:0:0:0:
116,258,101608,1,0,0:0:0:0:
125,255,101671,1,8,0:0:0:0:
116,258,101735,1,0,0:0:0:0:
116,258,101799,1,0,0:0:0:0:
119,260,101862,1,8,0:0:0:0:
116,258,101926,1,0,0:0:0:0:
116,258,101989,1,0,0:0:0:0:
119,260,102053,1,8,0:0:0:0:
119,260,102116,1,8,0:0:0:0:
119,260,102180,1,8,0:0:0:0:
116,258,102243,1,0,0:0:0:0:
116,258,102307,1,0,0:0:0:0:
112,257,102371,1,8,0:0:0:0:
116,258,102434,1,0,0:0:0:0:
116,258,102498,1,0,0:0:0:0:
112,257,102561,1,8,0:0:0:0:
119,260,102625,1,0,0:0:0:0:
112,257,102688,1,8,0:0:0:0:
116,258,102752,1,0,0:0:0:0:
119,260,102816,1,0,0:0:0:0:
119,260,102879,1,0,0:0:0:0:
119,260,102943,1,0,0:0:0:0:
116,258,103006,1,0,0:0:0:0:
116,258,103070,1,0,0:0:0:0:
117,258,103133,1,0,0:0:0:0:
112,257,103197,1,8,0:0:0:0:
116,258,103260,1,0,0:0:0:0:
117,258,103324,1,0,0:0:0:0:
112,257,103388,1,8,0:0:0:0:
117,258,103451,1,0,0:0:0:0:
117,258,103515,1,0,0:0:0:0:
112,257,103578,1,8,0:0:0:0:
112,257,103642,1,8,0:0:0:0:
112,257,103705,1,8,0:0:0:0:
116,258,103769,1,0,0:0:0:0:
116,258,103832,1,0,0:0:0:0:
112,257,103896,1,8,0:0:0:0:
114,238,103960,1,0,0:0:0:0:
114,238,104023,1,0,0:0:0:0:
112,257,104087,1,8,0:0:0:0:
112,257,104150,1,8,0:0:0:0:
112,257,104214,1,8,0:0:0:0:
117,245,104277,1,0,0:0:0:0:
105,245,104341,1,8,0:0:0:0:
105,245,104405,1,8,0:0:0:0:
114,238,104468,1,0,0:0:0:0:
114,238,104532,1,0,0:0:0:0:
105,245,104595,1,8,0:0:0:0:
105,245,104659,1,8,0:0:0:0:
112,13,104722,1,4,0:0:0:0:
114,238,104849,1,0,0:0:0:0:
114,238,104913,1,0,0:0:0:0:
105,245,104977,1,8,0:0:0:0:
105,245,105040,1,8,0:0:0:0:
114,238,105104,1,0,0:0:0:0:
114,238,105167,1,0,0:0:0:0:
108,239,105231,1,8,0:0:0:0:
118,263,105294,1,0,0:0:0:0:
118,263,105358,1,0,0:0:0:0:
98,245,105421,1,8,0:0:0:0:
112,259,105485,1,0,0:0:0:0:
111,265,105549,1,0,0:0:0:0:
98,245,105612,1,8,0:0:0:0:
98,245,105676,1,8,0:0:0:0:
98,245,105739,1,8,0:0:0:0:
111,265,105803,1,0,0:0:0:0:
111,269,105866,1,0,0:0:0:0:
98,245,105930,1,8,0:0:0:0:
112,269,105993,1,0,0:0:0:0:
112,269,106057,1,0,0:0:0:0:
98,245,106121,1,8,0:0:0:0:
112,269,106184,1,0,0:0:0:0:
98,245,106248,1,8,0:0:0:0:
112,269,106311,1,0,0:0:0:0:
112,269,106375,1,0,0:0:0:0:
112,269,106438,1,0,0:0:0:0:
110,242,106502,1,8,0:0:0:0:
110,242,106566,1,8,0:0:0:0:
111,269,106629,1,0,0:0:0:0:
111,269,106693,1,0,0:0:0:0:
110,242,106756,1,8,0:0:0:0:
112,245,106820,1,0,0:0:0:0:
116,231,106883,1,0,0:0:0:0:
116,231,106947,1,8,0:0:0:0:
110,242,107010,1,8,0:0:0:0:
125,274,107074,1,0,0:0:0:0:
110,242,107138,1,8,0:0:0:0:
110,242,107201,1,8,0:0:0:0:
108,236,107265,1,8,0:0:0:0:
117,251,107328,1,0,0:0:0:0:
117,251,107392,1,0,0:0:0:0:
107,232,107455,1,8,0:0:0:0:
129,247,107519,1,0,0:0:0:0:
129,247,107582,1,0,0:0:0:0:
107,232,107646,1,8,0:0:0:0:
131,251,107710,1,0,0:0:0:0:
107,232,107773,1,8,0:0:0:0:
107,232,107837,1,8,0:0:0:0:
127,260,107900,1,0,0:0:0:0:
107,232,107964,1,8,0:0:0:0:
119,235,108027,1,0,0:0:0:0:
119,235,108091,1,0,0:0:0:0:
120,244,108155,1,8,0:0:0:0:
119,235,108218,1,0,0:0:0:0:
119,235,108282,1,8,0:0:0:0:
119,235,108345,1,8,0:0:0:0:
119,235,108409,1,0,0:0:0:0:
119,235,108472,1,0,0:0:0:0:
119,235,108536,1,8,0:0:0:0:
119,235,108599,1,0,0:0:0:0:
119,235,108663,1,8,0:0:0:0:
118,235,108727,1,0,0:0:0:0:
108,29,108790,1,12,0:0:0:0:
129,301,108917,1,0,0:0:0:0:
129,301,108981,1,0,0:0:0:0:
129,301,109044,1,0,0:0:0:0:
129,301,109108,1,0,0:0:0:0:
129,301,109171,1,0,0:0:0:0:
129,301,109235,1,0,0:0:0:0:
129,301,109299,1,8,0:0:0:0:
127,295,109362,1,0,0:0:0:0:
127,295,109426,1,0,0:0:0:0:
127,295,109489,1,0,0:0:0:0:
128,307,109553,1,8,0:0:0:0:
127,295,109616,1,0,0:0:0:0:
128,307,109680,1,8,0:0:0:0:
128,307,109743,1,8,0:0:0:0:
129,300,109807,1,8,0:0:0:0:
127,295,109871,1,0,0:0:0:0:
127,295,109934,1,0,0:0:0:0:
127,295,109998,1,0,0:0:0:0:
128,311,110061,1,8,0:0:0:0:
128,307,110125,1,8,0:0:0:0:
128,307,110188,1,0,0:0:0:0:
130,312,110252,1,0,0:0:0:0:
130,312,110316,1,8,0:0:0:0:
127,295,110379,1,0,0:0:0:0:
127,295,110443,1,0,0:0:0:0:
130,312,110506,1,8,0:0:0:0:
129,300,110570,1,0,0:0:0:0:
129,300,110633,1,0,0:0:0:0:
128,311,110697,1,8,0:0:0:0:
128,311,110760,1,8,0:0:0:0:
128,311,110824,1,8,0:0:0:0:
127,295,110888,1,0,0:0:0:0:
127,295,110951,1,0,0:0:0:0:
130,312,111015,1,8,0:0:0:0:
127,295,111078,1,0,0:0:0:0:
127,295,111142,1,0,0:0:0:0:
130,312,111205,1,8,0:0:0:0:
127,295,111269,1,0,0:0:0:0:
128,311,111332,1,8,0:0:0:0:
129,300,111396,1,0,0:0:0:0:
127,295,111460,1,0,0:0:0:0:
128,311,111523,1,8,0:0:0:0:
127,295,111587,1,0,0:0:0:0:
127,295,111650,1,0,0:0:0:0:
130,312,111714,1,8,0:0:0:0:
127,295,111777,1,0,0:0:0:0:
130,312,111841,1,8,0:0:0:0:
127,295,111905,1,0,0:0:0:0:
127,295,111968,1,0,0:0:0:0:
128,311,112032,1,8,0:0:0:0:
127,295,112095,1,0,0:0:0:0:
129,300,112159,1,0,0:0:0:0:
128,311,112222,1,8,0:0:0:0:
128,311,112286,1,8,0:0:0:0:
130,312,112349,1,8,0:0:0:0:
127,295,112413,1,0,0:0:0:0:
127,295,112477,1,0,0:0:0:0:
127,295,112540,1,0,0:0:0:0:
127,295,112604,1,8,0:0:0:0:
127,295,112667,1,0,0:0:0:0:
127,295,112731,1,8,0:0:0:0:
127,295,112794,1,0,0:0:0:0:
126,31,112858,1,12,0:0:0:0:
129,303,112985,1,0,0:0:0:0:
112,305,113049,1,8,0:0:0:0:
129,303,113112,1,0,0:0:0:0:
129,303,113176,1,0,0:0:0:0:
112,305,113239,1,8,0:0:0:0:
112,305,113303,1,8,0:0:0:0:
112,305,113366,1,8,0:0:0:0:
129,303,113430,1,0,0:0:0:0:
129,303,113493,1,0,0:0:0:0:
112,305,113557,1,8,0:0:0:0:
129,303,113621,1,0,0:0:0:0:
129,300,113684,1,0,0:0:0:0:
112,305,113748,1,8,0:0:0:0:
112,305,113811,1,8,0:0:0:0:
112,305,113875,1,8,0:0:0:0:
129,303,113938,1,0,0:0:0:0:
129,303,114002,1,0,0:0:0:0:
112,305,114066,1,8,0:0:0:0:
129,303,114129,1,0,0:0:0:0:
129,303,114193,1,0,0:0:0:0:
112,305,114256,1,8,0:0:0:0:
129,303,114320,1,0,0:0:0:0:
112,305,114383,1,8,0:0:0:0:
129,300,114447,1,0,0:0:0:0:
129,303,114510,1,0,0:0:0:0:
129,303,114574,1,0,0:0:0:0:
112,305,114638,1,8,0:0:0:0:
112,305,114701,1,8,0:0:0:0:
117,309,114765,1,0,0:0:0:0:
112,305,114828,1,0,0:0:0:0:
112,305,114892,1,8,0:0:0:0:
129,303,114955,1,0,0:0:0:0:
129,303,115019,1,0,0:0:0:0:
112,305,115082,1,8,0:0:0:0:
129,303,115146,1,0,0:0:0:0:
129,300,115210,1,0,0:0:0:0:
112,305,115273,1,8,0:0:0:0:
112,305,115337,1,8,0:0:0:0:
112,305,115400,1,8,0:0:0:0:
129,303,115464,1,0,0:0:0:0:
129,303,115527,1,0,0:0:0:0:
112,305,115591,1,8,0:0:0:0:
129,303,115655,1,0,0:0:0:0:
129,303,115718,1,0,0:0:0:0:
112,305,115782,1,8,0:0:0:0:
112,305,115845,1,8,0:0:0:0:
112,305,115909,1,8,0:0:0:0:
112,305,115972,1,0,0:0:0:0:
112,305,116036,1,8,0:0:0:0:
112,305,116099,1,0,0:0:0:0:
112,305,116163,1,8,0:0:0:0:
112,305,116226,1,0,0:0:0:0:
112,305,116290,1,8,0:0:0:0:
112,305,116353,1,0,0:0:0:0:
112,305,116417,1,8,0:0:0:0:
112,305,116480,1,0,0:0:0:0:
112,305,116544,1,8,0:0:0:0:
112,305,116607,1,0,0:0:0:0:
112,305,116671,1,8,0:0:0:0:
112,305,116734,1,0,0:0:0:0:
112,305,116798,1,8,0:0:0:0:
112,305,116861,1,0,0:0:0:0:
115,45,117434,1,12,0:0:0:0:
256,192,117561,12,0,120993,0:0:0:0:
95,255,121121,6,0,L|329:230,1,210
