osu file format v14

[General]
AudioFilename: audio.mp3
AudioLeadIn: 0
PreviewTime: 82392
Countdown: 0
SampleSet: Normal
StackLeniency: 0.7
Mode: 1
LetterboxInBreaks: 0
WidescreenStoryboard: 1

[Editor]
DistanceSpacing: 1.2
BeatDivisor: 4
GridSize: 32
TimelineZoom: 1.7

[Metadata]
Title:EgO
TitleUnicode:ΣgØ
Artist:Kabocha
ArtistUnicode:かぼちゃ
Creator:Capu
Version:Lite Oni
Source:SOUND VOLTEX VIVID WAVE
Tags:hirok skull kid skid radar electronic instrumental dnb drum and bass rhythm game fast stream sdvx vvw
BeatmapID:2545199
BeatmapSetID:1156337

[Difficulty]
HPDrainRate:6
CircleSize:2
OverallDifficulty:5.5
ApproachRate:10
SliderMultiplier:1.4
SliderTickRate:1

[Events]
//Background and Video events
0,0,"12789641.jpeg",0,100
//Break Periods
2,73396,75543
//Storyboard Layer 0 (Background)
//Storyboard Layer 1 (Fail)
//Storyboard Layer 2 (Pass)
//Storyboard Layer 3 (Foreground)
//Storyboard Layer 4 (Overlay)
//Storyboard Sound Samples

[TimingPoints]
994,254.237288135593,4,1,0,28,1,8
994,-125,4,1,0,28,0,0
1883,-111.111111111111,4,1,0,28,0,0
2964,-100,4,1,0,60,0,0
18981,-105.263157894737,4,1,0,60,0,0
19235,-111.111111111111,4,1,0,60,0,0
27307,-100,4,1,0,70,0,0
75866,-100,4,1,0,40,0,0
84320,-100,4,1,0,80,0,0
84383,-100,4,1,0,80,0,1
87943,-100,4,1,0,80,0,0
88451,-100,4,1,0,80,0,1
92265,-100,4,1,0,80,0,0
92519,-95.2380952380952,4,1,0,80,0,1
116926,-83.3333333333333,4,1,0,80,0,0
117434,-76.9230769230769,4,1,0,50,0,1
120993,-83.3333333333333,4,1,0,50,0,0

[HitObjects]
256,192,1375,12,0,2773,0:0:0:0:
256,192,3027,5,0,0:0:0:0:
256,192,3155,1,0,0:0:0:0:
256,192,3282,1,8,0:0:0:0:
256,192,3409,1,0,0:0:0:0:
256,192,3472,1,0,0:0:0:0:
224,192,3536,1,0,0:0:0:0:
256,192,3663,1,8,0:0:0:0:
256,192,3790,1,0,0:0:0:0:
256,192,3917,1,0,0:0:0:0:
256,192,4044,1,8,0:0:0:0:
256,192,4171,1,0,0:0:0:0:
256,192,4235,1,0,0:0:0:0:
256,192,4299,1,0,0:0:0:0:
256,192,4426,1,8,0:0:0:0:
256,192,4553,1,0,0:0:0:0:
256,192,4807,1,8,0:0:0:0:
256,192,5061,1,0,0:0:0:0:
256,192,5188,1,0,0:0:0:0:
256,192,5316,1,8,0:0:0:0:
256,192,5443,1,0,0:0:0:0:
256,192,5506,1,0,0:0:0:0:
256,192,5570,1,0,0:0:0:0:
256,192,5697,1,8,0:0:0:0:
256,192,5824,1,0,0:0:0:0:
256,192,5951,1,0,0:0:0:0:
256,192,6078,1,8,0:0:0:0:
256,192,6205,1,0,0:0:0:0:
256,192,6269,1,0,0:0:0:0:
256,192,6332,1,0,0:0:0:0:
256,192,6460,1,8,0:0:0:0:
256,192,6587,1,0,0:0:0:0:
256,192,6841,1,8,0:0:0:0:
256,192,7095,1,0,0:0:0:0:
256,192,7222,1,0,0:0:0:0:
256,192,7349,1,8,0:0:0:0:
256,192,7477,1,0,0:0:0:0:
256,192,7540,1,0,0:0:0:0:
256,192,7604,1,0,0:0:0:0:
256,192,7731,1,8,0:0:0:0:
256,192,7858,1,0,0:0:0:0:
256,192,7985,1,0,0:0:0:0:
256,192,8112,1,8,0:0:0:0:
256,192,8239,1,0,0:0:0:0:
256,192,8303,1,0,0:0:0:0:
256,192,8366,1,0,0:0:0:0:
256,192,8493,1,8,0:0:0:0:
256,192,8621,1,0,0:0:0:0:
256,192,8875,1,8,0:0:0:0:
256,192,9129,1,0,0:0:0:0:
256,192,9256,1,0,0:0:0:0:
256,192,9383,1,8,0:0:0:0:
256,192,9510,1,0,0:0:0:0:
256,192,9574,1,0,0:0:0:0:
256,192,9638,1,0,0:0:0:0:
256,192,9765,1,8,0:0:0:0:
256,192,9892,1,0,0:0:0:0:
256,192,10019,1,0,0:0:0:0:
256,192,10146,1,8,0:0:0:0:
256,192,10273,1,0,0:0:0:0:
256,192,10337,1,0,0:0:0:0:
256,192,10400,1,0,0:0:0:0:
256,192,10527,1,8,0:0:0:0:
256,192,10655,1,0,0:0:0:0:
256,192,10909,1,8,0:0:0:0:
256,192,11163,1,8,0:0:0:0:
256,192,11290,1,8,0:0:0:0:
256,192,11417,1,0,0:0:0:0:
256,192,11544,1,8,0:0:0:0:
256,192,11608,1,8,0:0:0:0:
256,192,11671,1,8,0:0:0:0:
256,192,11799,1,0,0:0:0:0:
256,192,11926,1,8,0:0:0:0:
256,192,12053,1,8,0:0:0:0:
256,192,12180,1,0,0:0:0:0:
256,192,12307,1,8,0:0:0:0:
256,192,12371,1,8,0:0:0:0:
256,192,12434,1,8,0:0:0:0:
256,192,12561,1,0,0:0:0:0:
256,192,12688,1,8,0:0:0:0:
256,192,12943,1,0,0:0:0:0:
256,192,13197,1,8,0:0:0:0:
256,192,13324,1,8,0:0:0:0:
256,192,13451,1,0,0:0:0:0:
256,192,13578,1,8,0:0:0:0:
256,192,13642,1,8,0:0:0:0:
256,192,13705,1,8,0:0:0:0:
256,192,13832,1,0,0:0:0:0:
256,192,13960,1,8,0:0:0:0:
256,192,14087,1,8,0:0:0:0:
256,192,14214,1,0,0:0:0:0:
256,192,14341,1,8,0:0:0:0:
256,192,14405,1,8,0:0:0:0:
256,192,14468,1,8,0:0:0:0:
256,192,14595,1,0,0:0:0:0:
256,192,14722,1,8,0:0:0:0:
256,192,14977,1,0,0:0:0:0:
256,192,15231,1,8,0:0:0:0:
256,192,15358,1,8,0:0:0:0:
256,192,15485,1,0,0:0:0:0:
256,192,15612,1,8,0:0:0:0:
256,192,15676,1,8,0:0:0:0:
256,192,15739,1,8,0:0:0:0:
256,192,15866,1,0,0:0:0:0:
256,192,15993,1,8,0:0:0:0:
256,192,16121,1,8,0:0:0:0:
256,192,16248,1,0,0:0:0:0:
256,192,16375,1,8,0:0:0:0:
256,192,16438,1,8,0:0:0:0:
256,192,16502,1,8,0:0:0:0:
256,192,16629,1,0,0:0:0:0:
256,192,16756,1,12,0:0:0:0:
256,192,17265,1,8,0:0:0:0:
256,192,17392,1,8,0:0:0:0:
256,192,17519,1,0,0:0:0:0:
256,192,17646,1,8,0:0:0:0:
256,192,17710,1,8,0:0:0:0:
256,192,17773,1,8,0:0:0:0:
256,192,17900,1,0,0:0:0:0:
256,192,18027,1,8,0:0:0:0:
256,192,18155,1,8,0:0:0:0:
256,192,18282,1,0,0:0:0:0:
256,192,18409,1,8,0:0:0:0:
256,192,18472,1,8,0:0:0:0:
256,192,18536,1,8,0:0:0:0:
256,192,18663,1,0,0:0:0:0:
256,192,18790,1,8,0:0:0:0:
256,192,19044,1,8,0:0:0:0:
256,192,19299,1,4,0:0:0:0:
256,192,19426,1,0,0:0:0:0:
256,192,19616,1,0,0:0:0:0:
256,192,20061,1,8,0:0:0:0:
256,192,20443,1,8,0:0:0:0:
256,192,20824,1,0,0:0:0:0:
256,192,20993,1,0,0:0:0:0:
256,192,21163,1,0,0:0:0:0:
256,192,21332,1,0,0:0:0:0:
256,192,21396,1,0,0:0:0:0:
256,192,21460,1,0,0:0:0:0:
256,192,21714,1,0,0:0:0:0:
256,192,22095,1,8,0:0:0:0:
256,192,22349,1,0,0:0:0:0:
256,192,22540,1,8,0:0:0:0:
256,192,22731,1,0,0:0:0:0:
256,192,22858,1,8,0:0:0:0:
256,192,23049,1,8,0:0:0:0:
256,192,23239,1,8,0:0:0:0:
256,192,23366,1,0,0:0:0:0:
256,192,23493,1,0,0:0:0:0:
256,192,23684,1,8,0:0:0:0:
256,192,24129,1,0,0:0:0:0:
256,192,24256,1,8,0:0:0:0:
256,192,24383,1,8,0:0:0:0:
256,192,24510,1,0,0:0:0:0:
256,192,24892,1,0,0:0:0:0:
256,192,25061,1,0,0:0:0:0:
256,192,25231,1,8,0:0:0:0:
256,192,25400,1,0,0:0:0:0:
256,192,25591,1,8,0:0:0:0:
256,192,25782,1,0,0:0:0:0:
256,192,26036,1,8,0:0:0:0:
256,192,26163,1,8,0:0:0:0:
256,192,26290,1,0,0:0:0:0:
256,192,26417,1,0,0:0:0:0:
256,192,26608,1,8,0:0:0:0:
256,192,26799,1,0,0:0:0:0:
256,192,27434,1,4,0:0:0:0:
256,192,27688,1,0,0:0:0:0:
256,192,27816,1,8,0:0:0:0:
256,192,27943,1,0,0:0:0:0:
256,192,28070,1,0,0:0:0:0:
256,192,28197,1,8,0:0:0:0:
256,192,28324,1,0,0:0:0:0:
256,192,28388,1,0,0:0:0:0:
256,192,28451,1,8,0:0:0:0:
256,192,28705,1,0,0:0:0:0:
256,192,28832,1,0,0:0:0:0:
256,192,28960,1,8,0:0:0:0:
256,192,29087,1,8,0:0:0:0:
256,192,29214,1,0,0:0:0:0:
256,192,29277,1,0,0:0:0:0:
256,192,29341,1,0,0:0:0:0:
256,192,29468,1,8,0:0:0:0:
256,192,29722,1,0,0:0:0:0:
256,192,29849,1,8,0:0:0:0:
256,192,29977,1,8,0:0:0:0:
256,192,30104,1,0,0:0:0:0:
256,192,30167,1,0,0:0:0:0:
256,192,30231,1,8,0:0:0:0:
256,192,30485,1,8,0:0:0:0:
256,192,30612,1,0,0:0:0:0:
256,192,30739,1,0,0:0:0:0:
256,192,30866,1,8,0:0:0:0:
256,192,31121,1,8,0:0:0:0:
256,192,31248,1,0,0:0:0:0:
256,192,31375,1,0,0:0:0:0:
256,192,31502,1,8,0:0:0:0:
256,192,31883,1,0,0:0:0:0:
256,192,32010,1,8,0:0:0:0:
256,192,32138,1,0,0:0:0:0:
256,192,32201,1,0,0:0:0:0:
256,192,32265,1,8,0:0:0:0:
256,192,32392,1,8,0:0:0:0:
256,192,32519,1,0,0:0:0:0:
256,192,32773,1,8,0:0:0:0:
256,192,32900,1,0,0:0:0:0:
256,192,33155,1,0,0:0:0:0:
256,192,33282,1,8,0:0:0:0:
256,192,33345,1,8,0:0:0:0:
256,192,33409,1,8,0:0:0:0:
256,192,33536,1,0,0:0:0:0:
256,192,33790,1,0,0:0:0:0:
256,192,33917,1,0,0:0:0:0:
256,192,34044,1,8,0:0:0:0:
256,192,34171,1,8,0:0:0:0:
256,192,34299,1,0,0:0:0:0:
256,192,34553,1,8,0:0:0:0:
256,192,34680,1,0,0:0:0:0:
256,192,34807,1,8,0:0:0:0:
256,192,34934,1,8,0:0:0:0:
256,192,35061,1,0,0:0:0:0:
256,192,35188,1,0,0:0:0:0:
256,192,35316,1,8,0:0:0:0:
256,192,35379,1,8,0:0:0:0:
256,160,35443,1,8,0:0:0:0:
256,192,35570,1,4,0:0:0:0:
256,192,35824,1,0,0:0:0:0:
256,192,35952,1,8,0:0:0:0:
256,192,36079,1,0,0:0:0:0:
256,192,36206,1,0,0:0:0:0:
256,192,36333,1,8,0:0:0:0:
256,192,36460,1,0,0:0:0:0:
256,192,36524,1,0,0:0:0:0:
256,192,36587,1,8,0:0:0:0:
256,192,36841,1,0,0:0:0:0:
256,192,36968,1,0,0:0:0:0:
256,192,37096,1,8,0:0:0:0:
256,192,37223,1,8,0:0:0:0:
256,192,37350,1,0,0:0:0:0:
256,192,37413,1,0,0:0:0:0:
256,192,37477,1,0,0:0:0:0:
256,192,37604,1,8,0:0:0:0:
256,192,37858,1,0,0:0:0:0:
256,192,37985,1,8,0:0:0:0:
256,192,38113,1,8,0:0:0:0:
256,192,38240,1,0,0:0:0:0:
256,192,38303,1,0,0:0:0:0:
256,192,38367,1,8,0:0:0:0:
256,192,38621,1,8,0:0:0:0:
256,192,38748,1,0,0:0:0:0:
256,192,38875,1,0,0:0:0:0:
256,192,39002,1,8,0:0:0:0:
256,192,39257,1,8,0:0:0:0:
256,192,39384,1,0,0:0:0:0:
256,192,39511,1,0,0:0:0:0:
256,192,39638,1,8,0:0:0:0:
256,192,39892,1,8,0:0:0:0:
256,192,40019,1,0,0:0:0:0:
256,192,40146,1,8,0:0:0:0:
256,192,40274,1,0,0:0:0:0:
256,192,40337,1,0,0:0:0:0:
256,192,40401,1,8,0:0:0:0:
256,192,40528,1,8,0:0:0:0:
256,192,40655,1,0,0:0:0:0:
256,192,40909,1,8,0:0:0:0:
256,192,41036,1,0,0:0:0:0:
256,192,41099,1,0,0:0:0:0:
256,192,41163,1,0,0:0:0:0:
256,192,41291,1,0,0:0:0:0:
256,192,41418,1,8,0:0:0:0:
256,192,41481,1,8,0:0:0:0:
256,192,41545,1,8,0:0:0:0:
256,192,41672,1,0,0:0:0:0:
256,192,41926,1,0,0:0:0:0:
256,192,42053,1,0,0:0:0:0:
256,192,42180,1,8,0:0:0:0:
256,192,42307,1,8,0:0:0:0:
256,192,42435,1,0,0:0:0:0:
256,192,42689,1,8,0:0:0:0:
256,192,42816,1,0,0:0:0:0:
256,192,42943,1,8,0:0:0:0:
256,192,43070,1,8,0:0:0:0:
256,192,43197,1,0,0:0:0:0:
256,192,43324,1,0,0:0:0:0:
256,192,43452,1,8,0:0:0:0:
256,192,43515,5,8,0:0:0:0:
256,160,43579,1,8,0:0:0:0:
256,192,43706,1,4,0:0:0:0:
256,192,43960,5,0,0:0:0:0:
256,192,44214,1,0,0:0:0:0:
256,192,44468,1,0,0:0:0:0:
256,192,44722,1,8,0:0:0:0:
256,192,44977,1,8,0:0:0:0:
256,192,45231,1,0,0:0:0:0:
256,192,45739,1,0,0:0:0:0:
256,192,45993,1,0,0:0:0:0:
256,192,46248,1,8,0:0:0:0:
256,192,46502,1,0,0:0:0:0:
256,192,46756,1,8,0:0:0:0:
256,192,47010,1,8,0:0:0:0:
256,192,47265,1,0,0:0:0:0:
256,192,47519,1,8,0:0:0:0:
256,192,47773,1,0,0:0:0:0:
256,192,47900,1,0,0:0:0:0:
256,192,48027,1,8,0:0:0:0:
256,192,48282,1,8,0:0:0:0:
256,192,48409,1,8,0:0:0:0:
256,192,48536,1,0,0:0:0:0:
256,192,48790,1,8,0:0:0:0:
256,192,48917,1,0,0:0:0:0:
256,192,49044,1,8,0:0:0:0:
256,192,49171,1,8,0:0:0:0:
256,192,49299,1,0,0:0:0:0:
256,192,49553,1,8,0:0:0:0:
256,192,49807,1,8,0:0:0:0:
256,192,49934,1,8,0:0:0:0:
256,192,50061,1,0,0:0:0:0:
256,192,50125,1,0,0:0:0:0:
256,192,50188,1,0,0:0:0:0:
256,192,50316,1,8,0:0:0:0:
256,192,50443,1,8,0:0:0:0:
256,192,50570,1,0,0:0:0:0:
256,192,50633,1,0,0:0:0:0:
256,192,50697,1,0,0:0:0:0:
256,192,50824,1,8,0:0:0:0:
256,192,51841,1,0,0:0:0:0:
256,192,52095,1,0,0:0:0:0:
256,192,52349,1,12,0:0:0:0:
256,192,52604,1,0,0:0:0:0:
256,192,52731,1,8,0:0:0:0:
256,192,52858,1,0,0:0:0:0:
256,192,53112,1,0,0:0:0:0:
256,192,53239,1,0,0:0:0:0:
256,192,53366,1,12,0:0:0:0:
256,192,53621,1,8,0:0:0:0:
256,192,53875,1,0,0:0:0:0:
256,192,54002,1,8,0:0:0:0:
256,192,54129,1,0,0:0:0:0:
256,192,54383,1,12,0:0:0:0:
256,192,54638,1,0,0:0:0:0:
256,192,54765,1,0,0:0:0:0:
256,192,54892,1,12,0:0:0:0:
256,192,55146,1,8,0:0:0:0:
256,192,55400,1,4,0:0:0:0:
256,192,55655,1,8,0:0:0:0:
256,192,55909,1,0,0:0:0:0:
256,192,56163,1,0,0:0:0:0:
256,192,56417,1,12,0:0:0:0:
256,192,56672,1,0,0:0:0:0:
256,192,56799,1,8,0:0:0:0:
256,192,56926,1,0,0:0:0:0:
256,192,57180,1,0,0:0:0:0:
256,192,57307,1,8,0:0:0:0:
256,192,57434,1,12,0:0:0:0:
256,192,57689,1,8,0:0:0:0:
256,192,57943,1,0,0:0:0:0:
256,192,58197,1,8,0:0:0:0:
256,192,58451,1,12,0:0:0:0:
256,192,58706,1,0,0:0:0:0:
256,192,58832,1,0,0:0:0:0:
256,192,58960,1,12,0:0:0:0:
256,192,59214,1,8,0:0:0:0:
256,192,59468,1,4,0:0:0:0:
256,192,59723,1,8,0:0:0:0:
256,192,59977,1,0,0:0:0:0:
256,192,60104,1,8,0:0:0:0:
256,192,60231,1,0,0:0:0:0:
256,192,60485,1,8,0:0:0:0:
256,192,60612,1,0,0:0:0:0:
256,192,60739,1,8,0:0:0:0:
256,192,60866,1,8,0:0:0:0:
256,192,60993,1,0,0:0:0:0:
256,192,61121,1,0,0:0:0:0:
256,192,61248,1,8,0:0:0:0:
256,192,61375,1,8,0:0:0:0:
256,192,61502,1,0,0:0:0:0:
256,192,61629,1,8,0:0:0:0:
256,192,61756,1,0,0:0:0:0:
256,192,61883,1,0,0:0:0:0:
256,192,62010,1,8,0:0:0:0:
256,192,62265,1,8,0:0:0:0:
256,192,62519,1,0,0:0:0:0:
256,192,62646,1,0,0:0:0:0:
256,192,62773,1,8,0:0:0:0:
256,192,62900,1,0,0:0:0:0:
256,192,63027,1,12,0:0:0:0:
256,192,63282,1,0,0:0:0:0:
256,192,63536,1,12,0:0:0:0:
256,192,63790,1,8,0:0:0:0:
256,192,64044,1,0,0:0:0:0:
256,192,64299,1,0,0:0:0:0:
256,192,64553,1,8,0:0:0:0:
256,192,64680,1,8,0:0:0:0:
256,192,64807,1,0,0:0:0:0:
256,192,64934,1,0,0:0:0:0:
256,192,65061,1,8,0:0:0:0:
256,192,65316,1,8,0:0:0:0:
256,192,65443,1,0,0:0:0:0:
256,192,65570,1,8,0:0:0:0:
256,192,65697,1,8,0:0:0:0:
256,192,65824,1,0,0:0:0:0:
256,192,65951,1,8,0:0:0:0:
256,192,66078,1,0,0:0:0:0:
256,192,66205,1,8,0:0:0:0:
256,192,66332,1,0,0:0:0:0:
256,192,66587,1,8,0:0:0:0:
256,192,66714,1,8,0:0:0:0:
256,192,66841,1,0,0:0:0:0:
256,192,66968,1,0,0:0:0:0:
256,192,67095,1,12,0:0:0:0:
256,192,67349,1,0,0:0:0:0:
256,192,67604,1,12,0:0:0:0:
256,192,67858,1,8,0:0:0:0:
256,192,68112,1,4,0:0:0:0:
256,192,68239,12,0,73196,0:0:0:0:
256,192,75993,5,0,0:0:0:0:
256,192,76121,1,0,0:0:0:0:
256,192,76248,1,4,0:0:0:0:
256,192,76502,1,8,0:0:0:0:
256,192,76756,1,0,0:0:0:0:
256,192,76883,1,0,0:0:0:0:
256,192,77010,1,8,0:0:0:0:
256,192,77265,1,0,0:0:0:0:
256,192,77519,1,8,0:0:0:0:
256,192,77646,1,0,0:0:0:0:
256,192,77773,1,0,0:0:0:0:
256,192,77900,1,0,0:0:0:0:
256,192,78027,1,8,0:0:0:0:
256,192,78282,1,0,0:0:0:0:
256,192,78536,1,8,0:0:0:0:
256,192,78663,1,0,0:0:0:0:
256,192,78790,1,0,0:0:0:0:
256,192,79044,1,8,0:0:0:0:
256,192,79299,1,0,0:0:0:0:
256,192,79426,1,0,0:0:0:0:
256,192,79553,1,8,0:0:0:0:
256,192,79680,1,0,0:0:0:0:
256,192,79807,1,0,0:0:0:0:
256,192,80061,1,8,0:0:0:0:
256,192,80316,1,8,0:0:0:0:
256,192,80443,1,0,0:0:0:0:
256,192,80570,1,0,0:0:0:0:
256,192,80697,1,8,0:0:0:0:
256,192,80951,1,0,0:0:0:0:
256,192,81078,1,8,0:0:0:0:
256,192,81205,1,0,0:0:0:0:
256,192,81332,1,0,0:0:0:0:
256,192,81460,1,8,0:0:0:0:
256,192,81714,1,0,0:0:0:0:
256,192,81841,1,8,0:0:0:0:
256,192,81968,1,0,0:0:0:0:
256,192,82095,1,8,0:0:0:0:
256,192,82159,1,8,0:0:0:0:
256,192,82222,1,8,0:0:0:0:
256,192,82349,1,0,0:0:0:0:
256,192,83875,1,8,0:0:0:0:
256,192,84129,1,8,0:0:0:0:
256,192,84383,1,4,0:0:0:0:
256,192,84574,1,8,0:0:0:0:
256,192,84765,1,8,0:0:0:0:
256,192,84892,1,4,0:0:0:0:
256,192,85082,1,8,0:0:0:0:
256,192,85273,1,8,0:0:0:0:
256,192,85400,1,4,0:0:0:0:
256,192,85591,1,8,0:0:0:0:
256,192,85782,1,8,0:0:0:0:
256,192,85909,1,0,0:0:0:0:
256,192,86163,1,0,0:0:0:0:
256,192,86290,1,0,0:0:0:0:
256,192,86417,1,12,0:0:0:0:
256,192,86608,1,0,0:0:0:0:
256,192,86799,1,0,0:0:0:0:
256,192,86926,1,12,0:0:0:0:
256,192,87116,1,0,0:0:0:0:
256,192,87307,1,0,0:0:0:0:
256,192,87434,1,12,0:0:0:0:
256,192,87625,1,0,0:0:0:0:
256,192,87816,1,0,0:0:0:0:
256,192,87943,1,8,0:0:0:0:
256,192,88197,1,0,0:0:0:0:
256,192,88324,1,0,0:0:0:0:
256,192,88451,1,12,0:0:0:0:
256,192,88578,1,0,0:0:0:0:
256,192,88705,1,8,0:0:0:0:
256,192,88832,1,0,0:0:0:0:
256,192,88896,1,0,0:0:0:0:
256,192,88960,1,8,0:0:0:0:
256,192,89087,1,0,0:0:0:0:
256,192,89214,1,8,0:0:0:0:
256,192,89341,1,0,0:0:0:0:
256,192,89405,1,0,0:0:0:0:
256,192,89468,1,8,0:0:0:0:
256,192,89595,1,0,0:0:0:0:
256,192,89722,1,8,0:0:0:0:
256,192,89849,1,8,0:0:0:0:
256,192,89977,1,0,0:0:0:0:
256,192,90231,1,8,0:0:0:0:
256,192,90485,1,8,0:0:0:0:
256,192,90612,1,0,0:0:0:0:
256,192,90739,1,8,0:0:0:0:
256,192,90866,1,0,0:0:0:0:
256,192,90930,1,0,0:0:0:0:
256,192,90993,1,8,0:0:0:0:
256,192,91121,1,0,0:0:0:0:
256,192,91248,1,8,0:0:0:0:
256,192,91375,1,0,0:0:0:0:
256,192,91438,1,0,0:0:0:0:
256,192,91502,1,8,0:0:0:0:
256,192,91629,1,0,0:0:0:0:
256,192,91756,1,8,0:0:0:0:
256,192,91883,1,0,0:0:0:0:
256,192,92010,1,8,0:0:0:0:
256,192,92074,1,8,0:0:0:0:
256,192,92138,1,8,0:0:0:0:
256,192,92519,1,4,0:0:0:0:
256,192,92646,1,8,0:0:0:0:
256,192,92773,1,8,0:0:0:0:
256,192,92900,1,0,0:0:0:0:
256,192,92964,1,0,0:0:0:0:
256,192,93027,1,0,0:0:0:0:
256,192,93155,1,8,0:0:0:0:
256,192,93282,1,8,0:0:0:0:
256,192,93409,1,0,0:0:0:0:
256,192,93472,1,0,0:0:0:0:
256,192,93536,1,8,0:0:0:0:
256,192,93663,1,0,0:0:0:0:
256,192,93727,1,8,0:0:0:0:
256,192,93917,1,8,0:0:0:0:
256,192,94044,1,0,0:0:0:0:
256,192,94299,1,0,0:0:0:0:
256,192,94553,1,8,0:0:0:0:
256,192,94680,1,0,0:0:0:0:
256,192,94807,1,8,0:0:0:0:
256,192,94871,1,8,0:0:0:0:
256,192,94934,1,8,0:0:0:0:
256,192,95061,1,8,0:0:0:0:
256,192,95188,1,8,0:0:0:0:
256,192,95316,1,0,0:0:0:0:
256,192,95379,1,0,0:0:0:0:
256,192,95443,1,0,0:0:0:0:
256,192,95570,1,8,0:0:0:0:
256,192,95697,1,0,0:0:0:0:
256,192,95760,1,8,0:0:0:0:
256,192,95951,1,8,0:0:0:0:
256,192,96078,1,8,0:0:0:0:
256,192,96332,1,0,0:0:0:0:
256,192,96587,1,12,0:0:0:0:
256,192,96714,1,0,0:0:0:0:
256,192,96777,1,0,0:0:0:0:
256,192,96841,1,0,0:0:0:0:
256,192,96968,1,8,0:0:0:0:
256,192,97095,1,8,0:0:0:0:
256,192,97222,1,0,0:0:0:0:
256,192,97286,1,0,0:0:0:0:
256,192,97349,1,0,0:0:0:0:
256,192,97477,1,8,0:0:0:0:
256,192,97604,1,8,0:0:0:0:
256,192,97731,1,0,0:0:0:0:
256,192,97794,1,0,0:0:0:0:
256,192,97858,1,0,0:0:0:0:
256,192,97985,1,8,0:0:0:0:
256,192,98112,1,0,0:0:0:0:
256,192,98366,1,0,0:0:0:0:
256,192,98621,1,8,0:0:0:0:
256,192,98748,1,0,0:0:0:0:
256,192,98875,1,8,0:0:0:0:
256,192,98938,1,8,0:0:0:0:
256,192,99002,1,8,0:0:0:0:
256,192,99129,1,0,0:0:0:0:
256,192,99256,1,8,0:0:0:0:
256,192,99383,1,0,0:0:0:0:
256,192,99447,1,0,0:0:0:0:
256,192,99510,1,0,0:0:0:0:
256,192,99638,1,8,0:0:0:0:
256,192,99765,1,8,0:0:0:0:
256,192,99892,1,8,0:0:0:0:
256,192,100019,1,8,0:0:0:0:
256,192,100146,1,8,0:0:0:0:
256,192,100273,1,8,0:0:0:0:
256,192,100400,1,8,0:0:0:0:
256,192,100527,1,8,0:0:0:0:
256,192,100655,1,4,0:0:0:0:
256,192,101163,1,0,0:0:0:0:
256,192,101290,1,8,0:0:0:0:
256,192,101417,1,0,0:0:0:0:
256,192,101481,1,0,0:0:0:0:
256,192,101544,1,0,0:0:0:0:
256,192,101671,1,8,0:0:0:0:
256,192,101862,1,8,0:0:0:0:
256,192,102053,1,0,0:0:0:0:
256,192,102116,1,0,0:0:0:0:
256,192,102180,1,0,0:0:0:0:
256,192,102371,1,8,0:0:0:0:
256,192,102561,1,8,0:0:0:0:
256,192,102688,1,0,0:0:0:0:
256,192,102943,1,0,0:0:0:0:
256,192,103197,1,8,0:0:0:0:
256,192,103388,1,8,0:0:0:0:
256,192,103578,1,0,0:0:0:0:
256,192,103705,1,8,0:0:0:0:
256,192,103896,1,8,0:0:0:0:
256,192,104087,1,0,0:0:0:0:
256,192,104150,1,0,0:0:0:0:
256,192,104214,1,8,0:0:0:0:
256,192,104405,1,8,0:0:0:0:
256,192,104595,1,8,0:0:0:0:
256,192,104722,1,4,0:0:0:0:
256,192,104977,1,0,0:0:0:0:
256,192,105231,1,8,0:0:0:0:
256,192,105421,1,0,0:0:0:0:
256,192,105612,1,8,0:0:0:0:
256,192,105676,1,8,0:0:0:0:
256,192,105739,1,8,0:0:0:0:
256,192,105930,1,8,0:0:0:0:
256,192,106121,1,0,0:0:0:0:
256,192,106248,1,0,0:0:0:0:
256,192,106502,1,8,0:0:0:0:
256,192,106756,1,0,0:0:0:0:
256,192,106883,1,8,0:0:0:0:
256,192,107010,1,0,0:0:0:0:
256,192,107138,1,0,0:0:0:0:
256,192,107265,1,8,0:0:0:0:
256,192,107455,1,8,0:0:0:0:
256,192,107646,1,0,0:0:0:0:
256,192,107773,1,8,0:0:0:0:
256,192,107837,1,8,0:0:0:0:
256,192,107900,1,8,0:0:0:0:
256,192,108027,1,0,0:0:0:0:
256,192,108155,1,8,0:0:0:0:
256,192,108282,1,8,0:0:0:0:
256,192,108409,1,0,0:0:0:0:
256,192,108472,1,0,0:0:0:0:
256,192,108536,1,8,0:0:0:0:
256,192,108790,1,4,0:0:0:0:
256,192,109044,1,0,0:0:0:0:
256,192,109171,1,8,0:0:0:0:
256,192,109299,1,8,0:0:0:0:
256,192,109553,1,0,0:0:0:0:
256,192,109680,1,0,0:0:0:0:
256,192,109807,1,8,0:0:0:0:
256,192,110061,1,8,0:0:0:0:
256,192,110188,1,0,0:0:0:0:
256,192,110316,1,8,0:0:0:0:
256,192,110506,1,8,0:0:0:0:
256,192,110697,1,0,0:0:0:0:
256,192,110824,1,8,0:0:0:0:
256,192,111015,1,0,0:0:0:0:
256,192,111205,1,0,0:0:0:0:
256,192,111332,1,8,0:0:0:0:
256,192,111523,1,8,0:0:0:0:
256,192,111714,1,0,0:0:0:0:
256,192,111841,1,8,0:0:0:0:
256,192,112032,1,8,0:0:0:0:
256,192,112222,1,8,0:0:0:0:
256,192,112349,1,0,0:0:0:0:
256,192,112604,1,0,0:0:0:0:
256,192,112858,1,12,0:0:0:0:
256,192,113049,1,0,0:0:0:0:
256,192,113239,1,0,0:0:0:0:
256,192,113366,1,8,0:0:0:0:
256,192,113557,1,0,0:0:0:0:
256,192,113748,1,0,0:0:0:0:
256,192,113875,1,8,0:0:0:0:
256,192,114066,1,8,0:0:0:0:
256,192,114256,1,0,0:0:0:0:
256,192,114383,1,8,0:0:0:0:
256,192,114638,1,0,0:0:0:0:
256,192,114765,1,0,0:0:0:0:
256,192,114892,1,8,0:0:0:0:
256,192,115082,1,0,0:0:0:0:
256,192,115273,1,0,0:0:0:0:
256,192,115337,1,0,0:0:0:0:
256,192,115400,1,8,0:0:0:0:
256,192,115591,1,8,0:0:0:0:
256,192,115782,1,0,0:0:0:0:
256,192,115909,1,8,0:0:0:0:
256,192,116036,1,8,0:0:0:0:
256,192,116163,1,8,0:0:0:0:
256,192,116290,1,8,0:0:0:0:
256,192,116417,1,8,0:0:0:0:
256,192,116544,1,8,0:0:0:0:
256,192,116671,1,8,0:0:0:0:
256,192,116799,1,8,0:0:0:0:
256,192,117434,12,0,120993,0:0:0:0:
