osu file format v14

[General]
AudioFilename: audio.mp3
AudioLeadIn: 0
PreviewTime: 82392
Countdown: 0
SampleSet: Normal
StackLeniency: 0.7
Mode: 1
LetterboxInBreaks: 0
WidescreenStoryboard: 1

[Editor]
DistanceSpacing: 1.2
BeatDivisor: 4
GridSize: 32
TimelineZoom: 1.4

[Metadata]
Title:EgO
TitleUnicode:ΣgØ
Artist:Kabocha
ArtistUnicode:かぼちゃ
Creator:Capu
Version:Kantan
Source:SOUND VOLTEX VIVID WAVE
Tags:hirok skull kid skid radar electronic instrumental dnb drum and bass rhythm game fast stream sdvx vvw
BeatmapID:2546751
BeatmapSetID:1156337

[Difficulty]
HPDrainRate:7.5
CircleSize:2
OverallDifficulty:4
ApproachRate:10
SliderMultiplier:1.2
SliderTickRate:1

[Events]
//Background and Video events
0,0,"12789641.jpeg",0,100
//Break Periods
2,73397,75798
//Storyboard Layer 0 (Background)
//Storyboard Layer 1 (Fail)
//Storyboard Layer 2 (Pass)
//Storyboard Layer 3 (Foreground)
//Storyboard Layer 4 (Overlay)
//Storyboard Sound Samples

[TimingPoints]
994,254.237288135593,4,1,0,28,1,8
2964,-100,4,1,0,60,0,0
27307,-100,4,1,0,70,0,0
75866,-100,4,1,0,40,0,0
84256,-100,4,1,0,80,0,0
84383,-100,4,1,0,80,0,1
87943,-100,4,1,0,80,0,0
88451,-100,4,1,0,80,0,1
92265,-100,4,1,0,80,0,0
92519,-100,4,1,0,80,0,1
116926,-100,4,1,0,80,0,0
117434,-100,4,1,0,50,0,1
120993,-100,4,1,0,50,0,0

[HitObjects]
256,192,1375,12,0,2773,0:0:0:0:
256,192,3027,5,0,0:0:0:0:
256,192,3409,1,0,0:0:0:0:
256,192,3790,1,0,0:0:0:0:
256,192,4553,1,8,0:0:0:0:
256,192,5061,1,0,0:0:0:0:
256,192,5443,1,0,0:0:0:0:
256,192,5824,1,8,0:0:0:0:
256,192,6587,1,8,0:0:0:0:
256,192,7095,5,0,0:0:0:0:
256,192,7477,1,0,0:0:0:0:
256,192,7858,1,0,0:0:0:0:
256,192,8621,1,8,0:0:0:0:
256,192,9129,1,0,0:0:0:0:
256,192,9510,1,0,0:0:0:0:
256,192,9892,1,8,0:0:0:0:
256,192,10655,1,8,0:0:0:0:
256,192,11163,1,0,0:0:0:0:
256,192,11544,1,0,0:0:0:0:
256,192,11926,1,8,0:0:0:0:
256,192,12688,1,8,0:0:0:0:
256,192,13197,5,0,0:0:0:0:
256,192,13578,1,0,0:0:0:0:
256,192,13960,1,8,0:0:0:0:
256,192,14723,1,0,0:0:0:0:
256,192,15231,1,0,0:0:0:0:
256,192,15612,1,0,0:0:0:0:
256,192,15994,1,8,0:0:0:0:
256,192,16756,1,12,0:0:0:0:
256,192,17265,5,0,0:0:0:0:
256,192,17646,1,0,0:0:0:0:
256,192,18028,1,8,0:0:0:0:
256,192,18791,1,0,0:0:0:0:
256,192,19299,1,12,0:0:0:0:
256,192,20061,5,8,0:0:0:0:
256,192,20824,1,0,0:0:0:0:
256,192,21332,1,8,0:0:0:0:
256,192,22349,1,8,0:0:0:0:
256,192,23366,1,0,0:0:0:0:
256,192,24129,1,0,0:0:0:0:
256,192,24892,1,8,0:0:0:0:
256,192,25400,1,8,0:0:0:0:
256,192,26799,1,8,0:0:0:0:
256,192,27434,1,4,0:0:0:0:
256,192,28197,1,8,0:0:0:0:
256,192,28451,1,0,0:0:0:0:
256,192,28960,1,8,0:0:0:0:
256,192,29468,1,8,0:0:0:0:
256,192,29977,1,0,0:0:0:0:
256,192,30231,1,0,0:0:0:0:
256,192,30485,1,8,0:0:0:0:
256,192,30866,1,0,0:0:0:0:
256,192,31248,1,0,0:0:0:0:
256,192,31502,1,8,0:0:0:0:
256,192,32265,1,8,0:0:0:0:
256,192,32519,1,0,0:0:0:0:
256,192,32900,1,8,0:0:0:0:
256,192,33282,1,0,0:0:0:0:
256,192,33536,1,8,0:0:0:0:
256,192,34044,1,8,0:0:0:0:
256,192,34553,1,0,0:0:0:0:
256,192,35570,1,4,0:0:0:0:
256,192,36333,1,8,0:0:0:0:
256,192,36587,1,0,0:0:0:0:
256,192,37096,1,8,0:0:0:0:
256,192,37604,1,8,0:0:0:0:
256,192,38113,1,0,0:0:0:0:
256,192,38367,1,0,0:0:0:0:
256,192,38621,1,8,0:0:0:0:
256,192,39002,1,0,0:0:0:0:
256,192,39384,1,0,0:0:0:0:
256,192,39638,1,8,0:0:0:0:
256,192,40401,1,8,0:0:0:0:
256,192,40655,1,0,0:0:0:0:
256,192,41036,1,8,0:0:0:0:
256,192,41418,1,0,0:0:0:0:
256,192,41672,1,8,0:0:0:0:
256,192,42053,1,8,0:0:0:0:
256,192,42434,1,8,0:0:0:0:
256,192,42689,1,0,0:0:0:0:
256,192,43706,5,4,0:0:0:0:
256,192,44214,1,0,0:0:0:0:
256,192,44722,1,8,0:0:0:0:
256,192,45739,1,0,0:0:0:0:
256,192,46248,1,8,0:0:0:0:
256,192,46756,1,8,0:0:0:0:
256,192,47773,1,0,0:0:0:0:
256,192,48282,1,8,0:0:0:0:
256,192,48790,1,0,0:0:0:0:
256,192,49299,1,0,0:0:0:0:
256,192,49807,1,8,0:0:0:0:
256,192,50061,1,0,0:0:0:0:
256,192,50316,1,8,0:0:0:0:
256,192,50570,1,0,0:0:0:0:
256,192,50824,1,8,0:0:0:0:
256,192,51841,1,0,0:0:0:0:
256,192,52349,1,8,0:0:0:0:
256,192,52858,1,0,0:0:0:0:
256,192,53366,1,8,0:0:0:0:
256,192,53875,1,0,0:0:0:0:
256,192,54383,1,8,0:0:0:0:
256,192,54892,1,12,0:0:0:0:
256,192,55400,1,4,0:0:0:0:
256,192,56417,1,8,0:0:0:0:
256,192,56926,1,0,0:0:0:0:
256,192,57434,1,8,0:0:0:0:
256,192,57943,1,0,0:0:0:0:
256,192,58451,1,8,0:0:0:0:
256,192,58960,1,12,0:0:0:0:
256,192,59468,1,4,0:0:0:0:
256,192,60485,1,8,0:0:0:0:
256,192,60739,1,8,0:0:0:0:
256,192,60993,1,0,0:0:0:0:
256,192,61502,1,8,0:0:0:0:
256,192,62010,1,0,0:0:0:0:
256,192,62519,1,8,0:0:0:0:
256,192,63027,1,12,0:0:0:0:
256,192,63536,1,4,0:0:0:0:
256,192,64553,1,8,0:0:0:0:
256,192,65061,1,8,0:0:0:0:
256,192,65316,1,0,0:0:0:0:
256,192,65570,1,8,0:0:0:0:
256,192,66078,1,8,0:0:0:0:
256,192,66332,1,8,0:0:0:0:
256,192,66587,1,0,0:0:0:0:
256,192,67095,1,12,0:0:0:0:
256,192,67604,1,12,0:0:0:0:
256,192,68112,1,4,0:0:0:0:
256,192,68366,12,0,73197,0:0:0:0:
256,192,76248,12,4,82349,0:0:0:0:
256,192,83875,5,8,0:0:0:0:
256,192,84383,1,4,0:0:0:0:
256,192,84892,1,0,0:0:0:0:
256,192,85400,1,4,0:0:0:0:
256,192,85909,1,0,0:0:0:0:
256,192,86417,1,12,0:0:0:0:
256,192,86926,1,8,0:0:0:0:
256,192,87434,1,12,0:0:0:0:
256,192,87943,1,0,0:0:0:0:
256,192,88451,1,12,0:0:0:0:
256,192,88960,1,8,0:0:0:0:
256,192,89468,1,8,0:0:0:0:
256,192,90485,1,8,0:0:0:0:
256,192,90993,1,8,0:0:0:0:
256,192,91248,1,8,0:0:0:0:
256,192,91502,1,0,0:0:0:0:
256,192,92519,1,4,0:0:0:0:
256,192,93027,1,0,0:0:0:0:
256,192,93536,1,8,0:0:0:0:
256,192,93790,1,8,0:0:0:0:
256,192,94044,1,0,0:0:0:0:
256,192,94553,1,8,0:0:0:0:
256,192,95061,1,0,0:0:0:0:
256,192,95570,1,8,0:0:0:0:
256,192,96587,1,12,0:0:0:0:
256,192,96841,1,0,0:0:0:0:
256,192,97095,1,8,0:0:0:0:
256,192,97604,1,8,0:0:0:0:
256,192,97858,1,0,0:0:0:0:
256,192,98112,1,0,0:0:0:0:
256,192,98621,1,8,0:0:0:0:
256,192,98875,1,8,0:0:0:0:
256,192,99129,1,0,0:0:0:0:
256,192,99638,1,8,0:0:0:0:
256,192,100655,1,4,0:0:0:0:
256,192,101163,1,0,0:0:0:0:
256,192,101671,1,8,0:0:0:0:
256,192,101926,1,0,0:0:0:0:
256,192,102180,1,0,0:0:0:0:
256,192,102688,1,8,0:0:0:0:
256,192,103197,1,0,0:0:0:0:
256,192,103705,1,8,0:0:0:0:
256,192,103960,1,0,0:0:0:0:
256,192,104214,1,8,0:0:0:0:
256,192,104722,1,12,0:0:0:0:
256,192,105231,1,8,0:0:0:0:
256,192,105485,1,0,0:0:0:0:
256,192,105739,1,8,0:0:0:0:
256,192,106248,1,8,0:0:0:0:
256,192,106756,1,8,0:0:0:0:
256,192,107265,1,8,0:0:0:0:
256,192,107519,1,0,0:0:0:0:
256,192,107773,1,8,0:0:0:0:
256,192,108790,1,4,0:0:0:0:
256,192,109299,1,8,0:0:0:0:
256,192,109807,1,8,0:0:0:0:
256,192,110061,1,0,0:0:0:0:
256,192,110316,1,8,0:0:0:0:
256,192,110824,1,8,0:0:0:0:
256,192,111332,1,0,0:0:0:0:
256,192,111841,1,8,0:0:0:0:
256,192,112349,1,0,0:0:0:0:
256,192,112858,1,12,0:0:0:0:
256,192,113366,1,8,0:0:0:0:
256,192,113875,1,8,0:0:0:0:
256,192,114383,1,8,0:0:0:0:
256,192,114892,1,0,0:0:0:0:
256,192,115400,1,8,0:0:0:0:
320,192,115909,2,0,L|256:192,8,60
256,192,117434,12,0,120993,0:0:0:0:
