osu file format v14

[General]
AudioFilename: audio.mp3
AudioLeadIn: 0
PreviewTime: 82392
Countdown: 0
SampleSet: Normal
StackLeniency: 0.7
Mode: 1
LetterboxInBreaks: 0
WidescreenStoryboard: 1

[Editor]
DistanceSpacing: 1.2
BeatDivisor: 4
GridSize: 32
TimelineZoom: 4.699998

[Metadata]
Title:EgO
TitleUnicode:ΣgØ
Artist:Kabocha
ArtistUnicode:かぼちゃ
Creator:Capu
Version:HiroK's Inner Oni
Source:SOUND VOLTEX VIVID WAVE
Tags:hirok skull kid skid radar electronic instrumental dnb drum and bass rhythm game fast stream sdvx vvw
BeatmapID:2531793
BeatmapSetID:1156337

[Difficulty]
HPDrainRate:5
CircleSize:2
OverallDifficulty:7
ApproachRate:10
SliderMultiplier:1.4
SliderTickRate:1

[Events]
//Background and Video events
0,0,"12789641.jpeg",0,100
//Break Periods
2,68312,75543
//Storyboard Layer 0 (Background)
//Storyboard Layer 1 (Fail)
//Storyboard Layer 2 (Pass)
//Storyboard Layer 3 (Foreground)
//Storyboard Layer 4 (Overlay)
//Storyboard Sound Samples

[TimingPoints]
994,254.237288135593,4,1,0,28,1,8
994,-125,4,1,0,28,0,0
2964,-100,4,1,0,80,0,0
11131,-95.2380952380952,4,1,0,80,0,0
19108,-97.5609756097561,4,1,0,80,0,0
19235,-100,4,1,0,80,0,0
47837,-99.502487562189,4,1,0,80,0,0
47964,-99.009900990099,4,1,0,80,0,0
48091,-98.5221674876847,4,1,0,80,0,0
48218,-98.0392156862745,4,1,0,80,0,0
48345,-97.5609756097561,4,1,0,80,0,0
48472,-97.0873786407767,4,1,0,80,0,0
48599,-96.6183574879227,4,1,0,80,0,0
48727,-96.1538461538461,4,1,0,80,0,0
48854,-95.6937799043062,4,1,0,80,0,0
48981,-95.2380952380952,4,1,0,80,0,0
49108,-94.7867298578199,4,1,0,80,0,0
49235,-94.3396226415094,4,1,0,80,0,0
49362,-93.8967136150235,4,1,0,80,0,0
49489,-93.4579439252336,4,1,0,80,0,0
49616,-93.0232558139535,4,1,0,80,0,0
49775,-92.5925925925926,4,1,0,80,0,0
49839,-92.1658986175115,4,1,0,80,0,0
49902,-91.743119266055,4,1,0,80,0,0
49966,-91.324200913242,4,1,0,80,0,0
50030,-90.9090909090909,4,1,0,80,0,0
50157,-90.4977375565611,4,1,0,80,0,0
50220,-90.0900900900901,4,1,0,80,0,0
50284,-89.6860986547085,4,1,0,80,0,0
50347,-89.2857142857143,4,1,0,80,0,0
50411,-88.8888888888889,4,1,0,80,0,0
50474,-88.4955752212389,4,1,0,80,0,0
50538,-88.1057268722467,4,1,0,80,0,0
50602,-87.719298245614,4,1,0,80,0,0
50665,-87.3362445414847,4,1,0,80,0,0
50729,-86.9565217391304,4,1,0,80,0,0
50792,-86.5800865800866,4,1,0,80,0,0
51015,-90.0900900900901,4,1,0,80,0,0
51269,-94.3396226415094,4,1,0,80,0,0
51777,-105.263157894737,4,1,0,80,0,0
59405,-104.166666666667,4,1,0,80,0,0
59532,-103.092783505155,4,1,0,80,0,0
59627,-102.564102564103,4,1,0,80,0,0
59691,-102.040816326531,4,1,0,80,0,0
59786,-101.010101010101,4,1,0,80,0,0
59913,-100,4,1,0,80,0,0
75803,-111.111111111111,4,1,0,55,0,0
80379,-109.89010989011,4,1,0,55,0,0
80506,-108.695652173913,4,1,0,55,0,0
80633,-107.52688172043,4,1,0,55,0,0
80760,-106.382978723404,4,1,0,55,0,0
80888,-105.263157894737,4,1,0,55,0,0
81015,-104.166666666667,4,1,0,55,0,0
81142,-103.092783505155,4,1,0,55,0,0
81269,-102.040816326531,4,1,0,55,0,0
81396,-101.010101010101,4,1,0,55,0,0
81523,-100,4,1,0,55,0,0
81650,-99.009900990099,4,1,0,55,0,0
81777,-98.0392156862745,4,1,0,55,0,0
81936,-97.0873786407767,4,1,0,55,0,0
82000,-96.6183574879227,4,1,0,55,0,0
82063,-96.1538461538461,4,1,0,55,0,0
82127,-95.6937799043062,4,1,0,55,0,0
82191,-95.2380952380952,4,1,0,55,0,0
82318,-94.3396226415094,4,1,0,55,0,0
82445,-111.111111111111,4,1,0,55,0,0
84320,-83.3333333333333,4,1,0,80,0,0
84383,-83.3333333333333,4,1,0,80,0,1
85909,-83.3333333333333,4,1,0,80,0,0
86099,-100,4,1,0,80,0,0
86417,-83.3333333333333,4,1,0,80,0,1
87943,-83.3333333333333,4,1,0,80,0,0
88133,-100,4,1,0,80,0,0
88451,-100,4,1,0,80,0,1
90421,-98.0392156862745,4,1,0,80,0,1
90549,-96.1538461538461,4,1,0,80,0,1
90676,-94.3396226415094,4,1,0,80,0,1
90803,-92.5925925925926,4,1,0,80,0,1
90930,-90.9090909090909,4,1,0,80,0,1
91057,-89.2857142857143,4,1,0,80,0,1
91184,-87.719298245614,4,1,0,80,0,1
91311,-86.2068965517241,4,1,0,80,0,1
91438,-84.7457627118644,4,1,0,80,0,1
92265,-84.7457627118644,4,1,0,80,0,0
92519,-95.2380952380952,4,1,0,80,0,1
100464,-93.0232558139535,4,1,0,80,0,1
100591,-90.9090909090909,4,1,0,80,0,1
115877,-90.0900900900901,4,1,0,80,0,1
115941,-89.2857142857143,4,1,0,80,0,1
116004,-88.4955752212389,4,1,0,80,0,1
116068,-87.719298245614,4,1,0,80,0,1
116131,-86.9565217391304,4,1,0,80,0,1
116195,-86.2068965517241,4,1,0,80,0,1
116258,-85.4700854700855,4,1,0,80,0,1
116322,-84.7457627118644,4,1,0,80,0,1
116385,-84.0336134453781,4,1,0,80,0,1
116449,-83.3333333333333,4,1,0,80,0,1
116513,-82.6446280991736,4,1,0,80,0,1
116576,-81.9672131147541,4,1,0,80,0,1
116640,-81.3008130081301,4,1,0,80,0,1
116703,-80.6451612903226,4,1,0,80,0,1
116767,-80,4,1,0,80,0,1
116830,-79.3650793650794,4,1,0,80,0,1
116926,-78.7401574803149,4,1,0,80,0,0
117434,-76.9230769230769,4,1,0,80,0,1
117498,-25,4,1,0,50,0,1
117879,-66.6666666666667,4,1,0,50,0,1
118896,-71.4285714285714,4,1,0,50,0,1
119913,-76.9230769230769,4,1,0,50,0,1
120993,-83.3333333333333,4,1,0,50,0,0

[HitObjects]
256,192,1375,12,0,2773,0:0:0:0:
256,192,3027,5,0,0:0:0:0:
256,192,3091,1,0,0:0:0:0:
256,192,3155,1,8,0:0:0:0:
256,192,3282,1,8,0:0:0:0:
256,192,3409,1,0,0:0:0:0:
256,192,3472,1,0,0:0:0:0:
256,192,3536,1,8,0:0:0:0:
256,192,3599,1,8,0:0:0:0:
256,192,3663,1,0,0:0:0:0:
256,192,3790,1,0,0:0:0:0:
256,192,3917,1,8,0:0:0:0:
256,192,3981,1,0,0:0:0:0:
256,192,4044,1,8,0:0:0:0:
256,192,4171,1,0,0:0:0:0:
256,192,4235,1,0,0:0:0:0:
256,192,4299,1,0,0:0:0:0:
256,192,4426,1,8,0:0:0:0:
256,192,4553,1,0,0:0:0:0:
256,192,4680,1,8,0:0:0:0:
256,192,4807,1,0,0:0:0:0:
256,192,4871,1,0,0:0:0:0:
256,192,4934,1,8,0:0:0:0:
256,192,4998,1,0,0:0:0:0:
256,192,5061,1,0,0:0:0:0:
256,192,5125,1,0,0:0:0:0:
256,192,5188,1,8,0:0:0:0:
256,192,5316,1,8,0:0:0:0:
256,192,5443,1,0,0:0:0:0:
256,192,5506,1,0,0:0:0:0:
256,192,5570,1,8,0:0:0:0:
256,192,5633,1,8,0:0:0:0:
256,192,5697,1,0,0:0:0:0:
256,192,5824,1,0,0:0:0:0:
256,192,5951,1,8,0:0:0:0:
256,192,6015,1,0,0:0:0:0:
256,192,6078,1,8,0:0:0:0:
256,192,6205,1,0,0:0:0:0:
256,192,6269,1,0,0:0:0:0:
256,192,6332,1,0,0:0:0:0:
256,192,6460,1,8,0:0:0:0:
256,192,6587,1,0,0:0:0:0:
256,192,6714,1,8,0:0:0:0:
256,192,6777,1,8,0:0:0:0:
256,192,6841,1,0,0:0:0:0:
256,192,6905,1,0,0:0:0:0:
256,192,6968,1,8,0:0:0:0:
256,192,7095,1,0,0:0:0:0:
256,192,7159,1,0,0:0:0:0:
256,192,7222,1,8,0:0:0:0:
256,192,7349,1,8,0:0:0:0:
256,192,7477,1,0,0:0:0:0:
256,192,7540,1,0,0:0:0:0:
256,192,7604,1,8,0:0:0:0:
256,192,7667,1,8,0:0:0:0:
256,192,7731,1,0,0:0:0:0:
256,192,7858,1,0,0:0:0:0:
256,192,7985,1,8,0:0:0:0:
256,192,8049,1,0,0:0:0:0:
256,192,8112,1,8,0:0:0:0:
256,192,8239,1,0,0:0:0:0:
256,192,8366,1,8,0:0:0:0:
256,192,8430,1,8,0:0:0:0:
256,192,8493,1,0,0:0:0:0:
256,192,8621,1,12,0:0:0:0:
256,192,8811,1,12,0:0:0:0:
256,192,9002,1,12,0:0:0:0:
256,192,9129,1,0,0:0:0:0:
256,192,9193,1,0,0:0:0:0:
256,192,9256,1,8,0:0:0:0:
256,192,9383,1,8,0:0:0:0:
256,192,9510,1,0,0:0:0:0:
256,192,9574,1,0,0:0:0:0:
256,192,9638,1,8,0:0:0:0:
256,192,9701,1,8,0:0:0:0:
256,192,9765,1,0,0:0:0:0:
256,192,9892,1,0,0:0:0:0:
256,192,10019,1,8,0:0:0:0:
256,192,10082,1,0,0:0:0:0:
256,192,10146,1,8,0:0:0:0:
256,192,10273,1,0,0:0:0:0:
256,192,10337,1,0,0:0:0:0:
256,192,10400,1,8,0:0:0:0:
256,192,10527,1,0,0:0:0:0:
256,192,10655,1,8,0:0:0:0:
256,192,10718,1,8,0:0:0:0:
256,192,10782,1,8,0:0:0:0:
256,192,10845,1,8,0:0:0:0:
256,192,10909,1,0,0:0:0:0:
256,192,11163,1,0,0:0:0:0:
256,192,11290,1,8,0:0:0:0:
256,192,11354,1,0,0:0:0:0:
256,192,11417,1,8,0:0:0:0:
256,192,11544,1,0,0:0:0:0:
256,192,11608,1,0,0:0:0:0:
256,192,11671,1,8,0:0:0:0:
256,192,11735,1,8,0:0:0:0:
256,192,11799,1,0,0:0:0:0:
256,192,11926,1,0,0:0:0:0:
256,192,12053,1,0,0:0:0:0:
256,192,12116,1,0,0:0:0:0:
256,192,12180,1,8,0:0:0:0:
256,192,12307,1,0,0:0:0:0:
256,192,12434,1,8,0:0:0:0:
256,192,12498,1,8,0:0:0:0:
256,192,12561,1,0,0:0:0:0:
256,192,12688,1,0,0:0:0:0:
256,192,12816,1,8,0:0:0:0:
256,192,12879,1,8,0:0:0:0:
256,192,12943,1,0,0:0:0:0:
256,192,13006,1,0,0:0:0:0:
256,192,13070,1,8,0:0:0:0:
256,192,13197,1,0,0:0:0:0:
256,192,13324,1,8,0:0:0:0:
256,192,13388,1,0,0:0:0:0:
256,192,13451,1,8,0:0:0:0:
256,192,13578,1,0,0:0:0:0:
256,192,13642,1,0,0:0:0:0:
256,192,13705,1,8,0:0:0:0:
256,192,13769,1,8,0:0:0:0:
256,192,13832,1,0,0:0:0:0:
256,192,13960,1,0,0:0:0:0:
256,192,14087,1,0,0:0:0:0:
256,192,14150,1,0,0:0:0:0:
256,192,14214,1,8,0:0:0:0:
256,192,14341,1,0,0:0:0:0:
256,192,14468,1,8,0:0:0:0:
256,192,14532,1,8,0:0:0:0:
256,192,14595,1,0,0:0:0:0:
256,192,14722,1,0,0:0:0:0:
256,192,14849,1,8,0:0:0:0:
256,192,14913,1,8,0:0:0:0:
256,192,14977,1,0,0:0:0:0:
256,192,15040,1,0,0:0:0:0:
256,192,15104,1,8,0:0:0:0:
256,192,15231,1,0,0:0:0:0:
256,192,15358,1,8,0:0:0:0:
256,192,15421,1,0,0:0:0:0:
256,192,15485,1,8,0:0:0:0:
256,192,15612,1,0,0:0:0:0:
256,192,15676,1,0,0:0:0:0:
256,192,15739,1,8,0:0:0:0:
256,192,15803,1,8,0:0:0:0:
256,192,15866,1,0,0:0:0:0:
256,192,15993,1,0,0:0:0:0:
256,192,16121,1,0,0:0:0:0:
256,192,16184,1,0,0:0:0:0:
256,192,16248,1,8,0:0:0:0:
256,192,16375,1,0,0:0:0:0:
256,192,16502,1,8,0:0:0:0:
256,192,16566,1,8,0:0:0:0:
256,192,16629,1,0,0:0:0:0:
256,192,16756,1,12,0:0:0:0:
256,192,16947,1,12,0:0:0:0:
256,192,17138,1,12,0:0:0:0:
256,192,17265,1,0,0:0:0:0:
256,192,17392,1,8,0:0:0:0:
256,192,17455,1,0,0:0:0:0:
256,192,17519,1,8,0:0:0:0:
256,192,17646,1,0,0:0:0:0:
256,192,17710,1,0,0:0:0:0:
256,192,17773,1,8,0:0:0:0:
246,202,17837,1,8,0:0:0:0:
256,192,17900,1,0,0:0:0:0:
256,192,18027,1,0,0:0:0:0:
256,192,18155,1,0,0:0:0:0:
256,192,18218,1,0,0:0:0:0:
256,192,18282,1,8,0:0:0:0:
256,192,18409,1,0,0:0:0:0:
256,192,18536,1,8,0:0:0:0:
256,192,18599,1,8,0:0:0:0:
256,192,18663,1,0,0:0:0:0:
256,192,18790,1,12,0:0:0:0:
256,192,19044,1,8,0:0:0:0:
256,192,19171,1,8,0:0:0:0:
256,192,19299,1,4,0:0:0:0:
256,192,19616,1,0,0:0:0:0:
256,192,20061,1,8,0:0:0:0:
256,192,20443,1,8,0:0:0:0:
256,192,20697,1,0,0:0:0:0:
256,192,20760,1,8,0:0:0:0:
256,192,20824,1,0,0:0:0:0:
256,192,20993,1,0,0:0:0:0:
256,192,21163,1,8,0:0:0:0:
256,192,21332,1,0,0:0:0:0:
256,192,21396,1,0,0:0:0:0:
256,192,21460,1,0,0:0:0:0:
256,192,21714,1,0,0:0:0:0:
256,192,22095,1,8,0:0:0:0:
256,192,22349,1,0,0:0:0:0:
256,192,22540,1,8,0:0:0:0:
256,192,22731,1,0,0:0:0:0:
256,192,22858,1,0,0:0:0:0:
256,192,23049,1,8,0:0:0:0:
256,192,23239,1,8,0:0:0:0:
256,192,23303,1,8,0:0:0:0:
256,192,23366,1,0,0:0:0:0:
256,192,23430,1,0,0:0:0:0:
256,192,23493,1,0,0:0:0:0:
256,192,23684,1,8,0:0:0:0:
256,192,24002,1,0,0:0:0:0:
256,192,24066,1,0,0:0:0:0:
256,192,24129,1,8,0:0:0:0:
256,192,24256,1,8,0:0:0:0:
256,192,24383,1,0,0:0:0:0:
256,192,24510,1,8,0:0:0:0:
256,192,24765,1,0,0:0:0:0:
256,192,24828,1,8,0:0:0:0:
256,192,24892,1,0,0:0:0:0:
256,192,25061,1,0,0:0:0:0:
256,192,25231,1,8,0:0:0:0:
256,192,25400,1,0,0:0:0:0:
256,192,25464,1,0,0:0:0:0:
256,192,25527,1,0,0:0:0:0:
256,192,25782,1,0,0:0:0:0:
256,192,26036,1,8,0:0:0:0:
256,192,26163,1,8,0:0:0:0:
256,192,26290,1,8,0:0:0:0:
256,192,26417,1,0,0:0:0:0:
256,192,26608,1,8,0:0:0:0:
256,192,26799,1,0,0:0:0:0:
256,192,27434,5,4,0:0:0:0:
256,192,27625,1,0,0:0:0:0:
256,192,27688,1,8,0:0:0:0:
256,192,27816,1,8,0:0:0:0:
256,192,27943,1,0,0:0:0:0:
256,192,28070,1,0,0:0:0:0:
256,192,28197,1,8,0:0:0:0:
256,192,28324,1,8,0:0:0:0:
256,192,28388,1,8,0:0:0:0:
256,192,28451,1,0,0:0:0:0:
256,192,28515,1,0,0:0:0:0:
256,192,28578,1,0,0:0:0:0:
256,192,28705,1,8,0:0:0:0:
256,192,28832,1,8,0:0:0:0:
256,192,28960,1,0,0:0:0:0:
256,192,29023,1,0,0:0:0:0:
256,192,29087,1,8,0:0:0:0:
256,192,29214,1,0,0:0:0:0:
256,192,29277,1,8,0:0:0:0:
256,192,29341,1,8,0:0:0:0:
256,192,29405,1,8,0:0:0:0:
256,192,29468,1,0,0:0:0:0:
256,192,29659,1,0,0:0:0:0:
256,192,29722,1,8,0:0:0:0:
256,192,29849,1,8,0:0:0:0:
256,192,29913,1,8,0:0:0:0:
256,192,29977,1,0,0:0:0:0:
256,192,30104,1,8,0:0:0:0:
256,192,30231,1,8,0:0:0:0:
256,192,30358,1,0,0:0:0:0:
256,192,30421,1,8,0:0:0:0:
256,192,30485,1,0,0:0:0:0:
256,192,30549,1,0,0:0:0:0:
256,192,30612,1,8,0:0:0:0:
256,192,30739,1,8,0:0:0:0:
256,192,30866,1,0,0:0:0:0:
256,192,30930,1,0,0:0:0:0:
256,192,30993,1,8,0:0:0:0:
256,192,31057,1,8,0:0:0:0:
256,192,31121,1,0,0:0:0:0:
256,192,31248,1,8,0:0:0:0:
256,192,31375,1,8,0:0:0:0:
256,192,31502,1,4,0:0:0:0:
256,192,31693,1,0,0:0:0:0:
256,192,31756,1,8,0:0:0:0:
256,192,31883,1,8,0:0:0:0:
256,192,32010,1,0,0:0:0:0:
256,192,32138,1,0,0:0:0:0:
256,192,32265,1,8,0:0:0:0:
256,192,32392,5,8,0:0:0:0:
256,192,32455,1,8,0:0:0:0:
256,192,32519,1,0,0:0:0:0:
256,192,32582,1,0,0:0:0:0:
256,192,32646,1,0,0:0:0:0:
256,192,32773,1,8,0:0:0:0:
256,192,32900,1,8,0:0:0:0:
256,192,33027,1,0,0:0:0:0:
256,192,33091,1,8,0:0:0:0:
256,192,33155,1,0,0:0:0:0:
256,192,33282,1,8,0:0:0:0:
256,192,33345,1,0,0:0:0:0:
256,192,33409,1,8,0:0:0:0:
256,192,33472,1,8,0:0:0:0:
256,192,33536,1,0,0:0:0:0:
256,192,33727,1,0,0:0:0:0:
256,192,33790,1,8,0:0:0:0:
256,192,33917,1,0,0:0:0:0:
256,192,34044,1,0,0:0:0:0:
256,192,34171,1,8,0:0:0:0:
256,192,34299,1,8,0:0:0:0:
256,192,34426,1,0,0:0:0:0:
256,192,34489,1,8,0:0:0:0:
256,192,34553,1,0,0:0:0:0:
256,192,34616,1,0,0:0:0:0:
256,192,34680,1,8,0:0:0:0:
256,192,34807,1,8,0:0:0:0:
256,192,34934,1,0,0:0:0:0:
256,192,34998,1,0,0:0:0:0:
256,192,35061,1,8,0:0:0:0:
256,192,35125,1,8,0:0:0:0:
256,192,35188,1,0,0:0:0:0:
256,192,35316,1,8,0:0:0:0:
256,192,35443,1,8,0:0:0:0:
256,192,35570,1,4,0:0:0:0:
256,192,35760,1,0,0:0:0:0:
256,192,35824,1,8,0:0:0:0:
256,192,35951,1,8,0:0:0:0:
256,192,36078,1,0,0:0:0:0:
256,192,36205,1,0,0:0:0:0:
256,192,36332,1,8,0:0:0:0:
256,192,36460,1,8,0:0:0:0:
256,192,36523,1,8,0:0:0:0:
256,192,36587,1,0,0:0:0:0:
256,192,36650,1,0,0:0:0:0:
256,192,36714,1,0,0:0:0:0:
256,192,36841,1,8,0:0:0:0:
256,192,36968,1,8,0:0:0:0:
256,192,37095,1,0,0:0:0:0:
256,192,37159,1,0,0:0:0:0:
256,192,37222,1,8,0:0:0:0:
256,192,37349,1,0,0:0:0:0:
256,192,37413,1,8,0:0:0:0:
256,192,37477,1,8,0:0:0:0:
256,192,37540,1,8,0:0:0:0:
256,192,37604,1,0,0:0:0:0:
256,192,37795,1,0,0:0:0:0:
256,192,37858,1,8,0:0:0:0:
256,192,37985,1,8,0:0:0:0:
256,192,38049,1,8,0:0:0:0:
256,192,38113,1,0,0:0:0:0:
256,192,38240,1,8,0:0:0:0:
256,192,38367,1,8,0:0:0:0:
256,192,38494,1,0,0:0:0:0:
256,192,38557,1,8,0:0:0:0:
256,192,38621,1,0,0:0:0:0:
256,192,38685,1,0,0:0:0:0:
256,192,38748,1,8,0:0:0:0:
256,192,38875,1,8,0:0:0:0:
256,192,39002,1,0,0:0:0:0:
256,192,39066,1,0,0:0:0:0:
256,192,39129,1,8,0:0:0:0:
256,192,39193,1,8,0:0:0:0:
256,192,39257,1,0,0:0:0:0:
256,192,39384,1,8,0:0:0:0:
256,192,39510,1,8,0:0:0:0:
256,192,39638,1,4,0:0:0:0:
256,192,39828,1,0,0:0:0:0:
256,192,39892,1,8,0:0:0:0:
256,192,40019,1,8,0:0:0:0:
256,192,40146,1,0,0:0:0:0:
256,192,40210,1,8,0:0:0:0:
256,192,40273,1,0,0:0:0:0:
256,192,40400,1,8,0:0:0:0:
256,192,40527,1,8,0:0:0:0:
256,192,40591,1,8,0:0:0:0:
256,192,40655,1,0,0:0:0:0:
256,192,40718,1,0,0:0:0:0:
256,192,40782,1,0,0:0:0:0:
256,192,40909,1,8,0:0:0:0:
256,192,41036,1,0,0:0:0:0:
256,192,41163,1,8,0:0:0:0:
256,192,41227,1,8,0:0:0:0:
256,192,41290,1,0,0:0:0:0:
256,192,41417,1,8,0:0:0:0:
256,192,41481,1,0,0:0:0:0:
256,192,41544,1,8,0:0:0:0:
256,192,41608,1,8,0:0:0:0:
256,192,41671,1,0,0:0:0:0:
256,192,41862,1,0,0:0:0:0:
256,192,41926,1,8,0:0:0:0:
256,192,42053,1,8,0:0:0:0:
256,192,42116,1,8,0:0:0:0:
256,192,42180,1,0,0:0:0:0:
256,192,42307,1,0,0:0:0:0:
256,192,42434,1,8,0:0:0:0:
256,192,42561,1,8,0:0:0:0:
256,192,42688,1,0,0:0:0:0:
256,192,42752,1,8,0:0:0:0:
256,192,42816,1,0,0:0:0:0:
256,192,42943,1,8,0:0:0:0:
256,192,43070,1,0,0:0:0:0:
256,192,43133,1,0,0:0:0:0:
256,192,43197,1,8,0:0:0:0:
256,192,43260,1,8,0:0:0:0:
256,192,43324,1,0,0:0:0:0:
256,192,43451,1,8,0:0:0:0:
256,192,43578,1,8,0:0:0:0:
256,192,43705,1,4,0:0:0:0:
256,192,43960,1,8,0:0:0:0:
256,192,44214,1,8,0:0:0:0:
256,192,44468,1,8,0:0:0:0:
256,192,44722,1,0,0:0:0:0:
256,192,44977,1,8,0:0:0:0:
256,192,45231,1,8,0:0:0:0:
256,192,45485,1,8,0:0:0:0:
256,192,45739,1,0,0:0:0:0:
256,192,45993,1,8,0:0:0:0:
256,192,46248,1,8,0:0:0:0:
256,192,46502,1,8,0:0:0:0:
256,192,46756,1,0,0:0:0:0:
256,192,47010,1,8,0:0:0:0:
256,192,47265,1,8,0:0:0:0:
256,192,47519,1,8,0:0:0:0:
256,192,47646,1,8,0:0:0:0:
256,192,47773,1,0,0:0:0:0:
256,192,47900,1,0,0:0:0:0:
256,192,48027,1,0,0:0:0:0:
256,192,48155,1,0,0:0:0:0:
256,192,48282,1,0,0:0:0:0:
256,192,48409,1,0,0:0:0:0:
256,192,48536,1,0,0:0:0:0:
256,192,48663,1,0,0:0:0:0:
256,192,48790,1,8,0:0:0:0:
256,192,48917,1,8,0:0:0:0:
256,192,49044,1,8,0:0:0:0:
256,192,49171,1,8,0:0:0:0:
256,192,49299,1,8,0:0:0:0:
256,192,49426,1,8,0:0:0:0:
256,192,49553,1,8,0:0:0:0:
256,192,49680,1,8,0:0:0:0:
256,192,49807,1,0,0:0:0:0:
256,192,49871,1,8,0:0:0:0:
256,192,49934,1,0,0:0:0:0:
256,192,49998,1,0,0:0:0:0:
256,192,50061,1,8,0:0:0:0:
256,192,50188,1,0,0:0:0:0:
256,192,50252,1,8,0:0:0:0:
256,192,50316,1,0,0:0:0:0:
256,192,50379,1,0,0:0:0:0:
256,192,50443,1,8,0:0:0:0:
256,192,50506,1,8,0:0:0:0:
256,192,50570,1,0,0:0:0:0:
256,192,50633,1,8,0:0:0:0:
256,192,50697,1,8,0:0:0:0:
256,192,50760,1,8,0:0:0:0:
256,192,50824,1,0,0:0:0:0:
256,192,51078,1,0,0:0:0:0:
256,192,51332,1,8,0:0:0:0:
256,192,51841,1,0,0:0:0:0:
256,192,52095,1,0,0:0:0:0:
256,192,52222,1,0,0:0:0:0:
256,192,52349,1,12,0:0:0:0:
256,192,52604,1,8,0:0:0:0:
256,192,52731,1,8,0:0:0:0:
256,192,52858,1,0,0:0:0:0:
256,192,53112,1,8,0:0:0:0:
256,192,53239,1,0,0:0:0:0:
256,192,53366,1,12,0:0:0:0:
256,192,53493,1,0,0:0:0:0:
256,192,53621,1,8,0:0:0:0:
256,192,53748,1,8,0:0:0:0:
256,192,53875,1,0,0:0:0:0:
256,192,54129,1,0,0:0:0:0:
256,192,54256,1,0,0:0:0:0:
256,192,54383,1,12,0:0:0:0:
256,192,54638,1,8,0:0:0:0:
256,192,54765,1,8,0:0:0:0:
256,192,54892,1,0,0:0:0:0:
256,192,55019,1,8,0:0:0:0:
256,192,55146,1,0,0:0:0:0:
256,192,55400,1,12,0:0:0:0:
256,192,55527,1,0,0:0:0:0:
256,192,55655,1,0,0:0:0:0:
256,192,55718,1,0,0:0:0:0:
256,192,55782,1,8,0:0:0:0:
256,192,55909,1,0,0:0:0:0:
256,192,56163,1,0,0:0:0:0:
256,192,56290,1,0,0:0:0:0:
256,192,56417,1,12,0:0:0:0:
256,192,56671,1,0,0:0:0:0:
256,192,56799,1,8,0:0:0:0:
256,192,56926,1,0,0:0:0:0:
256,192,57180,1,8,0:0:0:0:
256,192,57307,1,0,0:0:0:0:
256,192,57434,1,12,0:0:0:0:
256,192,57561,1,0,0:0:0:0:
256,192,57688,1,8,0:0:0:0:
256,192,57816,1,8,0:0:0:0:
256,192,57943,1,0,0:0:0:0:
256,192,58197,1,0,0:0:0:0:
256,192,58324,1,0,0:0:0:0:
256,192,58451,1,12,0:0:0:0:
256,192,58705,1,8,0:0:0:0:
256,192,58832,1,8,0:0:0:0:
256,192,58960,1,0,0:0:0:0:
256,192,59087,1,8,0:0:0:0:
256,192,59341,1,0,0:0:0:0:
256,192,59468,1,12,0:0:0:0:
256,192,59595,1,8,0:0:0:0:
256,192,59659,1,8,0:0:0:0:
256,192,59722,1,0,0:0:0:0:
256,192,59849,1,8,0:0:0:0:
256,192,59977,1,4,0:0:0:0:
256,192,60231,1,8,0:0:0:0:
256,192,60358,1,0,0:0:0:0:
256,192,60485,1,12,0:0:0:0:
256,192,60739,1,8,0:0:0:0:
256,192,60866,1,8,0:0:0:0:
256,192,60993,1,4,0:0:0:0:
256,192,61248,1,0,0:0:0:0:
256,192,61375,1,0,0:0:0:0:
256,192,61502,1,12,0:0:0:0:
256,192,61629,1,0,0:0:0:0:
256,192,61756,1,8,0:0:0:0:
256,192,61883,1,8,0:0:0:0:
256,192,62010,1,4,0:0:0:0:
256,192,62265,1,8,0:0:0:0:
256,192,62392,1,0,0:0:0:0:
256,192,62519,1,12,0:0:0:0:
256,192,62646,1,0,0:0:0:0:
256,192,62710,1,0,0:0:0:0:
256,192,62773,1,8,0:0:0:0:
256,192,62900,1,8,0:0:0:0:
256,192,63027,1,4,0:0:0:0:
256,192,63155,1,0,0:0:0:0:
256,192,63282,1,12,0:0:0:0:
256,192,63536,1,8,0:0:0:0:
256,192,63663,1,0,0:0:0:0:
256,192,63790,1,8,0:0:0:0:
256,192,63917,1,8,0:0:0:0:
256,192,64044,1,4,0:0:0:0:
256,192,64299,1,8,0:0:0:0:
256,192,64426,1,0,0:0:0:0:
256,192,64553,1,12,0:0:0:0:
256,192,64807,1,8,0:0:0:0:
256,192,64934,1,8,0:0:0:0:
256,192,65061,1,4,0:0:0:0:
256,192,65316,1,0,0:0:0:0:
256,192,65443,1,0,0:0:0:0:
256,192,65570,1,12,0:0:0:0:
256,192,65697,1,0,0:0:0:0:
256,192,65824,1,8,0:0:0:0:
256,192,65951,1,8,0:0:0:0:
256,192,66078,1,4,0:0:0:0:
256,192,66332,1,8,0:0:0:0:
256,192,66460,1,0,0:0:0:0:
256,192,66587,1,12,0:0:0:0:
256,192,66714,1,0,0:0:0:0:
256,192,66777,1,0,0:0:0:0:
256,192,66841,1,8,0:0:0:0:
256,192,66968,1,8,0:0:0:0:
256,192,67095,1,4,0:0:0:0:
256,192,67222,1,0,0:0:0:0:
256,192,67349,1,12,0:0:0:0:
256,192,67477,1,0,0:0:0:0:
256,192,67540,1,8,0:0:0:0:
256,192,67604,1,0,0:0:0:0:
256,192,67731,1,0,0:0:0:0:
256,192,67858,1,8,0:0:0:0:
256,192,67985,1,8,0:0:0:0:
256,192,68112,1,4,0:0:0:0:
256,192,75993,5,0,0:0:0:0:
256,192,76121,1,0,0:0:0:0:
256,192,76248,1,12,0:0:0:0:
256,192,76502,1,0,0:0:0:0:
256,192,76629,1,8,0:0:0:0:
256,192,76756,1,8,0:0:0:0:
256,192,76883,1,0,0:0:0:0:
256,192,77010,1,8,0:0:0:0:
256,192,77138,1,0,0:0:0:0:
256,192,77265,1,8,0:0:0:0:
256,192,77392,1,8,0:0:0:0:
256,192,77519,1,0,0:0:0:0:
256,192,77646,1,8,0:0:0:0:
256,192,77773,1,8,0:0:0:0:
256,192,77900,1,0,0:0:0:0:
256,192,78027,1,0,0:0:0:0:
256,192,78091,1,0,0:0:0:0:
256,192,78155,1,0,0:0:0:0:
256,192,78218,1,0,0:0:0:0:
256,192,78282,1,8,0:0:0:0:
256,192,78409,1,8,0:0:0:0:
256,192,78536,1,0,0:0:0:0:
256,192,78663,1,8,0:0:0:0:
256,192,78790,1,8,0:0:0:0:
256,192,78917,1,0,0:0:0:0:
256,192,79044,1,8,0:0:0:0:
256,192,79171,1,0,0:0:0:0:
256,192,79299,1,8,0:0:0:0:
256,192,79426,1,8,0:0:0:0:
256,192,79553,1,0,0:0:0:0:
256,192,79680,1,8,0:0:0:0:
256,192,79807,1,8,0:0:0:0:
256,192,79934,1,0,0:0:0:0:
256,192,80061,1,0,0:0:0:0:
256,192,80125,1,0,0:0:0:0:
256,192,80188,1,0,0:0:0:0:
256,192,80252,1,0,0:0:0:0:
256,192,80316,1,8,0:0:0:0:
256,192,80443,1,8,0:0:0:0:
256,192,80570,1,0,0:0:0:0:
256,192,80697,1,8,0:0:0:0:
256,192,80824,1,8,0:0:0:0:
256,192,80951,1,0,0:0:0:0:
256,192,81078,1,8,0:0:0:0:
256,192,81205,1,0,0:0:0:0:
256,192,81332,1,8,0:0:0:0:
256,192,81460,1,8,0:0:0:0:
256,192,81587,1,0,0:0:0:0:
256,192,81714,1,8,0:0:0:0:
256,192,81841,1,8,0:0:0:0:
256,192,81968,1,0,0:0:0:0:
256,192,82032,1,0,0:0:0:0:
256,192,82095,1,8,0:0:0:0:
256,192,82159,1,8,0:0:0:0:
256,192,82222,1,0,0:0:0:0:
256,192,82349,1,8,0:0:0:0:
256,192,84383,1,12,0:0:0:0:
256,192,84574,1,4,0:0:0:0:
256,192,84765,1,4,0:0:0:0:
256,192,84892,1,12,0:0:0:0:
256,192,85082,1,4,0:0:0:0:
256,192,85273,1,12,0:0:0:0:
256,192,85400,1,12,0:0:0:0:
256,192,85591,1,4,0:0:0:0:
256,192,85782,1,12,0:0:0:0:
256,192,85909,1,4,0:0:0:0:
256,192,86163,1,0,0:0:0:0:
256,192,86227,1,0,0:0:0:0:
256,192,86290,1,0,0:0:0:0:
256,192,86417,1,12,0:0:0:0:
256,192,86608,1,4,0:0:0:0:
256,192,86799,1,4,0:0:0:0:
256,192,86926,1,12,0:0:0:0:
256,192,87116,1,4,0:0:0:0:
256,192,87307,1,12,0:0:0:0:
256,192,87434,1,4,0:0:0:0:
256,192,87625,1,12,0:0:0:0:
256,192,87816,1,4,0:0:0:0:
256,192,87943,1,4,0:0:0:0:
256,192,88197,1,0,0:0:0:0:
256,192,88260,1,0,0:0:0:0:
256,192,88324,1,0,0:0:0:0:
256,192,88388,1,0,0:0:0:0:
256,192,88451,1,8,0:0:0:0:
256,192,88578,1,0,0:0:0:0:
256,192,88705,1,8,0:0:0:0:
256,192,88832,1,0,0:0:0:0:
256,192,88960,1,8,0:0:0:0:
256,192,89087,1,0,0:0:0:0:
256,192,89214,1,8,0:0:0:0:
256,192,89341,1,0,0:0:0:0:
256,192,89405,1,0,0:0:0:0:
256,192,89468,1,8,0:0:0:0:
256,192,89595,1,0,0:0:0:0:
256,192,89722,1,8,0:0:0:0:
256,192,89849,1,0,0:0:0:0:
256,192,89977,1,8,0:0:0:0:
256,192,90104,1,0,0:0:0:0:
256,192,90231,1,8,0:0:0:0:
256,192,90358,1,0,0:0:0:0:
256,192,90485,1,12,0:0:0:0:
256,192,90612,1,12,0:0:0:0:
256,192,90739,1,12,0:0:0:0:
256,192,90866,1,12,0:0:0:0:
256,192,90993,1,12,0:0:0:0:
256,192,91121,1,12,0:0:0:0:
256,192,91248,1,12,0:0:0:0:
256,192,91375,1,12,0:0:0:0:
256,192,91502,1,0,0:0:0:0:
256,192,91566,1,0,0:0:0:0:
256,192,91629,1,0,0:0:0:0:
256,192,91693,1,0,0:0:0:0:
256,192,91756,1,8,0:0:0:0:
256,192,91820,1,8,0:0:0:0:
256,192,91883,1,8,0:0:0:0:
256,192,91947,1,8,0:0:0:0:
256,192,92010,1,0,0:0:0:0:
256,192,92074,1,0,0:0:0:0:
256,192,92138,1,0,0:0:0:0:
256,192,92201,1,0,0:0:0:0:
256,192,92265,1,8,0:0:0:0:
256,192,92519,1,0,0:0:0:0:
256,192,92582,1,0,0:0:0:0:
256,192,92646,1,8,0:0:0:0:
256,192,92710,1,0,0:0:0:0:
256,192,92773,1,0,0:0:0:0:
256,192,92837,1,0,0:0:0:0:
256,192,92900,1,8,0:0:0:0:
256,192,92964,1,8,0:0:0:0:
256,192,93027,1,0,0:0:0:0:
256,192,93091,1,0,0:0:0:0:
256,192,93155,1,8,0:0:0:0:
256,192,93218,1,0,0:0:0:0:
256,192,93282,1,0,0:0:0:0:
256,192,93345,1,0,0:0:0:0:
256,192,93409,1,8,0:0:0:0:
256,192,93536,1,0,0:0:0:0:
256,192,93663,1,8,0:0:0:0:
256,192,93727,1,8,0:0:0:0:
256,192,93790,1,0,0:0:0:0:
256,192,93917,1,8,0:0:0:0:
256,192,94044,1,0,0:0:0:0:
256,192,94108,1,8,0:0:0:0:
256,192,94171,5,8,0:0:0:0:
256,192,94299,1,0,0:0:0:0:
256,192,94426,1,8,0:0:0:0:
256,192,94553,1,0,0:0:0:0:
256,192,94616,1,0,0:0:0:0:
256,192,94680,1,8,0:0:0:0:
256,192,94743,1,0,0:0:0:0:
256,192,94807,1,0,0:0:0:0:
256,192,94871,1,0,0:0:0:0:
256,192,94934,1,8,0:0:0:0:
256,192,94998,1,8,0:0:0:0:
256,192,95061,1,0,0:0:0:0:
256,192,95125,1,0,0:0:0:0:
256,192,95188,1,8,0:0:0:0:
256,192,95252,1,0,0:0:0:0:
256,192,95316,1,0,0:0:0:0:
256,192,95379,1,0,0:0:0:0:
256,192,95443,1,8,0:0:0:0:
256,192,95570,1,0,0:0:0:0:
256,192,95697,1,8,0:0:0:0:
256,192,95760,1,8,0:0:0:0:
256,192,95824,1,0,0:0:0:0:
256,192,95951,1,8,0:0:0:0:
256,192,96078,1,8,0:0:0:0:
256,192,96142,1,8,0:0:0:0:
256,192,96205,1,8,0:0:0:0:
256,192,96269,1,8,0:0:0:0:
256,192,96332,1,0,0:0:0:0:
256,192,96396,1,0,0:0:0:0:
256,192,96460,1,8,0:0:0:0:
256,192,96587,1,0,0:0:0:0:
224,192,96650,1,0,0:0:0:0:
224,192,96714,1,8,0:0:0:0:
224,192,96777,1,0,0:0:0:0:
224,192,96841,1,0,0:0:0:0:
224,192,96905,1,0,0:0:0:0:
224,192,96968,1,8,0:0:0:0:
256,192,97032,1,8,0:0:0:0:
256,192,97095,1,0,0:0:0:0:
256,192,97159,1,0,0:0:0:0:
256,192,97222,1,8,0:0:0:0:
256,192,97286,1,8,0:0:0:0:
256,192,97349,1,0,0:0:0:0:
256,192,97477,1,8,0:0:0:0:
256,192,97604,1,0,0:0:0:0:
256,192,97667,1,0,0:0:0:0:
256,192,97731,1,8,0:0:0:0:
256,192,97794,1,0,0:0:0:0:
256,192,97858,1,0,0:0:0:0:
256,192,97921,1,0,0:0:0:0:
256,192,97985,1,8,0:0:0:0:
256,192,98049,1,8,0:0:0:0:
256,192,98112,1,0,0:0:0:0:
256,192,98176,1,0,0:0:0:0:
256,192,98239,1,8,0:0:0:0:
256,192,98366,1,0,0:0:0:0:
256,192,98430,1,0,0:0:0:0:
256,192,98493,1,8,0:0:0:0:
256,192,98621,1,0,0:0:0:0:
256,192,98748,1,8,0:0:0:0:
256,192,98875,1,0,0:0:0:0:
256,192,99002,1,8,0:0:0:0:
256,192,99129,1,0,0:0:0:0:
256,192,99256,1,8,0:0:0:0:
256,192,99383,1,0,0:0:0:0:
256,192,99510,1,0,0:0:0:0:
256,192,99638,1,8,0:0:0:0:
256,192,99701,1,8,0:0:0:0:
256,192,99765,1,0,0:0:0:0:
256,192,99828,1,0,0:0:0:0:
256,192,99892,1,8,0:0:0:0:
256,192,99955,1,8,0:0:0:0:
256,192,100019,1,0,0:0:0:0:
256,192,100082,1,0,0:0:0:0:
256,192,100146,1,8,0:0:0:0:
256,192,100210,1,8,0:0:0:0:
256,192,100273,1,8,0:0:0:0:
256,192,100337,1,8,0:0:0:0:
256,192,100400,1,0,0:0:0:0:
256,192,100527,1,8,0:0:0:0:
256,192,100655,1,4,0:0:0:0:
256,192,100782,1,8,0:0:0:0:
256,192,100909,1,0,0:0:0:0:
256,192,100972,1,0,0:0:0:0:
256,192,101036,1,8,0:0:0:0:
256,192,101163,1,0,0:0:0:0:
256,192,101290,1,8,0:0:0:0:
256,192,101354,1,8,0:0:0:0:
256,192,101417,1,0,0:0:0:0:
256,192,101544,1,8,0:0:0:0:
256,192,101671,1,0,0:0:0:0:
256,192,101735,1,0,0:0:0:0:
256,192,101799,1,8,0:0:0:0:
256,192,101862,1,8,0:0:0:0:
256,192,101926,1,0,0:0:0:0:
256,192,102053,1,8,0:0:0:0:
256,192,102180,1,0,0:0:0:0:
256,192,102243,1,0,0:0:0:0:
256,192,102371,1,8,0:0:0:0:
256,192,102434,1,0,0:0:0:0:
256,192,102561,1,8,0:0:0:0:
256,192,102625,1,8,0:0:0:0:
256,192,102688,1,0,0:0:0:0:
256,192,102752,1,0,0:0:0:0:
256,192,102816,1,8,0:0:0:0:
256,192,102943,1,0,0:0:0:0:
256,192,103070,1,8,0:0:0:0:
256,192,103197,1,0,0:0:0:0:
256,192,103260,1,8,0:0:0:0:
224,192,103388,1,8,0:0:0:0:
256,192,103451,1,0,0:0:0:0:
256,192,103578,1,8,0:0:0:0:
256,192,103705,1,0,0:0:0:0:
256,192,103832,1,8,0:0:0:0:
256,192,103896,1,8,0:0:0:0:
256,192,103960,1,0,0:0:0:0:
256,192,104087,1,8,0:0:0:0:
256,192,104214,1,0,0:0:0:0:
256,192,104277,1,0,0:0:0:0:
256,192,104341,1,0,0:0:0:0:
256,192,104405,1,0,0:0:0:0:
256,192,104468,1,8,0:0:0:0:
256,192,104532,1,8,0:0:0:0:
256,192,104595,1,8,0:0:0:0:
256,192,104659,1,8,0:0:0:0:
256,192,104722,1,0,0:0:0:0:
256,192,104849,1,8,0:0:0:0:
256,192,104977,1,0,0:0:0:0:
256,192,105040,1,0,0:0:0:0:
256,192,105104,1,8,0:0:0:0:
256,192,105231,1,0,0:0:0:0:
256,192,105294,1,0,0:0:0:0:
256,192,105421,1,8,0:0:0:0:
256,192,105485,1,0,0:0:0:0:
256,192,105612,1,8,0:0:0:0:
256,192,105739,1,0,0:0:0:0:
256,192,105803,1,0,0:0:0:0:
256,192,105866,1,8,0:0:0:0:
256,192,105993,1,0,0:0:0:0:
256,192,106057,1,0,0:0:0:0:
256,192,106121,1,8,0:0:0:0:
256,192,106184,1,8,0:0:0:0:
256,192,106248,1,0,0:0:0:0:
256,192,106375,1,8,0:0:0:0:
256,192,106502,1,0,0:0:0:0:
256,192,106566,1,8,0:0:0:0:
256,192,106629,1,8,0:0:0:0:
256,192,106756,1,0,0:0:0:0:
256,192,106883,1,8,0:0:0:0:
256,192,106947,1,8,0:0:0:0:
256,192,107010,1,0,0:0:0:0:
256,192,107074,1,0,0:0:0:0:
256,192,107138,1,8,0:0:0:0:
256,192,107265,1,0,0:0:0:0:
256,192,107392,1,8,0:0:0:0:
256,192,107455,1,8,0:0:0:0:
256,192,107519,1,0,0:0:0:0:
256,192,107646,1,0,0:0:0:0:
256,192,107773,1,8,0:0:0:0:
256,192,107837,1,8,0:0:0:0:
256,192,107900,1,8,0:0:0:0:
256,192,107964,1,8,0:0:0:0:
256,192,108027,1,0,0:0:0:0:
256,192,108091,1,0,0:0:0:0:
256,192,108155,1,0,0:0:0:0:
256,192,108218,1,0,0:0:0:0:
256,192,108282,1,8,0:0:0:0:
256,192,108345,1,0,0:0:0:0:
256,192,108409,1,8,0:0:0:0:
256,192,108472,1,8,0:0:0:0:
256,192,108536,1,0,0:0:0:0:
256,192,108663,1,8,0:0:0:0:
256,192,108790,1,4,0:0:0:0:
256,192,108917,1,8,0:0:0:0:
256,192,108981,1,8,0:0:0:0:
256,192,109044,1,0,0:0:0:0:
256,192,109108,1,0,0:0:0:0:
256,192,109171,1,8,0:0:0:0:
256,192,109235,1,0,0:0:0:0:
256,192,109299,1,8,0:0:0:0:
256,192,109426,1,0,0:0:0:0:
256,192,109489,1,8,0:0:0:0:
256,192,109553,1,0,0:0:0:0:
256,192,109616,1,0,0:0:0:0:
256,192,109680,1,8,0:0:0:0:
256,192,109743,1,0,0:0:0:0:
256,192,109807,1,8,0:0:0:0:
256,192,109934,1,0,0:0:0:0:
256,192,110061,1,8,0:0:0:0:
256,192,110125,1,8,0:0:0:0:
256,192,110188,1,0,0:0:0:0:
256,192,110252,1,0,0:0:0:0:
256,192,110316,1,8,0:0:0:0:
256,192,110443,1,8,0:0:0:0:
256,192,110506,1,8,0:0:0:0:
256,192,110570,1,0,0:0:0:0:
256,192,110697,1,0,0:0:0:0:
256,192,110824,1,8,0:0:0:0:
256,192,110951,1,0,0:0:0:0:
256,192,111015,1,8,0:0:0:0:
256,192,111078,1,0,0:0:0:0:
256,192,111142,1,0,0:0:0:0:
256,192,111205,1,8,0:0:0:0:
256,192,111269,1,8,0:0:0:0:
256,192,111332,1,0,0:0:0:0:
256,192,111460,1,8,0:0:0:0:
256,192,111523,1,8,0:0:0:0:
256,192,111587,1,0,0:0:0:0:
256,192,111650,1,0,0:0:0:0:
256,192,111714,1,8,0:0:0:0:
256,192,111777,1,0,0:0:0:0:
256,192,111841,1,8,0:0:0:0:
256,192,111968,1,0,0:0:0:0:
256,192,112032,1,8,0:0:0:0:
256,192,112095,1,0,0:0:0:0:
256,192,112222,1,8,0:0:0:0:
256,192,112349,1,8,0:0:0:0:
256,192,112413,1,8,0:0:0:0:
256,192,112477,1,8,0:0:0:0:
256,192,112540,1,8,0:0:0:0:
256,192,112604,1,0,0:0:0:0:
256,192,112667,1,0,0:0:0:0:
256,192,112731,1,8,0:0:0:0:
256,192,112858,1,0,0:0:0:0:
256,192,112985,1,8,0:0:0:0:
256,192,113049,1,8,0:0:0:0:
256,192,113112,1,0,0:0:0:0:
256,192,113239,1,8,0:0:0:0:
256,192,113303,1,0,0:0:0:0:
256,192,113366,1,8,0:0:0:0:
256,192,113430,1,8,0:0:0:0:
256,192,113493,1,0,0:0:0:0:
256,192,113557,1,8,0:0:0:0:
256,192,113621,1,0,0:0:0:0:
256,192,113748,1,8,0:0:0:0:
256,192,113811,1,8,0:0:0:0:
256,192,113875,1,0,0:0:0:0:
256,192,113938,1,0,0:0:0:0:
256,192,114002,1,8,0:0:0:0:
256,192,114129,1,0,0:0:0:0:
256,192,114256,1,8,0:0:0:0:
256,192,114320,1,0,0:0:0:0:
256,192,114383,1,8,0:0:0:0:
256,192,114510,1,0,0:0:0:0:
256,192,114638,1,8,0:0:0:0:
256,192,114701,1,0,0:0:0:0:
256,192,114765,1,8,0:0:0:0:
256,192,114828,1,8,0:0:0:0:
256,192,114892,1,0,0:0:0:0:
256,192,114955,1,0,0:0:0:0:
256,192,115019,1,8,0:0:0:0:
256,192,115082,1,0,0:0:0:0:
256,192,115146,1,0,0:0:0:0:
256,192,115210,1,0,0:0:0:0:
256,192,115273,1,8,0:0:0:0:
256,192,115337,1,8,0:0:0:0:
256,192,115400,1,0,0:0:0:0:
256,192,115464,1,0,0:0:0:0:
256,192,115527,1,8,0:0:0:0:
256,192,115655,1,0,0:0:0:0:
256,192,115782,1,0,0:0:0:0:
256,192,115909,1,8,0:0:0:0:
256,192,115972,1,8,0:0:0:0:
256,192,116036,1,8,0:0:0:0:
256,192,116099,1,8,0:0:0:0:
256,192,116163,1,0,0:0:0:0:
256,192,116227,1,0,0:0:0:0:
256,192,116290,1,0,0:0:0:0:
256,192,116354,1,0,0:0:0:0:
256,192,116417,1,8,0:0:0:0:
256,192,116481,1,8,0:0:0:0:
256,192,116544,1,8,0:0:0:0:
256,192,116608,1,8,0:0:0:0:
256,192,116671,1,8,0:0:0:0:
256,192,116735,1,8,0:0:0:0:
256,192,116799,1,8,0:0:0:0:
256,192,116862,1,8,0:0:0:0:
256,192,116926,1,0,0:0:0:0:
256,192,117434,1,12,0:0:0:0:
256,192,117561,12,0,120993,0:0:0:0:
