osu file format v14

[General]
AudioFilename: audio.mp3
AudioLeadIn: 0
PreviewTime: 82392
Countdown: 0
SampleSet: Normal
StackLeniency: 0.7
Mode: 1
LetterboxInBreaks: 0
WidescreenStoryboard: 1

[Editor]
DistanceSpacing: 1.2
BeatDivisor: 4
GridSize: 32
TimelineZoom: 1.4

[Metadata]
Title:EgO
TitleUnicode:ΣgØ
Artist:Kabocha
ArtistUnicode:かぼちゃ
Creator:Capu
Version:Futsuu
Source:SOUND VOLTEX VIVID WAVE
Tags:hirok skull kid skid radar electronic instrumental dnb drum and bass rhythm game fast stream sdvx vvw
BeatmapID:2546750
BeatmapSetID:1156337

[Difficulty]
HPDrainRate:7
CircleSize:2
OverallDifficulty:4.5
ApproachRate:10
SliderMultiplier:1.3
SliderTickRate:1

[Events]
//Background and Video events
0,0,"12789641.jpeg",0,100
//Break Periods
2,73397,75543
//Storyboard Layer 0 (Background)
//Storyboard Layer 1 (Fail)
//Storyboard Layer 2 (Pass)
//Storyboard Layer 3 (Foreground)
//Storyboard Layer 4 (Overlay)
//Storyboard Sound Samples

[TimingPoints]
994,254.237288135593,4,1,0,28,1,8
2964,-100,4,1,0,60,0,0
27307,-100,4,1,0,70,0,0
75866,-100,4,1,0,40,0,0
84256,-100,4,1,0,80,0,0
84383,-100,4,1,0,80,0,1
87943,-100,4,1,0,80,0,0
88451,-100,4,1,0,80,0,1
92265,-100,4,1,0,80,0,0
92519,-100,4,1,0,80,0,1
116926,-100,4,1,0,80,0,0
117434,-100,4,1,0,50,0,1
120993,-100,4,1,0,50,0,0

[HitObjects]
256,192,1375,12,0,2773,0:0:0:0:
256,192,3027,5,0,0:0:0:0:
256,192,3282,1,0,0:0:0:0:
256,192,3409,1,8,0:0:0:0:
256,192,3663,1,0,0:0:0:0:
256,192,3790,1,0,0:0:0:0:
256,192,4044,1,0,0:0:0:0:
256,192,4171,1,8,0:0:0:0:
256,192,4553,1,0,0:0:0:0:
256,192,5061,1,0,0:0:0:0:
256,192,5316,1,0,0:0:0:0:
256,192,5443,1,8,0:0:0:0:
256,192,5697,1,8,0:0:0:0:
256,192,5824,1,0,0:0:0:0:
256,192,6078,1,0,0:0:0:0:
256,192,6205,1,8,0:0:0:0:
256,192,6587,1,0,0:0:0:0:
256,192,7095,5,0,0:0:0:0:
256,192,7349,1,0,0:0:0:0:
256,192,7477,1,8,0:0:0:0:
256,192,7731,1,8,0:0:0:0:
256,192,7858,1,0,0:0:0:0:
256,192,8112,1,0,0:0:0:0:
256,192,8239,1,8,0:0:0:0:
256,192,8621,1,0,0:0:0:0:
256,192,9129,1,0,0:0:0:0:
256,192,9383,1,0,0:0:0:0:
256,192,9510,1,8,0:0:0:0:
256,192,9765,1,8,0:0:0:0:
256,192,9892,1,8,0:0:0:0:
256,192,10146,1,0,0:0:0:0:
256,192,10273,1,8,0:0:0:0:
256,192,10655,1,8,0:0:0:0:
256,192,11163,5,0,0:0:0:0:
256,192,11417,1,0,0:0:0:0:
256,192,11544,1,8,0:0:0:0:
256,192,11799,1,8,0:0:0:0:
256,192,11926,1,0,0:0:0:0:
256,192,12180,1,0,0:0:0:0:
256,192,12307,1,8,0:0:0:0:
256,192,12688,1,8,0:0:0:0:
256,192,13197,1,0,0:0:0:0:
256,192,13451,1,8,0:0:0:0:
256,192,13579,1,8,0:0:0:0:
256,192,13832,1,8,0:0:0:0:
256,192,13960,1,0,0:0:0:0:
256,192,14214,1,0,0:0:0:0:
256,192,14341,1,8,0:0:0:0:
256,192,14723,1,0,0:0:0:0:
256,192,15231,5,0,0:0:0:0:
256,192,15485,1,0,0:0:0:0:
256,192,15612,1,8,0:0:0:0:
256,192,15866,1,8,0:0:0:0:
256,192,15994,1,0,0:0:0:0:
256,192,16248,1,0,0:0:0:0:
256,192,16375,1,8,0:0:0:0:
256,192,16756,1,12,0:0:0:0:
256,192,17265,1,0,0:0:0:0:
256,192,17519,1,0,0:0:0:0:
256,192,17646,1,8,0:0:0:0:
256,192,17900,1,8,0:0:0:0:
256,192,18028,1,8,0:0:0:0:
256,192,18282,1,8,0:0:0:0:
256,192,18409,1,0,0:0:0:0:
256,192,18790,1,8,0:0:0:0:
256,192,19044,1,8,0:0:0:0:
256,192,19299,1,4,0:0:0:0:
256,192,20061,5,8,0:0:0:0:
256,192,20824,1,0,0:0:0:0:
256,192,21332,1,8,0:0:0:0:
256,192,21714,1,0,0:0:0:0:
256,192,22349,1,8,0:0:0:0:
256,192,23366,1,0,0:0:0:0:
256,192,23684,1,8,0:0:0:0:
256,192,24129,1,0,0:0:0:0:
256,192,24510,1,0,0:0:0:0:
256,192,24892,1,8,0:0:0:0:
256,192,25400,1,8,0:0:0:0:
256,192,26799,1,8,0:0:0:0:
256,192,27434,1,4,0:0:0:0:
256,192,27816,1,8,0:0:0:0:
256,192,27943,1,0,0:0:0:0:
256,192,28197,1,8,0:0:0:0:
256,192,28324,1,0,0:0:0:0:
256,192,28451,1,8,0:0:0:0:
256,192,28960,1,8,0:0:0:0:
256,192,29214,1,0,0:0:0:0:
256,192,29341,1,0,0:0:0:0:
256,192,29468,1,8,0:0:0:0:
256,192,29722,1,0,0:0:0:0:
256,192,29849,1,8,0:0:0:0:
256,192,29977,1,8,0:0:0:0:
256,192,30231,1,0,0:0:0:0:
256,192,30485,1,8,0:0:0:0:
256,192,30866,1,8,0:0:0:0:
256,192,31121,1,8,0:0:0:0:
256,192,31248,1,0,0:0:0:0:
256,192,31502,1,8,0:0:0:0:
256,192,32010,1,8,0:0:0:0:
256,192,32138,1,0,0:0:0:0:
256,192,32265,1,8,0:0:0:0:
256,192,32519,1,0,0:0:0:0:
256,192,32900,1,8,0:0:0:0:
256,192,33155,1,0,0:0:0:0:
256,192,33282,1,8,0:0:0:0:
256,192,33536,1,8,0:0:0:0:
256,192,33790,1,0,0:0:0:0:
256,192,33917,1,0,0:0:0:0:
256,192,34044,1,8,0:0:0:0:
256,192,34299,1,0,0:0:0:0:
256,192,34553,1,8,0:0:0:0:
256,192,35570,5,4,0:0:0:0:
256,192,35952,1,8,0:0:0:0:
256,192,36079,1,0,0:0:0:0:
256,192,36333,1,8,0:0:0:0:
256,192,36460,1,0,0:0:0:0:
256,192,36587,1,8,0:0:0:0:
256,192,37096,1,8,0:0:0:0:
256,192,37350,1,0,0:0:0:0:
256,192,37477,1,0,0:0:0:0:
256,192,37604,1,8,0:0:0:0:
256,192,37858,1,0,0:0:0:0:
256,192,37985,1,8,0:0:0:0:
256,192,38113,1,8,0:0:0:0:
256,192,38367,1,0,0:0:0:0:
256,192,38621,1,8,0:0:0:0:
256,192,39002,1,8,0:0:0:0:
256,192,39257,1,8,0:0:0:0:
256,192,39384,1,0,0:0:0:0:
256,192,39638,1,8,0:0:0:0:
256,192,40146,1,8,0:0:0:0:
256,192,40274,1,0,0:0:0:0:
256,192,40401,1,8,0:0:0:0:
256,192,40655,1,0,0:0:0:0:
256,192,41036,1,8,0:0:0:0:
256,192,41291,1,0,0:0:0:0:
256,192,41418,1,8,0:0:0:0:
256,192,41672,1,8,0:0:0:0:
256,192,41926,1,0,0:0:0:0:
256,192,42053,1,0,0:0:0:0:
256,192,42180,1,8,0:0:0:0:
256,192,42435,1,0,0:0:0:0:
256,192,42689,1,8,0:0:0:0:
256,192,43070,1,8,0:0:0:0:
256,192,43706,5,4,0:0:0:0:
256,192,44214,1,0,0:0:0:0:
256,192,44722,1,8,0:0:0:0:
256,192,45231,1,0,0:0:0:0:
256,192,45739,1,0,0:0:0:0:
256,192,46248,1,8,0:0:0:0:
256,192,46756,1,8,0:0:0:0:
256,192,47265,1,0,0:0:0:0:
256,192,47519,1,8,0:0:0:0:
256,192,47773,1,0,0:0:0:0:
256,192,48027,1,0,0:0:0:0:
256,192,48282,1,8,0:0:0:0:
256,192,48790,1,0,0:0:0:0:
256,192,49044,1,8,0:0:0:0:
256,192,49299,1,0,0:0:0:0:
256,192,49807,1,8,0:0:0:0:
256,192,49934,1,8,0:0:0:0:
256,192,50061,1,0,0:0:0:0:
256,192,50316,1,8,0:0:0:0:
256,192,50570,1,0,0:0:0:0:
256,192,50824,1,8,0:0:0:0:
256,192,51841,1,0,0:0:0:0:
256,192,52349,1,12,0:0:0:0:
256,192,52858,1,0,0:0:0:0:
256,192,53112,1,0,0:0:0:0:
256,192,53366,1,12,0:0:0:0:
256,192,53875,1,0,0:0:0:0:
256,192,54383,1,12,0:0:0:0:
256,192,54892,1,12,0:0:0:0:
256,192,55146,1,8,0:0:0:0:
256,192,55400,1,4,0:0:0:0:
256,192,55909,1,0,0:0:0:0:
256,192,56417,1,12,0:0:0:0:
256,192,56926,1,0,0:0:0:0:
256,192,57180,1,0,0:0:0:0:
256,192,57434,1,12,0:0:0:0:
256,192,57943,1,0,0:0:0:0:
256,192,58451,1,12,0:0:0:0:
256,192,58706,1,0,0:0:0:0:
256,192,58960,1,12,0:0:0:0:
256,192,59468,1,4,0:0:0:0:
256,192,59977,1,0,0:0:0:0:
256,192,60231,1,0,0:0:0:0:
256,192,60485,1,8,0:0:0:0:
256,192,60612,1,0,0:0:0:0:
256,192,60739,1,8,0:0:0:0:
256,192,60993,1,0,0:0:0:0:
256,192,61502,1,8,0:0:0:0:
256,192,62010,1,8,0:0:0:0:
256,192,62265,1,8,0:0:0:0:
256,192,62519,1,0,0:0:0:0:
256,192,62646,1,0,0:0:0:0:
256,192,62773,1,8,0:0:0:0:
256,192,63027,1,12,0:0:0:0:
256,192,63536,1,4,0:0:0:0:
256,192,64044,1,8,0:0:0:0:
256,192,64299,1,0,0:0:0:0:
256,192,64553,1,8,0:0:0:0:
256,192,64807,1,0,0:0:0:0:
256,192,64934,1,0,0:0:0:0:
256,192,65061,1,8,0:0:0:0:
256,192,65316,1,0,0:0:0:0:
256,192,65570,1,8,0:0:0:0:
256,192,66078,1,8,0:0:0:0:
256,192,66332,1,8,0:0:0:0:
256,192,66587,1,0,0:0:0:0:
256,192,66841,1,0,0:0:0:0:
256,192,67095,1,12,0:0:0:0:
256,192,67604,1,12,0:0:0:0:
256,192,68112,1,4,0:0:0:0:
256,192,68366,12,0,73197,0:0:0:0:
256,192,75993,5,0,0:0:0:0:
256,192,76121,1,0,0:0:0:0:
256,192,76248,1,4,0:0:0:0:
256,192,76756,1,0,0:0:0:0:
256,192,77265,1,0,0:0:0:0:
256,192,77773,1,0,0:0:0:0:
256,192,78027,1,8,0:0:0:0:
256,192,78282,1,0,0:0:0:0:
256,192,78790,1,0,0:0:0:0:
256,192,79299,1,0,0:0:0:0:
256,192,79553,1,8,0:0:0:0:
256,192,79807,1,0,0:0:0:0:
256,192,80061,1,8,0:0:0:0:
256,192,80316,1,8,0:0:0:0:
256,192,80570,1,0,0:0:0:0:
256,192,80697,1,8,0:0:0:0:
256,192,80951,1,8,0:0:0:0:
256,192,81078,1,0,0:0:0:0:
256,192,81332,1,8,0:0:0:0:
256,192,81460,1,0,0:0:0:0:
256,192,81714,1,0,0:0:0:0:
256,192,81841,1,8,0:0:0:0:
256,192,82095,1,8,0:0:0:0:
256,192,82222,1,8,0:0:0:0:
256,192,82349,1,0,0:0:0:0:
256,192,83875,1,8,0:0:0:0:
256,192,84383,1,4,0:0:0:0:
256,192,84765,1,0,0:0:0:0:
256,192,84892,1,0,0:0:0:0:
256,192,85273,1,8,0:0:0:0:
256,192,85400,1,0,0:0:0:0:
256,192,85782,1,8,0:0:0:0:
256,192,85909,1,0,0:0:0:0:
256,192,86417,1,12,0:0:0:0:
256,192,86799,1,0,0:0:0:0:
256,192,86926,1,8,0:0:0:0:
256,192,87307,1,0,0:0:0:0:
256,192,87434,1,8,0:0:0:0:
256,192,87816,1,0,0:0:0:0:
256,192,87943,1,8,0:0:0:0:
256,192,88451,1,12,0:0:0:0:
256,192,88705,1,8,0:0:0:0:
256,192,88960,1,8,0:0:0:0:
256,192,89214,1,8,0:0:0:0:
256,192,89468,1,8,0:0:0:0:
256,192,89977,1,0,0:0:0:0:
256,192,90485,1,8,0:0:0:0:
256,192,90739,1,0,0:0:0:0:
256,192,90866,1,0,0:0:0:0:
256,192,90993,1,8,0:0:0:0:
256,192,91248,1,8,0:0:0:0:
256,192,91502,1,8,0:0:0:0:
256,192,92010,1,8,0:0:0:0:
256,192,92519,1,4,0:0:0:0:
256,192,92773,1,8,0:0:0:0:
256,192,93027,1,0,0:0:0:0:
256,192,93282,1,8,0:0:0:0:
256,192,93536,1,8,0:0:0:0:
256,192,93917,1,8,0:0:0:0:
256,192,94044,1,0,0:0:0:0:
256,192,94553,1,8,0:0:0:0:
256,192,94807,1,8,0:0:0:0:
256,192,95061,1,0,0:0:0:0:
256,192,95188,1,8,0:0:0:0:
256,192,95316,1,0,0:0:0:0:
256,192,95570,1,8,0:0:0:0:
256,192,95951,1,8,0:0:0:0:
256,192,96078,1,8,0:0:0:0:
256,192,96587,1,12,0:0:0:0:
256,192,96841,1,0,0:0:0:0:
256,192,97095,1,8,0:0:0:0:
256,192,97349,1,0,0:0:0:0:
256,192,97477,1,8,0:0:0:0:
256,192,97604,1,8,0:0:0:0:
256,192,97858,1,0,0:0:0:0:
256,192,98112,1,0,0:0:0:0:
256,192,98621,1,8,0:0:0:0:
256,192,98875,1,8,0:0:0:0:
256,192,99002,1,8,0:0:0:0:
256,192,99129,1,0,0:0:0:0:
256,192,99383,1,0,0:0:0:0:
256,192,99638,1,8,0:0:0:0:
256,192,99892,1,8,0:0:0:0:
256,192,100146,1,8,0:0:0:0:
256,192,100273,1,8,0:0:0:0:
256,192,100400,1,8,0:0:0:0:
256,192,100655,1,4,0:0:0:0:
256,192,101163,1,0,0:0:0:0:
256,192,101417,1,8,0:0:0:0:
256,192,101671,1,8,0:0:0:0:
256,192,101926,1,0,0:0:0:0:
256,192,102180,1,0,0:0:0:0:
256,192,102371,1,8,0:0:0:0:
256,192,102688,1,0,0:0:0:0:
256,192,103197,1,8,0:0:0:0:
256,192,103451,1,8,0:0:0:0:
256,192,103705,1,8,0:0:0:0:
256,192,103960,1,0,0:0:0:0:
256,192,104214,1,8,0:0:0:0:
256,192,104595,1,8,0:0:0:0:
256,192,104722,1,4,0:0:0:0:
256,192,105231,1,8,0:0:0:0:
256,192,105485,1,0,0:0:0:0:
256,192,105739,1,8,0:0:0:0:
256,192,106121,1,0,0:0:0:0:
256,192,106248,1,8,0:0:0:0:
256,192,106756,1,8,0:0:0:0:
256,192,106883,1,0,0:0:0:0:
256,192,107138,1,0,0:0:0:0:
256,192,107265,1,8,0:0:0:0:
256,192,107519,1,0,0:0:0:0:
256,192,107773,1,8,0:0:0:0:
256,192,108790,1,4,0:0:0:0:
256,192,109299,1,8,0:0:0:0:
256,192,109807,1,8,0:0:0:0:
256,192,110061,1,0,0:0:0:0:
256,192,110316,1,8,0:0:0:0:
256,192,110824,1,8,0:0:0:0:
256,192,111015,1,8,0:0:0:0:
256,192,111205,1,8,0:0:0:0:
256,192,111332,1,0,0:0:0:0:
256,192,111841,1,8,0:0:0:0:
256,192,112032,1,0,0:0:0:0:
256,192,112222,1,0,0:0:0:0:
256,192,112349,1,8,0:0:0:0:
256,192,112858,1,12,0:0:0:0:
256,192,113112,1,0,0:0:0:0:
256,192,113366,1,8,0:0:0:0:
256,192,113621,1,0,0:0:0:0:
256,192,113875,1,8,0:0:0:0:
256,192,114129,1,0,0:0:0:0:
256,192,114383,1,8,0:0:0:0:
256,192,114892,1,8,0:0:0:0:
256,192,115146,1,8,0:0:0:0:
256,192,115400,1,0,0:0:0:0:
256,192,115655,1,0,0:0:0:0:
256,192,115909,1,8,0:0:0:0:
256,192,116163,1,8,0:0:0:0:
256,192,116290,1,8,0:0:0:0:
256,192,116417,1,8,0:0:0:0:
256,192,116671,1,8,0:0:0:0:
256,192,116799,1,8,0:0:0:0:
256,192,117434,12,0,120993,0:0:0:0:
