osu file format v14

[General]
AudioFilename: audio.mp3
AudioLeadIn: 0
PreviewTime: 53429
Countdown: 1
SampleSet: Normal
StackLeniency: 0.7
Mode: 0
LetterboxInBreaks: 0
WidescreenStoryboard: 0

[Editor]
DistanceSpacing: 2.5
BeatDivisor: 4
GridSize: 8
TimelineZoom: 3.399998

[Metadata]
Title:Buraki
TitleUnicode:Buraki
Artist:Kabanos
ArtistUnicode:Kabanos
Creator:Trabanto
Version:Wyjebane
Source:
Tags:polish comedy rock alternative metal beetroot
BeatmapID:1389972
BeatmapSetID:655975

[Difficulty]
HPDrainRate:6
CircleSize:4.2
OverallDifficulty:9
ApproachRate:9.8
SliderMultiplier:2
SliderTickRate:1

[Events]
//Background and Video events
0,0,"deadpool.jpg",0,0
//Break Periods
2,25764,31379
2,98914,104807
//Storyboard Layer 0 (Background)
//Storyboard Layer 1 (Fail)
//Storyboard Layer 2 (Pass)
//Storyboard Layer 3 (Foreground)
//Storyboard Sound Samples

[TimingPoints]
488,500,4,1,0,70,1,0
488,-133.333333333333,4,3,0,60,0,0
16422,285.714285714286,4,1,0,100,1,0
16422,-100,4,1,0,100,0,0
25564,571.428571428571,4,1,0,100,1,0
25564,-133.333333333333,4,1,0,100,0,0
32429,285.714285714286,4,1,0,100,1,0
32429,-133.333333333333,4,1,0,50,0,0
33000,-133.333333333333,4,1,0,60,0,0
33571,-133.333333333333,4,1,0,70,0,0
34143,-100,4,1,0,85,0,0
34714,-100,4,1,0,100,0,0
43857,-133.333333333333,4,3,0,80,0,0
52429,-133.333333333333,4,1,0,100,0,0
62143,-100,4,1,0,100,0,0
62571,-133.333333333333,4,1,0,100,0,0
71286,-100,4,1,0,100,0,1
78143,-133.333333333333,4,1,0,90,0,1
78714,-200,4,1,0,80,0,1
79286,-200,4,3,0,70,0,0
81000,-200,4,2,0,80,0,0
105571,-100,4,1,0,100,0,0
105857,-100,4,1,0,50,0,0
106429,-100,4,1,0,60,0,0
107000,-100,4,1,0,70,0,0
107286,-100,4,1,0,85,0,0
107857,-100,4,1,0,100,0,0
117000,-133.333333333333,4,1,0,100,0,0
117429,-133.333333333333,4,3,0,80,0,0
125571,-133.333333333333,4,1,0,100,0,0
126143,-100,4,1,0,100,0,0
126429,-133.333333333333,4,1,0,100,0,0
135286,-100,4,1,0,100,0,0
135571,-133.333333333333,4,1,0,100,0,0
144429,-100,4,1,0,100,0,1
151286,-100,4,1,0,90,0,1
151857,-100,4,1,0,80,0,1
152429,-100,4,3,0,70,0,0
153571,-200,4,3,0,80,0,0
154143,-200,4,2,0,80,0,0
171857,-100,4,1,0,100,0,0
181000,-133.333333333333,4,3,0,100,0,0
190143,-200,4,1,0,100,0,0

[HitObjects]
136,272,488,6,0,B|184:200|184:200|264:176,1,150.000005722046
272,304,1238,1,0,0:0:0:0:
320,176,1488,1,0,0:0:0:0:
264,56,1738,1,0,0:0:0:0:
320,176,1988,1,0,0:0:0:0:
272,304,2238,1,0,0:0:0:0:
312,88,2488,2,0,P|373:108|405:188,1,150.000005722046
272,240,3238,5,0,0:0:0:0:
440,160,3488,2,0,L|376:72,1,75.0000028610231
144,192,3988,2,0,L|208:270,1,75.0000028610231
368,232,4488,2,0,L|256:96,1,150.000005722046
336,68,5238,5,0,0:0:0:0:
272,232,5488,1,0,0:0:0:0:
272,232,5738,1,0,0:0:0:0:
176,112,5988,1,0,0:0:0:0:
328,184,6238,1,0,0:0:0:0:
112,64,6488,2,0,P|96:128|152:192,1,150.000005722046
296,112,7238,5,0,0:0:0:0:
384,304,7488,1,0,0:0:0:0:
152,88,7988,1,0,0:0:0:0:
264,264,8488,2,0,L|400:328,1,150.000005722046
416,320,9238,5,0,0:0:0:0:
304,128,9488,1,0,0:0:0:0:
272,136,9738,1,0,0:0:0:0:
304,336,9988,1,0,0:0:0:0:
376,312,10238,1,0,0:0:0:0:
272,160,10488,2,0,B|216:144|216:144|120:176,1,150.000005722046
176,72,11238,5,0,0:0:0:0:
200,272,11488,1,0,0:0:0:0:
288,96,11738,1,0,0:0:0:0:
248,288,11988,1,0,0:0:0:0:
360,192,12238,1,0,0:0:0:0:
371,337,12488,2,0,P|315:345|245:278,1,150.000005722046
224,208,13238,5,0,0:0:0:0:
328,256,13488,1,0,0:0:0:0:
296,104,13738,1,0,0:0:0:0:
448,168,13988,1,0,0:0:0:0:
448,168,14238,1,0,0:0:0:0:
344,296,14488,2,0,B|272:336|272:336|192:312,1,150.000005722046
416,208,15238,5,0,0:0:0:0:
312,112,15488,2,0,B|256:88|264:88|216:112|192:96,1,125.000004768372
209,29,15988,2,0,P|153:37|123:82,1,112.500004291535
248,256,16422,5,4,0:0:0:0:
344,128,16564,1,0,0:0:0:0:
192,96,16707,1,0,0:0:0:0:
256,248,16850,1,4,0:0:0:0:
319,97,16992,1,0,0:0:0:0:
147,128,17135,1,0,0:0:0:0:
270,245,17279,5,4,0:0:0:0:
270,75,17422,1,0,0:0:0:0:
270,75,17564,1,0,0:0:0:0:
328,256,17707,1,4,0:0:0:0:
456,152,17850,1,0,0:0:0:0:
456,152,17993,1,0,0:0:0:0:
295,59,18136,5,8,0:0:0:0:
352,304,18279,1,8,0:0:0:0:
239,75,18422,1,8,0:0:0:0:
200,320,18565,1,8,0:0:0:0:
108,180,18707,6,0,P|137:129|191:94,1,100,4|0,0:0|0:0,0:0:0:0:
295,59,18993,1,0,0:0:0:0:
382,248,19136,6,0,P|324:238|272:199,1,100,4|0,0:0|0:0,0:0:0:0:
184,136,19422,1,0,0:0:0:0:
336,88,19564,2,0,L|472:32,1,100,4|0,0:0|0:0,0:0:0:0:
382,248,19850,1,0,0:0:0:0:
184,136,19993,2,0,L|48:80,1,100,4|0,0:0|0:0,0:0:0:0:
222,300,20279,1,0,0:0:0:0:
304,96,20422,5,8,0:0:0:0:
384,328,20564,1,8,0:0:0:0:
352,96,20707,1,8,0:0:0:0:
176,272,20850,1,8,0:0:0:0:
408,40,20993,6,0,P|427:74|414:144,1,100,4|0,0:0|0:0,0:0:0:0:
280,208,21279,1,0,0:0:0:0:
392,320,21422,1,4,0:0:0:0:
400,160,21564,1,0,0:0:0:0:
392,320,21707,1,0,0:0:0:0:
296,144,21850,1,4,0:0:0:0:
288,304,21992,1,0,0:0:0:0:
296,144,22135,1,0,0:0:0:0:
192,320,22279,1,4,0:0:0:0:
192,160,22421,1,0,0:0:0:0:
192,320,22564,1,0,0:0:0:0:
40,152,22707,5,8,0:0:0:0:
298,267,22850,1,8,0:0:0:0:
103,101,22993,1,8,0:0:0:0:
127,346,23136,1,8,0:0:0:0:
195,83,23279,6,0,P|207:136|240:176,1,100,4|0,0:0|0:0,0:0:0:0:
384,232,23564,1,0,0:0:0:0:
88,192,23707,2,0,P|136:216|188:217,1,100,4|0,0:0|0:0,0:0:0:0:
336,168,23992,1,0,0:0:0:0:
152,328,24136,2,0,P|202:306|235:267,1,100,4|0,0:0|0:0,0:0:0:0:
272,120,24421,1,0,0:0:0:0:
432,120,24564,1,4,0:0:0:0:
352,256,24707,1,0,0:0:0:0:
352,104,24850,1,0,0:0:0:0:
256,320,24993,5,8,0:0:0:0:
256,320,25136,1,8,0:0:0:0:
142,98,25279,1,8,0:0:0:0:
142,98,25422,1,8,0:0:0:0:
40,320,25564,1,4,0:0:0:0:
160,80,32429,6,0,L|249:117,1,75.0000028610231
326,212,32714,1,0,0:0:0:0:
326,212,32857,1,0,0:0:0:0:
268,67,33000,6,0,L|304:156,1,75.0000028610231
286,292,33286,1,0,0:0:0:0:
286,292,33428,1,0,0:0:0:0:
354,142,33571,6,0,L|316:231,1,75.0000028610231
194,309,33857,1,0,0:0:0:0:
194,309,34000,1,0,0:0:0:0:
60,267,34143,5,8,0:0:0:0:
224,224,34286,1,8,0:0:0:0:
60,267,34429,1,0,0:0:0:0:
223,79,34572,1,0,0:0:0:0:
315,200,34714,2,0,B|317:223|317:223|304:239|304:239|303:258|303:258|291:275|291:275|267:295|267:295|265:313,1,100
96,128,35000,5,8,0:0:0:0:
224,224,35143,1,0,0:0:0:0:
376,144,35286,2,0,P|320:120|272:128,1,100,4|0,0:0|0:0,0:0:0:0:
96,320,35571,1,8,0:0:0:0:
224,224,35714,1,0,0:0:0:0:
376,304,35857,2,0,P|320:328|272:320,1,100,4|0,0:0|0:0,0:0:0:0:
192,80,36143,5,8,0:0:0:0:
312,248,36286,1,0,0:0:0:0:
264,32,36429,2,0,P|272:88|248:152,1,100,4|0,0:0|0:0,0:0:0:0:
159,284,36714,1,8,0:0:0:0:
192,80,36857,1,0,0:0:0:0:
74,267,37000,2,0,P|107:221|170:193,1,100,4|0,0:0|0:0,0:0:0:0:
327,164,37286,1,8,0:0:0:0:
159,284,37429,1,0,0:0:0:0:
375,236,37572,2,0,P|326:244|277:233,1,100,4|0,0:0|0:0,0:0:0:0:
160,136,37857,5,8,0:0:0:0:
160,136,38000,1,0,0:0:0:0:
336,64,38143,2,0,P|344:112|333:161,1,100,4|0,0:0|0:0,0:0:0:0:
232,272,38429,1,8,0:0:0:0:
232,272,38572,1,0,0:0:0:0:
56,344,38715,2,0,P|47:295|58:246,1,100,4|0,0:0|0:0,0:0:0:0:
224,312,39000,5,8,0:0:0:0:
104,176,39143,1,0,0:0:0:0:
304,328,39286,2,0,P|348:306|382:269,1,100,4|0,0:0|0:0,0:0:0:0:
240,152,39571,1,8,0:0:0:0:
228,333,39714,1,0,0:0:0:0:
194,84,39857,2,0,P|147:67|97:69,1,100,4|0,0:0|0:0,0:0:0:0:
72,248,40143,5,8,0:0:0:0:
228,333,40286,1,0,0:0:0:0:
392,264,40429,2,0,P|430:232|453:188,1,100,4|0,0:0|0:0,0:0:0:0:
392,40,40714,1,8,0:0:0:0:
293,130,40857,1,0,0:0:0:0:
305,263,41000,2,0,P|323:309|357:345,1,100,4|0,0:0|0:0,0:0:0:0:
192,232,41286,1,8,0:0:0:0:
400,256,41429,1,0,0:0:0:0:
203,203,41571,6,0,L|255:79,1,100,4|0,0:0|0:0,0:0:0:0:
429,64,41857,2,0,L|368:168,1,100,8|0,0:0|0:0,0:0:0:0:
138,279,42143,2,0,L|220:183,1,100,4|0,0:0|0:0,0:0:0:0:
410,162,42429,2,0,L|316:225,1,100,8|0,0:0|0:0,0:0:0:0:
102,209,42714,2,0,L|211:202,1,100,4|0,0:0|0:0,0:0:0:0:
421,249,43000,2,0,L|289:205,1,100,8|0,0:0|0:0,0:0:0:0:
96,272,43286,5,8,0:0:0:0:
128,152,43429,1,8,0:0:0:0:
192,272,43571,1,8,0:0:0:0:
256,112,43714,1,8,0:0:0:0:
323,312,43857,2,0,P|267:320|192:264,1,150.000005722046,4|0,0:0|0:0,0:0:0:0:
152,152,44286,1,0,0:0:0:0:
280,224,44429,2,0,L|320:176,1,37.5000014305115,4|0,0:0|0:0,0:0:0:0:
336,152,44572,1,0,0:0:0:0:
456,184,44714,2,4,L|392:264,1,75.0000028610231,4|0,0:0|0:0,0:0:0:0:
240,152,45000,6,0,L|288:152,1,37.5000014305115,4|0,0:0|0:0,0:0:0:0:
336,152,45143,1,0,0:0:0:0:
408,312,45286,2,0,B|368:304|368:304|328:256,1,75.0000028610231,4|0,0:0|0:0,0:0:0:0:
275,80,45571,2,0,L|315:128,1,37.5000014305115,4|0,0:0|0:0,0:0:0:0:
336,152,45714,1,0,0:0:0:0:
256,336,45857,2,4,B|152:208|152:208|152:208,1,150.000005722046
96,136,46286,5,0,0:0:0:0:
208,64,46429,1,4,0:0:0:0:
208,64,46500,1,0,0:0:0:0:
208,64,46571,1,0,0:0:0:0:
168,208,46714,1,4,0:0:0:0:
168,208,46786,1,0,0:0:0:0:
168,208,46857,1,0,0:0:0:0:
272,304,47000,2,0,P|312:328|360:320,1,75.0000028610231,4|0,0:0|0:0,0:0:0:0:
432,240,47286,6,0,L|392:184,1,37.5000014305115,4|0,0:0|0:0,0:0:0:0:
384,176,47429,1,0,0:0:0:0:
272,144,47571,2,0,P|232:160|208:200,1,75.0000028610231,4|0,0:0|0:0,0:0:0:0:
160,280,47857,1,4,0:0:0:0:
160,280,47929,1,0,0:0:0:0:
160,280,48000,1,0,0:0:0:0:
214,177,48143,2,0,P|163:141|70:193,1,150.000005722046,4|4,0:0|0:0,0:0:0:0:
264,128,48571,5,0,0:0:0:0:
146,208,48714,2,0,L|97:247,2,37.5000014305115,4|0|0,0:0|0:0|0:0,0:0:0:0:
288,208,49000,1,4,0:0:0:0:
288,208,49071,1,0,0:0:0:0:
288,208,49143,1,0,0:0:0:0:
136,128,49286,2,0,L|56:192,1,75.0000028610231,4|0,0:0|0:0,0:0:0:0:
147,294,49571,1,4,0:0:0:0:
182,281,49643,1,0,0:0:0:0:
210,257,49714,1,0,0:0:0:0:
204,107,49857,2,0,P|181:75|140:59,1,75.0000028610231,4|0,0:0|0:0,0:0:0:0:
89,157,50143,6,0,L|43:204,2,37.5000014305115,4|0|0,0:0|0:0|0:0,0:0:0:0:
204,107,50429,2,0,B|274:148|232:203|341:216,1,150.000005722046,4|0,0:0|0:0,0:0:0:0:
328,88,50857,5,0,0:0:0:0:
352,240,51000,1,4,0:0:0:0:
392,258,51071,1,0,0:0:0:0:
436,251,51143,1,0,0:0:0:0:
376,128,51286,1,4,0:0:0:0:
338,131,51357,1,0,0:0:0:0:
308,154,51429,1,0,0:0:0:0:
192,261,51571,2,0,P|224:253|264:213,1,75.0000028610231,4|0,0:0|0:0,0:0:0:0:
144,104,51857,2,0,L|176:160,1,37.5000014305115,4|0,0:0|0:0,0:0:0:0:
184,176,52000,1,0,0:0:0:0:
352,112,52143,2,0,L|304:192,1,75.0000028610231,4|0,0:0|0:0,0:0:0:0:
95,223,52429,5,8,0:0:0:0:
151,95,52571,1,8,0:0:0:0:
199,271,52714,1,8,0:0:0:0:
263,63,52857,1,8,0:0:0:0:
288,312,53000,2,0,L|351:159,1,150.000005722046,4|0,0:0|0:0,0:0:0:0:
168,96,53429,5,0,0:0:0:0:
144,288,53571,2,0,B|192:264|192:264|232:168,1,150.000005722046,8|0,0:0|0:0,0:0:0:0:
64,280,54000,2,0,P|76:336|94:352,1,75.0000028610231,8|0,0:0|0:0,0:0:0:0:
272,280,54286,1,0,0:0:0:0:
112,168,54429,1,0,0:0:0:0:
272,280,54571,1,0,0:0:0:0:
144,144,54714,2,0,L|240:88,1,75.0000028610231,8|0,0:0|0:0,0:0:0:0:
448,152,55000,2,0,L|368:200,1,75.0000028610231,0|8,0:0|0:0,0:0:0:0:
152,224,55286,2,0,L|248:168,1,75.0000028610231,4|0,0:0|0:0,0:0:0:0:
392,104,55571,5,0,0:0:0:0:
272,264,55714,1,0,0:0:0:0:
80,232,55857,2,0,B|88:176|88:176|184:120,1,150.000005722046,8|0,0:0|0:0,0:0:0:0:
416,200,56286,2,0,P|280:280|280:280,1,150.000005722046,8|0,0:0|0:0,0:0:0:0:
320,112,56714,1,0,0:0:0:0:
248,296,56857,1,0,0:0:0:0:
360,120,57000,2,0,L|456:128,1,75.0000028610231,8|0,0:0|0:0,0:0:0:0:
344,304,57286,2,0,L|256:296,1,75.0000028610231,0|8,0:0|0:0,0:0:0:0:
184,40,57571,2,0,L|264:48,1,75.0000028610231,4|0,0:0|0:0,0:0:0:0:
224,240,57857,5,0,0:0:0:0:
296,56,58000,1,0,0:0:0:0:
272,312,58143,2,0,P|203:314|138:265,1,150.000005722046,8|0,0:0|0:0,0:0:0:0:
200,96,58571,2,0,P|181:176|224:236,1,150.000005722046
408,272,59000,1,0,0:0:0:0:
432,80,59143,1,0,0:0:0:0:
256,152,59286,1,8,0:0:0:0:
416,264,59429,1,0,0:0:0:0:
224,224,59572,1,0,0:0:0:0:
416,192,59714,1,8,0:0:0:0:
208,304,59857,6,0,P|153:243|183:162,1,150.000005722046,4|0,0:0|0:0,0:0:0:0:
304,48,60286,1,0,0:0:0:0:
376,232,60429,2,0,P|219:231|219:231,1,150.000005722046,8|8,0:0|0:0,0:0:0:0:
208,112,60857,2,0,P|293:112|293:112,1,75.0000028610231,8|0,0:0|0:0,0:0:0:0:
136,240,61143,5,0,0:0:0:0:
136,240,61214,1,0,0:0:0:0:
136,240,61286,1,4,0:0:0:0:
368,112,61429,1,0,0:0:0:0:
329,313,61571,1,8,0:0:0:0:
171,171,61714,1,8,0:0:0:0:
368,104,61857,1,8,0:0:0:0:
176,48,62000,1,8,0:0:0:0:
359,223,62143,2,0,B|343:247|343:247|327:239|327:239|321:266|321:266|297:267|297:267|279:295|239:303|193:282,1,200
48,176,62571,5,0,0:0:0:0:
224,96,62714,2,0,P|264:144|239:227,1,150.000005722046,8|0,0:0|0:0,0:0:0:0:
72,320,63143,2,0,P|152:192|152:192,1,150.000005722046,8|0,0:0|0:0,0:0:0:0:
256,24,63571,1,0,0:0:0:0:
328,208,63714,1,0,0:0:0:0:
488,96,63857,2,0,L|446:168,1,75.0000028610231,8|0,0:0|0:0,0:0:0:0:
366,272,64143,2,0,L|318:192,1,75.0000028610231,0|8,0:0|0:0,0:0:0:0:
176,56,64429,2,0,L|128:144,1,75.0000028610231,4|0,0:0|0:0,0:0:0:0:
48,296,64714,5,0,0:0:0:0:
128,144,64857,1,0,0:0:0:0:
88,296,65000,2,0,L|245:269,1,150.000005722046,8|0,0:0|0:0,0:0:0:0:
341,80,65429,2,0,L|184:106,1,150.000005722046,8|0,0:0|0:0,0:0:0:0:
312,264,65857,1,0,0:0:0:0:
360,72,66000,1,0,0:0:0:0:
168,104,66142,1,8,0:0:0:0:
400,152,66285,1,0,0:0:0:0:
152,184,66428,1,0,0:0:0:0:
376,240,66571,1,8,0:0:0:0:
152,288,66714,2,0,B|136:272|136:272|112:280|112:256|48:248|72:152,1,150.000005722046,4|0,0:0|0:0,0:0:0:0:
200,40,67143,5,0,0:0:0:0:
344,160,67286,2,0,B|344:240|344:240|288:320,1,150.000005722046,8|0,0:0|0:0,0:0:0:0:
280,104,67714,2,0,P|336:72|416:120,1,150.000005722046
304,272,68143,1,0,0:0:0:0:
440,136,68286,1,0,0:0:0:0:
272,264,68429,2,0,L|176:248,1,75.0000028610231,8|0,0:0|0:0,0:0:0:0:
272,112,68714,2,0,L|372:131,1,75.0000028610231,0|8,0:0|0:0,0:0:0:0:
296,352,69000,2,0,L|210:337,1,75.0000028610231,4|0,0:0|0:0,0:0:0:0:
160,152,69286,5,0,0:0:0:0:
40,304,69429,1,0,0:0:0:0:
104,96,69571,2,0,P|136:80|192:80,1,75.0000028610231,8|0,0:0|0:0,0:0:0:0:
303,169,69857,5,8,0:0:0:0:
303,169,69929,1,8,0:0:0:0:
303,169,70000,1,8,0:0:0:0:
232,336,70143,1,8,0:0:0:0:
128,128,70286,1,8,0:0:0:0:
392,240,70429,5,8,0:0:0:0:
272,32,70571,1,8,0:0:0:0:
272,288,70714,1,8,0:0:0:0:
392,40,70857,1,8,0:0:0:0:
184,208,71000,1,8,0:0:0:0:
448,112,71143,1,8,0:0:0:0:
136,112,71286,2,0,B|115:130|115:130|136:152|136:152|120:160|120:160|112:176|112:176|96:240|160:288,1,200,4|0,0:0|0:0,0:0:0:0:
296,192,71714,5,0,0:0:0:0:
208,312,71857,1,12,0:0:0:0:
360,320,72000,1,0,0:0:0:0:
248,224,72143,1,0,0:0:0:0:
392,248,72286,1,0,0:0:0:0:
280,144,72429,6,0,P|224:144|160:200,1,100,12|0,0:0|0:0,0:0:0:0:
256,328,72714,1,0,0:0:0:0:
344,176,72857,1,0,0:0:0:0:
160,184,73000,1,12,0:0:0:0:
272,304,73143,1,0,0:0:0:0:
160,184,73286,1,4,0:0:0:0:
344,248,73429,1,0,0:0:0:0:
352,96,73571,6,0,P|336:136|291:187,1,100,12|0,0:0|0:0,0:0:0:0:
120,264,73857,1,0,0:0:0:0:
136,64,74000,1,0,0:0:0:0:
216,248,74143,1,12,0:0:0:0:
232,48,74286,1,0,0:0:0:0:
304,240,74429,1,0,0:0:0:0:
312,40,74571,1,0,0:0:0:0:
392,232,74714,6,0,P|384:288|336:320,1,100,12|0,0:0|0:0,0:0:0:0:
136,272,75000,1,0,0:0:0:0:
336,176,75143,1,0,0:0:0:0:
120,152,75286,1,12,0:0:0:0:
312,40,75429,1,0,0:0:0:0:
120,152,75571,1,4,0:0:0:0:
360,104,75714,1,0,0:0:0:0:
152,272,75857,6,0,P|216:200|216:168,1,100,12|0,0:0|0:0,0:0:0:0:
40,40,76143,1,0,0:0:0:0:
272,104,76286,1,0,0:0:0:0:
96,264,76429,1,12,0:0:0:0:
208,56,76571,1,0,0:0:0:0:
400,200,76714,1,0,0:0:0:0:
176,288,76857,1,0,0:0:0:0:
384,168,77000,2,0,P|376:136|232:72,1,200,12|0,0:0|0:0,0:0:0:0:
192,320,77429,5,0,0:0:0:0:
64,176,77571,2,0,P|120:160|168:128,1,100,4|0,0:0|0:0,0:0:0:0:
280,88,77857,2,0,P|336:104|384:144,1,100,8|0,0:0|0:0,0:0:0:0:
464,240,78143,2,0,P|424:256|368:240,1,75.0000028610231,4|0,0:0|0:0,0:0:0:0:
264,184,78429,2,0,P|216:160|176:160,1,75.0000028610231
76,207,78714,2,0,P|116:175|137:171,1,50,4|0,0:0|0:0,0:0:0:0:
200,236,79000,2,0,P|173:257|149:261,1,50,4|0,0:0|0:0,0:0:0:0:
113,175,79286,5,8,0:0:0:0:
197,132,79429,1,8,0:0:0:0:
292,137,79571,1,8,0:0:0:0:
369,193,79714,1,8,0:0:0:0:
360,88,79857,5,8,0:0:0:0:
288,216,80000,1,8,0:0:0:0:
280,80,80143,1,8,0:0:0:0:
224,168,80286,1,8,0:0:0:0:
200,64,80429,2,0,P|152:96|136:152,1,100,4|0,0:0|0:0,0:0:0:0:
280,157,81000,5,0,0:0:0:0:
128,272,81286,1,8,0:0:0:0:
400,304,81571,2,0,B|399:308|402:300|392:254|363:219|342:211,1,100,0|8,0:0|0:0,0:0:0:0:
72,88,82143,1,0,0:0:0:0:
328,128,82429,1,8,0:0:0:0:
96,256,82714,2,0,B|32:248|216:72|304:456|432:288,1,400
352,168,84143,1,8,0:0:0:0:
160,304,84429,1,0,0:0:0:0:
232,88,84714,1,8,0:0:0:0:
448,288,85000,1,4,0:0:0:0:
312,128,85286,5,8,0:0:0:0:
192,304,85571,1,0,0:0:0:0:
144,96,85857,1,8,0:0:0:0:
396,96,86143,2,0,P|415:182|404:208,1,100,0|8,0:0|0:0,0:0:0:0:
272,304,86714,1,0,0:0:0:0:
136,56,87000,1,8,0:0:0:0:
328,184,87286,2,0,B|256:248|144:176|144:176|248:240|112:256|112:256|136:296,1,400
192,352,88714,1,8,0:0:0:0:
256,104,89000,2,0,L|288:72,4,25,0|0|0|0|8,0:0|0:0|0:0|0:0|0:0,0:0:0:0:
128,240,89571,1,4,0:0:0:0:
399,196,89857,5,8,0:0:0:0:
248,296,90143,1,0,0:0:0:0:
192,128,90429,1,8,0:0:0:0:
416,304,90714,2,0,P|380:323|308:321,1,100,0|8,0:0|0:0,0:0:0:0:
384,160,91286,1,0,0:0:0:0:
176,240,91571,1,8,0:0:0:0:
367,88,91857,2,0,P|453:130|326:117,1,400
204,89,93286,1,8,0:0:0:0:
128,256,93571,1,0,0:0:0:0:
336,224,93857,2,0,B|370:236|370:236|354:257|354:257|382:257|382:257|390:284,1,100,12|0,0:0|0:0,0:0:0:0:
256,184,94429,5,8,0:0:0:0:
440,320,94714,1,0,0:0:0:0:
344,104,95000,1,8,0:0:0:0:
344,328,95286,2,0,P|306:339|232:316,1,100,0|8,0:0|0:0,0:0:0:0:
122,198,95857,1,0,0:0:0:0:
372,68,96143,1,8,0:0:0:0:
368,256,96429,2,0,B|200:328|215:123|215:123|143:236|143:236|143:236,1,400
104,320,97857,1,8,0:0:0:0:
384,168,98143,2,0,L|424:184,4,25
192,112,98714,1,4,0:0:0:0:
192,144,105857,6,0,P|237:168|259:231,1,100
113,131,106143,2,0,P|144:85|210:70,1,100
232,304,106429,2,0,P|200:280|184:208,1,100
352,208,106714,1,0,0:0:0:0:
256,232,106857,1,0,0:0:0:0:
392,232,107000,1,0,0:0:0:0:
241,194,107143,1,0,0:0:0:0:
368,336,107286,6,0,L|288:240,1,100,8|8,0:0|0:0,0:0:0:0:
320,104,107571,2,0,L|392:192,1,100,8|8,0:0|0:0,0:0:0:0:
199,330,107857,2,0,B|139:323|139:323|127:300|97:331|119:287|71:298|78:256|78:256|66:242,1,150,4|0,0:0|0:0,0:0:0:0:
103,112,108143,5,8,0:0:0:0:
166,248,108286,1,0,0:0:0:0:
234,60,108429,2,0,L|304:176,1,100,4|0,0:0|0:0,0:0:0:0:
468,112,108714,1,8,0:0:0:0:
405,248,108857,1,0,0:0:0:0:
337,60,109000,2,0,L|267:176,1,100,4|0,0:0|0:0,0:0:0:0:
124,215,109286,5,8,0:0:0:0:
164,70,109429,1,0,0:0:0:0:
351,136,109571,2,0,L|235:186,1,100,4|0,0:0|0:0,0:0:0:0:
107,194,109857,1,8,0:0:0:0:
219,94,110000,1,0,0:0:0:0:
344,248,110143,2,0,L|219:226,1,100,4|0,0:0|0:0,0:0:0:0:
391,182,110429,5,8,0:0:0:0:
270,94,110571,1,0,0:0:0:0:
252,287,110714,2,0,L|345:247,1,100,4|0,0:0|0:0,0:0:0:0:
290,158,111000,1,8,0:0:0:0:
169,70,111142,1,0,0:0:0:0:
152,272,111286,2,0,L|245:232,1,100,4|0,0:0|0:0,0:0:0:0:
464,192,111571,5,8,0:0:0:0:
318,190,111714,1,0,0:0:0:0:
187,341,111857,2,0,L|109:260,1,100,4|0,0:0|0:0,0:0:0:0:
80,128,112143,1,8,0:0:0:0:
220,128,112286,1,0,0:0:0:0:
351,279,112429,2,0,L|429:198,1,100,4|0,0:0|0:0,0:0:0:0:
286,77,112714,5,8,0:0:0:0:
180,184,112857,1,0,0:0:0:0:
310,335,113000,2,0,P|376:348|407:330,1,100,4|0,0:0|0:0,0:0:0:0:
226,77,113286,1,8,0:0:0:0:
332,184,113429,1,0,0:0:0:0:
202,335,113572,2,0,P|136:348|105:330,1,100,4|0,0:0|0:0,0:0:0:0:
344,328,113857,5,8,0:0:0:0:
392,112,114000,1,0,0:0:0:0:
213,199,114143,2,0,L|305:290,1,100,4|0,0:0|0:0,0:0:0:0:
352,320,114429,1,8,0:0:0:0:
240,104,114572,1,0,0:0:0:0:
138,278,114715,2,0,L|261:315,1,100,4|0,0:0|0:0,0:0:0:0:
154,157,115000,5,8,0:0:0:0:
343,231,115143,1,0,0:0:0:0:
210,111,115286,2,0,P|130:87|90:111,1,100,4|0,0:0|0:0,0:0:0:0:
358,157,115571,5,8,0:0:0:0:
169,231,115714,1,0,0:0:0:0:
302,111,115857,2,0,P|382:87|422:111,1,100,4|0,0:0|0:0,0:0:0:0:
105,164,116143,6,0,L|242:69,1,150,8|0,0:0|0:0,0:0:0:0:
228,78,116429,2,0,L|200:262,1,150,8|0,0:0|0:0,0:0:0:0:
206,226,116714,2,0,L|355:128,1,150,8|0,0:0|0:0,0:0:0:0:
331,143,117000,2,0,P|343:195|272:285,1,150.000005722046,12|0,0:0|0:0,0:0:0:0:
174,178,117429,5,0,0:0:0:0:
163,304,117571,2,0,P|243:294|250:288,1,75.0000028610231,4|0,0:0|0:0,0:0:0:0:
303,190,117857,2,0,L|199:180,1,75.0000028610231,4|0,0:0|0:0,0:0:0:0:
104,176,118143,1,4,0:0:0:0:
192,72,118286,1,0,0:0:0:0:
312,80,118429,2,0,L|399:91,1,75.0000028610231,4|0,0:0|0:0,0:0:0:0:
258,144,118714,1,4,0:0:0:0:
371,270,118857,1,0,0:0:0:0:
312,80,119000,1,4,0:0:0:0:
193,191,119143,1,0,0:0:0:0:
392,72,119286,6,0,P|381:128|361:152,1,75.0000028610231,4|0,0:0|0:0,0:0:0:0:
320,248,119571,2,0,P|282:221|269:188,1,75.0000028610231,4|0,0:0|0:0,0:0:0:0:
152,128,119857,2,0,P|128:208|136:224,1,75.0000028610231,4|0,0:0|0:0,0:0:0:0:
136,248,120071,1,0,0:0:0:0:
136,248,120143,1,4,0:0:0:0:
256,280,120286,1,0,0:0:0:0:
320,176,120429,1,4,0:0:0:0:
200,200,120571,1,0,0:0:0:0:
392,256,120714,2,0,L|330:192,1,75.0000028610231,4|0,0:0|0:0,0:0:0:0:
264,120,121000,5,4,0:0:0:0:
208,280,121143,1,0,0:0:0:0:
368,200,121286,1,4,0:0:0:0:
231,104,121429,1,0,0:0:0:0:
448,216,121571,2,0,P|423:261|400:272,1,75.0000028610231,4|0,0:0|0:0,0:0:0:0:
280,232,121857,2,0,P|240:216|204:223,1,75.0000028610231,4|0,0:0|0:0,0:0:0:0:
112,112,122143,2,0,P|184:88|209:86,1,75.0000028610231,4|0,0:0|0:0,0:0:0:0:
240,88,122357,1,0,0:0:0:0:
240,88,122428,1,4,0:0:0:0:
160,184,122571,1,0,0:0:0:0:
272,232,122714,1,4,0:0:0:0:
368,168,122857,1,0,0:0:0:0:
272,56,123000,2,0,L|216:128,1,75.0000028610231,4|0,0:0|0:0,0:0:0:0:
376,56,123286,5,4,0:0:0:0:
256,200,123429,1,0,0:0:0:0:
432,120,123571,1,4,0:0:0:0:
216,136,123714,1,0,0:0:0:0:
395,59,123857,2,0,P|427:91|427:139,1,75.0000028610231,4|0,0:0|0:0,0:0:0:0:
320,176,124143,2,0,P|320:152|360:128,1,75.0000028610231,4|0,0:0|0:0,0:0:0:0:
424,192,124429,5,4,0:0:0:0:
336,312,124571,1,0,0:0:0:0:
336,312,124643,1,0,0:0:0:0:
336,312,124714,2,0,P|288:312|256:296,1,75.0000028610231,4|0,0:0|0:0,0:0:0:0:
216,184,125000,2,0,P|280:184|308:210,1,75.0000028610231,4|0,0:0|0:0,0:0:0:0:
400,272,125286,2,0,P|360:304|312:312,1,75.0000028610231,4|0,0:0|0:0,0:0:0:0:
176,112,125571,5,8,0:0:0:0:
384,104,125714,1,8,0:0:0:0:
256,248,125857,1,8,0:0:0:0:
264,52,126000,1,8,0:0:0:0:
392,299,126143,2,0,B|360:312|360:312|336:296|336:296|312:320|312:320|296:304|296:304|272:320|232:320|208:296,1,200,4|0,0:0|0:0,0:0:0:0:
72,184,126571,5,0,0:0:0:0:
256,240,126714,2,0,P|280:192|272:160,1,75.0000028610231,8|0,0:0|0:0,0:0:0:0:
168,32,127000,1,0,0:0:0:0:
184,264,127143,2,0,P|232:311|264:312,1,75.0000028610231,8|0,0:0|0:0,0:0:0:0:
432,312,127429,1,0,0:0:0:0:
408,120,127571,1,0,0:0:0:0:
256,240,127714,1,0,0:0:0:0:
432,280,127857,6,0,L|424:184,1,75.0000028610231,8|0,0:0|0:0,0:0:0:0:
320,64,128143,2,0,L|328:152,1,75.0000028610231,0|8,0:0|0:0,0:0:0:0:
168,328,128429,2,0,L|160:240,1,75.0000028610231,4|0,0:0|0:0,0:0:0:0:
144,56,128714,1,0,0:0:0:0:
264,208,128857,1,0,0:0:0:0:
72,256,129000,2,0,B|80:216|80:216|104:184,1,75.0000028610231,8|0,0:0|0:0,0:0:0:0:
256,72,129286,1,0,0:0:0:0:
200,256,129429,2,0,B|222:280|222:280|269:300,1,75.0000028610231,8|0,0:0|0:0,0:0:0:0:
456,328,129714,1,0,0:0:0:0:
328,176,129857,2,0,P|291:194|264:216,1,75.0000028610231
128,304,130143,5,8,0:0:0:0:
72,136,130286,1,8,0:0:0:0:
240,248,130429,1,8,0:0:0:0:
264,64,130571,1,8,0:0:0:0:
448,200,130714,2,0,B|376:232|376:232|272:208,1,150.000005722046
376,32,131143,5,0,0:0:0:0:
232,160,131286,2,0,P|213:218|223:247,1,75.0000028610231,8|0,0:0|0:0,0:0:0:0:
376,120,131571,1,0,0:0:0:0:
280,288,131714,2,0,P|302:258|303:199,1,75.0000028610231,8|0,0:0|0:0,0:0:0:0:
136,136,132000,1,0,0:0:0:0:
208,320,132143,1,0,0:0:0:0:
136,136,132286,1,0,0:0:0:0:
248,320,132429,2,0,L|336:312,1,75.0000028610231,8|0,0:0|0:0,0:0:0:0:
376,168,132714,2,0,L|296:176,1,75.0000028610231,0|8,0:0|0:0,0:0:0:0:
173,326,133000,2,0,L|261:318,1,75.0000028610231,4|0,0:0|0:0,0:0:0:0:
328,136,133286,5,0,0:0:0:0:
176,248,133429,1,0,0:0:0:0:
392,200,133571,2,0,P|416:152|416:120,1,75.0000028610231,8|0,0:0|0:0,0:0:0:0:
320,40,133857,1,0,0:0:0:0:
304,240,134000,2,0,P|328:272|376:296,1,75.0000028610231,8|0,0:0|0:0,0:0:0:0:
392,200,134286,5,0,0:0:0:0:
288,320,134428,1,0,0:0:0:0:
401,155,134571,1,0,0:0:0:0:
288,320,134714,1,8,0:0:0:0:
266,107,134857,1,8,0:0:0:0:
411,274,135000,1,8,0:0:0:0:
191,197,135143,1,8,0:0:0:0:
441,124,135286,2,0,B|465:140|465:140|449:164|473:164|473:164|457:188|457:188|473:212|489:236|473:252|441:284,1,200,4|0,0:0|0:0,0:0:0:0:
304,144,135714,5,0,0:0:0:0:
445,279,135857,2,0,P|395:212|375:207,1,75.0000028610231,8|0,0:0|0:0,0:0:0:0:
232,120,136143,1,0,0:0:0:0:
272,312,136286,2,0,P|324:311|364:284,1,75.0000028610231,8|0,0:0|0:0,0:0:0:0:
272,120,136571,1,0,0:0:0:0:
128,248,136714,1,0,0:0:0:0:
272,120,136857,1,0,0:0:0:0:
168,248,137000,2,0,L|264:248,1,75.0000028610231,8|0,0:0|0:0,0:0:0:0:
416,120,137286,2,0,L|328:120,1,75.0000028610231,0|8,0:0|0:0,0:0:0:0:
208,328,137571,2,0,L|288:328,1,75.0000028610231,4|0,0:0|0:0,0:0:0:0:
304,136,137857,5,0,0:0:0:0:
336,328,138000,1,0,0:0:0:0:
464,184,138143,2,0,B|434:144|434:144|384:128,1,75.0000028610231,8|0,0:0|0:0,0:0:0:0:
224,88,138429,1,0,0:0:0:0:
128,256,138571,2,0,B|168:285|168:285|219:285,1,75.0000028610231,8|0,0:0|0:0,0:0:0:0:
392,272,138857,1,0,0:0:0:0:
208,216,139000,1,0,0:0:0:0:
368,104,139143,1,0,0:0:0:0:
184,184,139286,2,0,L|133:101,1,75.0000028610231,8|0,0:0|0:0,0:0:0:0:
264,56,139571,2,0,L|320:144,1,75.0000028610231,0|8,0:0|0:0,0:0:0:0:
272,320,139857,2,0,L|224:240,1,75.0000028610231,4|0,0:0|0:0,0:0:0:0:
256,64,140143,5,0,0:0:0:0:
233,255,140286,1,0,0:0:0:0:
424,200,140429,2,0,B|408:152|408:152|368:120,1,75.0000028610231,8|0,0:0|0:0,0:0:0:0:
216,48,140714,1,0,0:0:0:0:
336,200,140857,2,0,P|288:240|248:232,1,75.0000028610231,8|0,0:0|0:0,0:0:0:0:
80,216,141143,1,0,0:0:0:0:
240,104,141286,2,0,P|264:144|272:184,1,75.0000028610231
192,352,141571,5,8,0:0:0:0:
392,272,141715,1,8,0:0:0:0:
192,168,141857,1,8,0:0:0:0:
312,352,142000,1,8,0:0:0:0:
312,128,142143,2,0,B|312:168|312:168|296:200,1,75.0000028610231,4|0,0:0|0:0,0:0:0:0:
160,336,142429,1,0,0:0:0:0:
232,160,142571,1,0,0:0:0:0:
128,328,142714,2,0,L|40:280,1,75.0000028610231,8|0,0:0|0:0,0:0:0:0:
96,96,143000,1,8,0:0:0:0:
288,72,143143,1,8,0:0:0:0:
168,176,143286,5,8,0:0:0:0:
168,176,143357,1,8,0:0:0:0:
168,176,143429,1,8,0:0:0:0:
304,128,143571,1,8,0:0:0:0:
163,299,143714,1,8,0:0:0:0:
384,232,143857,1,8,0:0:0:0:
122,68,144000,1,8,0:0:0:0:
307,319,144143,1,8,0:0:0:0:
63,205,144286,1,8,0:0:0:0:
400,104,144429,2,0,B|384:120|384:120|392:136|392:136|376:152|376:152|392:160|392:160|376:176|376:176|384:232|328:272,1,200
200,304,144857,5,0,0:0:0:0:
184,152,145000,1,12,0:0:0:0:
312,232,145143,1,0,0:0:0:0:
312,80,145286,1,0,0:0:0:0:
240,208,145429,1,0,0:0:0:0:
400,248,145571,6,0,P|394:196|352:144,1,100,12|0,0:0|0:0,0:0:0:0:
208,72,145857,1,0,0:0:0:0:
112,224,146000,1,0,0:0:0:0:
296,224,146143,1,12,0:0:0:0:
152,112,146286,1,0,0:0:0:0:
296,224,146429,1,4,0:0:0:0:
104,176,146571,1,0,0:0:0:0:
320,48,146714,6,0,P|368:88|384:144,1,100,12|0,0:0|0:0,0:0:0:0:
248,336,147000,1,0,0:0:0:0:
304,144,147143,1,0,0:0:0:0:
184,304,147286,1,12,0:0:0:0:
352,192,147429,1,0,0:0:0:0:
160,240,147571,1,0,0:0:0:0:
360,264,147714,1,0,0:0:0:0:
192,48,147857,6,0,P|144:88|128:144,1,100,12|0,0:0|0:0,0:0:0:0:
256,304,148143,1,0,0:0:0:0:
432,168,148286,1,0,0:0:0:0:
216,128,148429,1,12,0:0:0:0:
328,288,148571,1,0,0:0:0:0:
216,128,148714,1,4,0:0:0:0:
264,336,148857,1,0,0:0:0:0:
360,40,149000,6,0,P|408:80|424:136,1,100,12|0,0:0|0:0,0:0:0:0:
304,328,149286,1,0,0:0:0:0:
136,160,149429,1,0,0:0:0:0:
368,224,149571,1,12,0:0:0:0:
136,272,149714,1,0,0:0:0:0:
280,80,149857,1,0,0:0:0:0:
312,320,150000,1,0,0:0:0:0:
424,96,150143,6,0,P|424:160|392:216,1,100,12|0,0:0|0:0,0:0:0:0:
160,304,150429,1,0,0:0:0:0:
160,304,150571,1,0,0:0:0:0:
352,136,150714,2,0,P|313:174|259:189,1,100,4|0,0:0|0:0,0:0:0:0:
66,102,151000,1,0,0:0:0:0:
66,102,151143,1,0,0:0:0:0:
208,240,151286,6,0,B|256:264|256:264|304:240,1,100,4|0,0:0|0:0,0:0:0:0:
304,64,151571,2,0,B|256:40|256:40|208:64,1,100
120,192,151857,2,0,P|104:248|144:312,1,100,4|0,0:0|0:0,0:0:0:0:
392,192,152143,2,0,P|408:248|368:312,1,100,4|0,0:0|0:0,0:0:0:0:
176,240,152429,5,8,0:0:0:0:
336,144,152571,1,8,0:0:0:0:
176,144,152714,1,8,0:0:0:0:
320,48,152857,1,8,0:0:0:0:
232,160,153000,5,8,0:0:0:0:
336,240,153143,1,8,0:0:0:0:
296,312,153286,1,8,0:0:0:0:
216,336,153429,1,8,0:0:0:0:
136,320,153571,2,0,P|88:272|80:224,1,100,4|0,0:0|0:0,0:0:0:0:
259,148,154143,5,0,0:0:0:0:
74,134,154429,1,8,0:0:0:0:
202,310,154714,2,0,B|203:314|200:306|210:260|239:225|260:217,1,100,0|8,0:0|0:0,0:0:0:0:
451,252,155286,1,0,0:0:0:0:
272,64,155572,1,8,0:0:0:0:
112,232,155857,2,0,B|128:280|240:224|288:296|288:296|408:296|384:176|320:160,1,400
200,160,157286,1,8,0:0:0:0:
432,152,157571,2,0,B|451:192|456:200|456:256,1,100,0|12,0:0|0:0,0:0:0:0:
296,224,158143,1,0,0:0:0:0:
424,328,158429,5,8,0:0:0:0:
192,320,158714,1,0,0:0:0:0:
312,104,159000,1,8,0:0:0:0:
97,303,159286,2,0,P|183:322|209:311,1,100,0|8,0:0|0:0,0:0:0:0:
360,216,159857,1,0,0:0:0:0:
160,240,160143,1,8,0:0:0:0:
288,72,160429,2,0,B|128:8|120:234|120:234|97:172|63:151|47:153,1,400
232,168,161857,1,8,0:0:0:0:
440,168,162143,2,0,L|464:136,4,25,0|0|0|0|8,0:0|0:0|0:0|0:0|0:0,0:0:0:0:
312,320,162714,5,4,0:0:0:0:
156,246,163000,1,8,0:0:0:0:
209,108,163286,1,0,0:0:0:0:
365,151,163572,1,8,0:0:0:0:
247,317,163857,2,0,P|266:281|264:209,1,100,0|8,0:0|0:0,0:0:0:0:
64,201,164429,1,0,0:0:0:0:
207,90,164714,1,8,0:0:0:0:
283,286,165000,2,0,P|345:326|297:180,1,400
136,288,166429,1,8,0:0:0:0:
352,240,166714,1,0,0:0:0:0:
138,206,167000,2,0,B|104:218|104:218|85:257|85:257|92:239|92:239|85:258,1,100,12|0,0:0|0:0,0:0:0:0:
275,308,167572,5,8,0:0:0:0:
369,198,167857,1,0,0:0:0:0:
255,120,168143,1,8,0:0:0:0:
160,320,168429,2,0,P|122:331|48:308,1,100,0|8,0:0|0:0,0:0:0:0:
128,192,169000,1,0,0:0:0:0:
384,176,169286,1,8,0:0:0:0:
352,328,169571,2,0,B|200:240|296:96|296:96|216:152|216:152|200:152|192:136,1,400
112,72,171000,1,8,0:0:0:0:
80,208,171286,2,0,L|48:240,4,25,0|0|0|0|8,0:0|0:0|0:0|0:0|0:0,0:0:0:0:
112,112,171857,6,0,P|152:136|176:184,1,100,4|0,0:0|0:0,0:0:0:0:
192,256,172143,1,0,0:0:0:0:
275,85,172286,1,4,0:0:0:0:
275,85,172429,1,0,0:0:0:0:
176,291,172572,1,0,0:0:0:0:
180,124,172714,1,4,0:0:0:0:
292,282,172857,1,0,0:0:0:0:
103,217,173000,1,0,0:0:0:0:
292,105,173143,1,4,0:0:0:0:
292,105,173286,1,0,0:0:0:0:
304,272,173429,1,0,0:0:0:0:
120,112,173571,5,8,0:0:0:0:
432,184,173714,1,8,0:0:0:0:
120,200,173857,1,8,0:0:0:0:
432,184,174000,1,8,0:0:0:0:
64,272,174143,6,0,P|40:232|40:176,1,100,4|0,0:0|0:0,0:0:0:0:
328,64,174429,1,0,0:0:0:0:
120,208,174571,2,0,P|131:162|170:123,1,100,4|0,0:0|0:0,0:0:0:0:
376,192,174857,1,0,0:0:0:0:
208,200,175000,2,0,P|247:176|304:176,1,100,4|0,0:0|0:0,0:0:0:0:
354,295,175286,1,0,0:0:0:0:
192,216,175429,1,4,0:0:0:0:
360,112,175571,1,0,0:0:0:0:
248,256,175714,1,0,0:0:0:0:
464,240,175857,2,0,L|376:168,1,100,8|8,0:0|0:0,0:0:0:0:
120,144,176143,2,0,L|216:224,1,100,8|8,0:0|0:0,0:0:0:0:
392,120,176429,5,4,0:0:0:0:
312,264,176571,1,0,0:0:0:0:
312,264,176714,1,0,0:0:0:0:
232,120,176857,1,4,0:0:0:0:
408,232,177000,1,0,0:0:0:0:
408,232,177143,1,0,0:0:0:0:
328,48,177286,1,4,0:0:0:0:
208,240,177429,1,0,0:0:0:0:
208,240,177571,1,0,0:0:0:0:
280,72,177714,5,4,0:0:0:0:
424,240,177857,1,0,0:0:0:0:
178,162,178000,1,0,0:0:0:0:
410,316,178143,1,8,0:0:0:0:
319,101,178286,1,8,0:0:0:0:
221,328,178429,1,8,0:0:0:0:
164,105,178571,1,8,0:0:0:0:
368,112,178714,6,0,P|352:168|320:208,1,100,4|0,0:0|0:0,0:0:0:0:
136,336,179000,1,0,0:0:0:0:
280,128,179143,2,0,P|229:156|178:161,1,100,4|0,0:0|0:0,0:0:0:0:
48,160,179429,1,0,0:0:0:0:
304,40,179571,2,0,P|352:71|381:113,1,100,4|0,0:0|0:0,0:0:0:0:
424,248,179857,1,0,0:0:0:0:
296,128,180000,1,4,0:0:0:0:
464,96,180143,1,0,0:0:0:0:
328,224,180286,1,0,0:0:0:0:
480,152,180429,5,8,0:0:0:0:
208,344,180571,1,8,0:0:0:0:
365,109,180714,1,8,0:0:0:0:
132,272,180857,1,8,0:0:0:0:
336,240,181000,6,0,L|368:288,2,37.5000014305115
240,96,181286,1,0,0:0:0:0:
256,272,181429,2,0,L|216:296,2,37.5000014305115
400,184,181714,1,0,0:0:0:0:
240,72,181857,2,0,L|288:40,2,37.5000014305115
96,152,182143,1,0,0:0:0:0:
264,304,182286,2,0,L|264:344,2,37.5000014305115
264,136,182571,1,0,0:0:0:0:
64,216,182714,5,8,0:0:0:0:
304,64,182857,1,8,0:0:0:0:
64,216,183000,1,8,0:0:0:0:
240,32,183143,1,8,0:0:0:0:
261,249,183286,5,0,0:0:0:0:
261,249,183357,1,0,0:0:0:0:
261,249,183429,1,0,0:0:0:0:
432,209,183571,1,0,0:0:0:0:
408,80,183714,1,0,0:0:0:0:
408,80,183786,1,0,0:0:0:0:
408,80,183857,1,0,0:0:0:0:
256,208,184000,1,0,0:0:0:0:
128,72,184143,5,0,0:0:0:0:
128,72,184214,1,0,0:0:0:0:
128,72,184286,1,0,0:0:0:0:
192,224,184429,1,0,0:0:0:0:
312,144,184571,1,0,0:0:0:0:
312,144,184643,1,0,0:0:0:0:
312,144,184714,1,0,0:0:0:0:
152,96,184857,1,0,0:0:0:0:
288,312,185000,2,0,P|336:320|360:304,1,75.0000028610231,8|8,0:0|0:0,0:0:0:0:
217,64,185286,2,0,P|169:80|145:104,1,75.0000028610231,8|8,0:0|0:0,0:0:0:0:
144,272,185571,6,0,L|192:248,1,37.5000014305115,4|0,0:0|0:0,0:0:0:0:
320,200,185714,1,0,0:0:0:0:
320,200,185857,1,0,0:0:0:0:
120,184,186000,2,0,L|168:160,1,37.5000014305115,4|0,0:0|0:0,0:0:0:0:
272,104,186143,1,0,0:0:0:0:
272,104,186286,1,0,0:0:0:0:
416,240,186429,2,0,L|368:264,1,37.5000014305115,4|0,0:0|0:0,0:0:0:0:
256,296,186571,1,0,0:0:0:0:
256,296,186714,1,0,0:0:0:0:
240,112,186857,2,0,L|272:152,1,37.5000014305115,4|0,0:0|0:0,0:0:0:0:
360,264,187000,1,0,0:0:0:0:
360,264,187143,5,0,0:0:0:0:
448,64,187286,1,8,0:0:0:0:
344,224,187429,1,8,0:0:0:0:
200,64,187571,1,8,0:0:0:0:
168,248,187714,1,8,0:0:0:0:
416,296,187857,6,0,P|400:280|368:272,1,37.5000014305115
408,176,188000,2,0,P|385:174|355:188,1,37.5000014305115
304,248,188143,1,0,0:0:0:0:
312,72,188286,2,0,P|295:95|292:136,1,37.5000014305115
165,108,188429,2,0,P|167:136|191:169,1,37.5000014305115
280,224,188571,1,0,0:0:0:0:
104,80,188714,2,0,P|121:110|147:132,1,37.5000014305115
67,265,188857,2,0,P|100:277|131:268,1,37.5000014305115
256,192,188999,1,0,0:0:0:0:
328,112,189143,5,0,0:0:0:0:
184,272,189286,1,0,0:0:0:0:
184,112,189429,1,0,0:0:0:0:
328,272,189572,1,8,0:0:0:0:
144,48,189714,1,8,0:0:0:0:
216,344,189857,1,8,0:0:0:0:
368,48,190000,1,8,0:0:0:0:
296,344,190143,1,4,0:0:0:0:
