osu file format v14

[General]
AudioFilename: audio.mp3
AudioLeadIn: 0
PreviewTime: 44218
Countdown: 0
SampleSet: Soft
StackLeniency: 0.7
Mode: 3
LetterboxInBreaks: 0
SpecialStyle: 0
WidescreenStoryboard: 0

[Editor]
DistanceSpacing: 0.8
BeatDivisor: 4
GridSize: 4
TimelineZoom: 3.699999

[Metadata]
Title:MYOUKAI
TitleUnicode:冥界
Artist:Kabanagu
ArtistUnicode:Kabanagu
Creator:Sherly
Version:HD
Source:
Tags:maltine record MARU​-​183 electronic dance music edm japanese hyperpop glitchpop 泳ぐ真似 oyogumane LeiN- AchsanLovers
BeatmapID:3198806
BeatmapSetID:1565421

[Difficulty]
HPDrainRate:7
CircleSize:4
OverallDifficulty:7
ApproachRate:5
SliderMultiplier:1.4
SliderTickRate:1

[Events]
//Background and Video events
0,0,"0db36654e9bb67cfb8c2d062f367c479d7934d89_s2_n1.jpg",0,0
//Break Periods
//Storyboard Layer 0 (Background)
//Storyboard Layer 1 (Fail)
//Storyboard Layer 2 (Pass)
//Storyboard Layer 3 (Foreground)
//Storyboard Layer 4 (Overlay)
//Storyboard Sound Samples

[TimingPoints]
235,348.837209302326,4,2,1,40,1,0
22560,-100,4,2,1,20,0,0
44886,-100,4,2,1,40,0,0
89537,-100,4,2,1,40,0,1
111862,-100,4,2,1,40,0,0

[HitObjects]
192,192,235,5,0,0:0:0:40:kick.wav
320,192,235,1,0,0:0:0:40:cymbal.wav
448,192,409,1,0,0:0:0:0:
64,192,583,1,0,0:0:0:40:clap.wav
320,192,583,1,0,0:0:0:0:
448,192,758,1,0,0:0:0:0:
192,192,932,1,0,0:0:0:40:kick.wav
448,192,1107,1,0,0:0:0:0:
64,192,1281,1,0,0:0:0:40:clap.wav
320,192,1281,1,0,0:0:0:0:
448,192,1455,1,0,0:0:0:0:
192,192,1630,1,0,0:0:0:40:kick.wav
64,192,1804,1,0,0:0:0:0:
320,192,1979,1,0,0:0:0:40:clap.wav
448,192,1979,1,0,0:0:0:0:
64,192,2153,1,0,0:0:0:0:
192,192,2328,1,0,0:0:0:40:kick.wav
64,192,2502,1,0,0:0:0:0:
320,192,2676,1,0,0:0:0:40:clap.wav
448,192,2676,1,0,0:0:0:0:
64,192,2851,1,0,0:0:0:0:
192,192,2938,1,0,0:0:0:0:
448,192,3025,1,0,0:0:0:40:kick.wav
64,192,3200,1,0,0:0:0:0:
192,192,3374,1,0,0:0:0:40:clap.wav
320,192,3374,1,0,0:0:0:0:
448,192,3548,1,0,0:0:0:0:
64,192,3723,1,0,0:0:0:40:kick.wav
448,192,3897,1,0,0:0:0:0:
192,192,4072,1,0,0:0:0:40:clap.wav
320,192,4072,1,0,0:0:0:0:
64,192,4246,1,0,0:0:0:0:
320,192,4421,1,0,0:0:0:40:kick.wav
192,192,4595,1,0,0:0:0:0:
64,192,4769,1,0,0:0:0:40:clap.wav
448,192,4769,1,0,0:0:0:0:
192,192,4944,1,0,0:0:0:0:
448,192,5118,1,0,0:0:0:40:kick.wav
64,192,5293,1,0,0:0:0:0:
192,192,5467,1,0,0:0:0:40:clap.wav
320,192,5467,1,0,0:0:0:0:
448,192,5641,1,0,0:0:0:0:
64,192,5816,1,0,0:0:0:40:kick.wav
320,192,5990,1,0,0:0:0:0:
192,192,6165,1,0,0:0:0:40:clap.wav
448,192,6165,1,0,0:0:0:0:
320,192,6339,1,0,0:0:0:0:
64,192,6514,1,0,0:0:0:40:kick.wav
320,192,6688,1,0,0:0:0:0:
192,192,6862,1,0,0:0:0:40:clap.wav
448,192,6862,1,0,0:0:0:0:
64,192,7037,1,0,0:0:0:0:
448,192,7211,1,0,0:0:0:40:kick.wav
64,192,7386,1,0,0:0:0:0:
192,192,7560,1,0,0:0:0:40:clap.wav
320,192,7560,1,0,0:0:0:0:
448,192,7735,1,0,0:0:0:0:
64,192,7909,1,0,0:0:0:40:kick.wav
448,192,8083,1,0,0:0:0:0:
192,192,8258,1,0,0:0:0:40:clap.wav
320,192,8258,1,0,0:0:0:0:
448,192,8432,1,0,0:0:0:0:
320,192,8519,1,0,0:0:0:0:
64,192,8607,1,0,0:0:0:40:kick.wav
448,192,8781,1,0,0:0:0:0:
64,192,8955,1,0,0:0:0:40:clap.wav
192,192,8955,1,0,0:0:0:0:
448,192,9130,1,0,0:0:0:0:
64,192,9304,1,0,0:0:0:40:kick.wav
448,192,9479,1,0,0:0:0:0:
64,192,9653,1,0,0:0:0:40:clap.wav
192,192,9653,1,0,0:0:0:0:
320,192,9828,1,0,0:0:0:0:
192,192,10002,1,0,0:0:0:40:kick.wav
448,192,10176,1,0,0:0:0:0:
64,192,10351,1,0,0:0:0:40:clap.wav
320,192,10351,1,0,0:0:0:0:
448,192,10525,1,0,0:0:0:0:
64,192,10700,1,0,0:0:0:40:kick.wav
320,192,10874,1,0,0:0:0:0:
192,192,11048,1,0,0:0:0:40:clap.wav
448,192,11048,1,0,0:0:0:0:
64,192,11223,1,0,0:0:0:0:
320,192,11397,1,0,0:0:0:40:kick.wav
448,192,11397,1,0,0:0:0:40:cymbal.wav
192,192,11572,1,0,0:0:0:0:
64,192,11746,1,0,0:0:0:40:clap.wav
448,192,11746,1,0,0:0:0:0:
320,192,11921,1,0,0:0:0:0:
64,192,12095,1,0,0:0:0:40:kick.wav
320,192,12269,1,0,0:0:0:0:
192,192,12444,1,0,0:0:0:40:clap.wav
448,192,12444,1,0,0:0:0:0:
64,192,12618,1,0,0:0:0:0:
448,192,12793,1,0,0:0:0:40:kick.wav
192,192,12967,1,0,0:0:0:0:
64,192,13141,1,0,0:0:0:40:clap.wav
320,192,13141,1,0,0:0:0:0:
448,192,13316,1,0,0:0:0:0:
64,192,13490,1,0,0:0:0:40:kick.wav
192,192,13665,1,0,0:0:0:0:
320,192,13839,1,0,0:0:0:40:clap.wav
448,192,13839,1,0,0:0:0:0:
64,192,14014,1,0,0:0:0:0:
448,192,14101,1,0,0:0:0:0:
192,192,14188,1,0,0:0:0:40:kick.wav
320,192,14362,1,0,0:0:0:0:
192,192,14537,1,0,0:0:0:40:clap.wav
448,192,14537,1,0,0:0:0:0:
64,192,14711,1,0,0:0:0:0:
448,192,14886,1,0,0:0:0:40:kick.wav
192,192,15060,1,0,0:0:0:0:
64,192,15235,1,0,0:0:0:40:clap.wav
320,192,15235,1,0,0:0:0:0:
448,192,15409,1,0,0:0:0:0:
64,192,15583,1,0,0:0:0:40:kick.wav
448,192,15758,1,0,0:0:0:0:
192,192,15932,1,0,0:0:0:40:clap.wav
320,192,15932,1,0,0:0:0:0:
64,192,16107,1,0,0:0:0:0:
320,192,16281,1,0,0:0:0:40:kick.wav
448,192,16455,1,0,0:0:0:0:
192,192,16630,1,0,0:0:0:40:clap.wav
320,192,16630,1,0,0:0:0:0:
64,192,16804,1,0,0:0:0:0:
192,192,16979,1,0,0:0:0:40:kick.wav
320,192,17153,1,0,0:0:0:0:
64,192,17328,1,0,0:0:0:40:clap.wav
448,192,17328,1,0,0:0:0:0:
192,192,17502,1,0,0:0:0:0:
64,192,17676,1,0,0:0:0:40:kick.wav
320,192,17676,1,0,0:0:0:0:
448,192,17851,1,0,0:0:0:0:
192,192,18025,1,0,0:0:0:40:clap.wav
320,192,18025,1,0,0:0:0:0:
64,192,18200,1,0,0:0:0:0:
320,192,18374,1,0,0:0:0:40:kick.wav
448,192,18548,1,0,0:0:0:0:
64,192,18723,1,0,0:0:0:40:clap.wav
192,192,18723,1,0,0:0:0:0:
320,192,18897,1,0,0:0:0:0:
64,192,19072,1,0,0:0:0:40:kick.wav
192,192,19246,1,0,0:0:0:0:
320,192,19421,1,0,0:0:0:40:clap.wav
448,192,19421,1,0,0:0:0:0:
192,192,19595,1,0,0:0:0:0:
448,192,19682,1,0,0:0:0:0:
64,192,19769,1,0,0:0:0:40:kick.wav
320,192,19944,1,0,0:0:0:0:
192,192,20118,1,0,0:0:0:40:clap.wav
448,192,20118,1,0,0:0:0:0:
320,192,20293,1,0,0:0:0:0:
64,192,20467,1,0,0:0:0:40:kick.wav
448,192,20641,1,0,0:0:0:0:
192,192,20816,1,0,0:0:0:40:clap.wav
320,192,20816,1,0,0:0:0:0:
448,192,20990,1,0,0:0:0:0:
64,192,21165,1,0,0:0:0:40:kick.wav
448,192,21339,1,0,0:0:0:0:
64,192,21514,1,0,0:0:0:40:clap.wav
320,192,21514,1,0,0:0:0:0:
192,192,21688,1,0,0:0:0:0:
448,192,21862,1,0,0:0:0:40:kick.wav
64,192,22037,1,0,0:0:0:0:
192,192,22211,1,0,0:0:0:40:clap.wav
320,192,22211,1,0,0:0:0:0:
448,192,22386,1,0,0:0:0:0:
192,192,22560,1,0,0:0:0:40:cymbal.wav
320,192,22560,1,0,0:0:0:0:
64,192,22909,1,0,0:0:0:10:clap basah.wav
448,192,22909,1,0,0:0:0:0:
192,192,23083,1,0,0:0:0:0:
448,192,23258,1,0,0:0:0:0:
192,192,23432,1,0,0:0:0:0:
320,192,23607,1,0,0:0:0:10:clap basah.wav
448,192,23607,1,0,0:0:0:0:
192,192,23955,1,0,0:0:0:0:
64,192,24043,1,0,0:0:0:0:
320,192,24130,1,0,0:0:0:0:
64,192,24304,1,0,0:0:0:10:clap basah.wav
448,192,24304,1,0,0:0:0:0:
192,192,24479,1,0,0:0:0:0:
64,192,24653,1,0,0:0:0:10:clap basah.wav
192,192,24828,1,0,0:0:0:0:
320,192,25002,1,0,0:0:0:10:clap basah.wav
448,192,25002,1,0,0:0:0:0:
64,192,25351,1,0,0:0:0:10:clap basah.wav
320,192,25438,1,0,0:0:0:0:
192,192,25525,1,0,0:0:0:0:
320,192,25700,1,0,0:0:0:10:clap basah.wav
448,192,25700,1,0,0:0:0:0:
192,192,25874,1,0,0:0:0:0:
64,192,26048,1,0,0:0:0:0:
192,192,26223,1,0,0:0:0:0:
320,192,26310,1,0,0:0:0:0:
64,192,26397,1,0,0:0:0:10:clap basah.wav
448,192,26397,1,0,0:0:0:0:
320,192,26746,1,0,0:0:0:0:
192,192,26833,1,0,0:0:0:0:
448,192,26921,1,0,0:0:0:0:
64,192,27095,1,0,0:0:0:10:clap basah.wav
192,192,27095,1,0,0:0:0:0:
448,192,27269,1,0,0:0:0:0:
192,192,27444,1,0,0:0:0:10:clap basah.wav
320,192,27618,1,0,0:0:0:0:
64,192,27793,1,0,0:0:0:10:clap basah.wav
448,192,27793,1,0,0:0:0:0:
192,192,28141,1,0,0:0:0:10:clap basah.wav
64,192,28229,1,0,0:0:0:0:
320,192,28316,1,0,0:0:0:0:
64,192,28490,1,0,0:0:0:10:clap basah.wav
448,192,28490,1,0,0:0:0:0:
192,192,28665,1,0,0:0:0:0:
64,192,28839,1,0,0:0:0:0:
320,192,28926,1,0,0:0:0:0:
192,192,29014,1,0,0:0:0:0:
320,192,29188,1,0,0:0:0:10:clap basah.wav
448,192,29188,1,0,0:0:0:0:
192,192,29537,1,0,0:0:0:0:
320,192,29624,1,0,0:0:0:0:
448,192,29711,1,0,0:0:0:0:
64,192,29886,1,0,0:0:0:10:clap basah.wav
192,192,29886,1,0,0:0:0:0:
448,192,30060,1,0,0:0:0:0:
320,192,30235,1,0,0:0:0:10:clap basah.wav
64,192,30409,1,0,0:0:0:0:
192,192,30583,1,0,0:0:0:10:clap basah.wav
320,192,30583,1,0,0:0:0:0:
64,192,30932,1,0,0:0:0:10:clap basah.wav
448,192,31019,1,0,0:0:0:0:
192,192,31107,1,0,0:0:0:0:
320,192,31281,1,0,0:0:0:10:clap basah.wav
448,192,31281,1,0,0:0:0:0:
192,192,31455,1,0,0:0:0:0:
64,192,31630,1,0,0:0:0:0:
448,192,31717,1,0,0:0:0:0:
192,192,31804,1,0,0:0:0:0:
64,192,31979,1,0,0:0:0:10:clap basah.wav
320,192,31979,1,0,0:0:0:0:
320,192,32328,1,0,0:0:0:0:
448,192,32415,1,0,0:0:0:0:
192,192,32502,1,0,0:0:0:0:
64,192,32676,1,0,0:0:0:10:clap basah.wav
448,192,32676,1,0,0:0:0:0:
320,192,32851,1,0,0:0:0:0:
192,192,33025,1,0,0:0:0:10:clap basah.wav
320,192,33200,1,0,0:0:0:0:
64,192,33374,1,0,0:0:0:10:clap basah.wav
448,192,33374,1,0,0:0:0:0:
64,192,33723,1,0,0:0:0:10:clap basah.wav
192,192,33810,1,0,0:0:0:0:
448,192,33897,1,0,0:0:0:0:
192,192,34072,1,0,0:0:0:15:clap basah.wav
320,192,34072,1,0,0:0:0:0:
64,192,34246,1,0,0:0:0:0:
192,192,34333,1,0,0:0:0:0:
448,192,34421,1,0,0:0:0:0:
192,192,34595,1,0,0:0:0:0:
448,192,34682,1,0,0:0:0:0:
64,192,34769,1,0,0:0:0:15:clap basah.wav
192,192,34857,1,0,0:0:0:0:
448,192,34944,1,0,0:0:0:0:
192,192,35118,1,0,0:0:0:0:
320,192,35205,1,0,0:0:0:0:
448,192,35293,1,0,0:0:0:0:
320,192,35467,1,0,0:0:0:15:clap basah.wav
192,192,35641,1,0,0:0:0:0:
320,192,35729,1,0,0:0:0:0:
448,192,35816,1,0,0:0:0:15:clap basah.wav
320,192,35990,1,0,0:0:0:0:
448,192,36078,1,0,0:0:0:0:
192,192,36165,1,0,0:0:0:15:clap basah.wav
64,192,36165,1,0,0:0:0:0:
320,192,36252,1,0,0:0:0:0:
448,192,36339,1,0,0:0:0:0:
64,192,36514,1,0,0:0:0:15:clap basah.wav
192,192,36601,1,0,0:0:0:0:
448,192,36688,1,0,0:0:0:0:
64,192,36862,1,0,0:0:0:15:clap basah.wav
192,192,36862,1,0,0:0:0:0:
320,192,37037,1,0,0:0:0:0:
64,192,37124,1,0,0:0:0:0:
192,192,37211,1,0,0:0:0:0:
64,192,37386,1,0,0:0:0:0:
192,192,37473,1,0,0:0:0:0:
320,192,37560,1,0,0:0:0:15:clap basah.wav
64,192,37647,1,0,0:0:0:0:
192,192,37735,1,0,0:0:0:0:
64,192,37909,1,0,0:0:0:0:
320,192,37996,1,0,0:0:0:0:
448,192,38083,1,0,0:0:0:0:
64,192,38258,1,0,0:0:0:15:clap basah.wav
320,192,38258,1,0,0:0:0:0:
448,192,38432,1,0,0:0:0:0:
64,192,38519,1,0,0:0:0:0:
320,192,38607,1,0,0:0:0:15:clap basah.wav
64,192,38781,1,0,0:0:0:0:
320,192,38868,1,0,0:0:0:0:
448,192,38955,1,0,0:0:0:15:clap basah.wav
64,192,39043,1,0,0:0:0:0:
320,192,39130,1,0,0:0:0:0:
64,192,39304,1,0,0:0:0:15:clap basah.wav
192,192,39391,1,0,0:0:0:0:
448,192,39479,1,0,0:0:0:0:
192,192,39653,1,0,0:0:0:20:clap basah.wav
320,192,39653,1,0,0:0:0:0:
64,192,39828,1,0,0:0:0:0:
192,192,39915,1,0,0:0:0:0:
448,192,40002,1,0,0:0:0:0:
192,192,40176,1,0,0:0:0:0:
448,192,40264,1,0,0:0:0:0:
64,192,40351,1,0,0:0:0:20:clap basah.wav
192,192,40438,1,0,0:0:0:0:
448,192,40525,1,0,0:0:0:0:
192,192,40700,1,0,0:0:0:0:
320,192,40787,1,0,0:0:0:0:
448,192,40874,1,0,0:0:0:0:
320,192,41048,1,0,0:0:0:20:clap basah.wav
192,192,41223,1,0,0:0:0:0:
320,192,41310,1,0,0:0:0:0:
448,192,41397,1,0,0:0:0:20:clap basah.wav
320,192,41572,1,0,0:0:0:0:
448,192,41659,1,0,0:0:0:0:
192,192,41746,1,0,0:0:0:20:clap basah.wav
320,192,41833,1,0,0:0:0:0:
448,192,41921,1,0,0:0:0:0:
64,192,42095,1,0,0:0:0:20:clap basah.wav
192,192,42182,1,0,0:0:0:0:
320,192,42269,1,0,0:0:0:0:
64,192,42444,1,0,0:0:0:20:clap basah.wav
448,192,42444,1,0,0:0:0:0:
320,192,42618,1,0,0:0:0:0:
64,192,42705,1,0,0:0:0:0:
192,192,42793,1,0,0:0:0:0:
64,192,42967,1,0,0:0:0:0:
192,192,43054,1,0,0:0:0:0:
320,192,43141,1,0,0:0:0:20:clap basah.wav
64,192,43229,1,0,0:0:0:0:
192,192,43316,1,0,0:0:0:0:
64,192,43490,1,0,0:0:0:0:
320,192,43578,1,0,0:0:0:0:
448,192,43665,1,0,0:0:0:0:
192,192,43839,1,0,0:0:0:20:clap basah.wav
448,192,43926,1,0,0:0:0:0:
64,192,44014,1,0,0:0:0:0:
320,192,44101,1,0,0:0:0:0:
192,192,44886,1,0,0:0:0:40:kick.wav
448,192,44886,1,0,0:0:0:40:cymbal.wav
320,192,44973,1,0,0:0:0:0:
64,192,45060,1,0,0:0:0:50:hihat.wav
448,192,45147,1,0,0:0:0:0:
192,192,45235,1,0,0:0:0:40:clap.wav
64,192,45322,1,0,0:0:0:0:
320,192,45409,1,0,0:0:0:50:hihat.wav
192,192,45496,1,0,0:0:0:0:
448,192,45583,1,0,0:0:0:40:kick.wav
64,192,45671,1,0,0:0:0:0:
448,192,45758,1,0,0:0:0:50:hihat.wav
320,192,45845,1,0,0:0:0:0:
64,192,45932,1,0,0:0:0:40:clap.wav
448,192,46019,1,0,0:0:0:0:
192,192,46107,1,0,0:0:0:50:hihat.wav
320,192,46194,1,0,0:0:0:0:
64,192,46281,1,0,0:0:0:40:kick.wav
192,192,46368,1,0,0:0:0:0:
448,192,46455,1,0,0:0:0:50:hihat.wav
320,192,46543,1,0,0:0:0:0:
64,192,46630,1,0,0:0:0:40:clap.wav
192,192,46630,1,0,0:0:0:0:
320,192,46804,1,0,0:0:0:50:hihat.wav
64,192,46979,1,0,0:0:0:40:kick.wav
448,192,47066,1,0,0:0:0:0:
64,192,47153,1,0,0:0:0:50:hihat.wav
448,192,47240,1,0,0:0:0:0:
192,192,47328,1,0,0:0:0:40:clap.wav
320,192,47415,1,0,0:0:0:0:
448,192,47502,1,0,0:0:0:50:hihat.wav
64,192,47589,1,0,0:0:0:0:
448,192,47676,1,0,0:0:0:40:kick.wav
192,192,47764,1,0,0:0:0:0:
320,192,47851,1,0,0:0:0:50:hihat.wav
64,192,47938,1,0,0:0:0:0:
192,192,48025,1,0,0:0:0:40:clap.wav
320,192,48112,1,0,0:0:0:0:
64,192,48200,1,0,0:0:0:50:hihat.wav
448,192,48287,1,0,0:0:0:0:
192,192,48374,1,0,0:0:0:40:kick.wav
320,192,48461,1,0,0:0:0:0:
64,192,48548,1,0,0:0:0:50:hihat.wav
192,192,48636,1,0,0:0:0:0:
320,192,48723,1,0,0:0:0:40:clap.wav
64,192,48810,1,0,0:0:0:0:
448,192,48897,1,0,0:0:0:50:hihat.wav
192,192,48985,1,0,0:0:0:0:
320,192,49072,1,0,0:0:0:40:kick.wav
64,192,49159,1,0,0:0:0:0:
192,192,49246,1,0,0:0:0:50:hihat.wav
448,192,49333,1,0,0:0:0:0:
64,192,49421,1,0,0:0:0:40:clap.wav
320,192,49421,1,0,0:0:0:0:
192,192,49595,1,0,0:0:0:50:hihat.wav
448,192,49769,1,0,0:0:0:40:kick.wav
64,192,49857,1,0,0:0:0:0:
448,192,49944,1,0,0:0:0:50:hihat.wav
64,192,50031,1,0,0:0:0:0:
320,192,50118,1,0,0:0:0:40:clap.wav
192,192,50205,1,0,0:0:0:0:
320,192,50293,1,0,0:0:0:50:hihat.wav
64,192,50380,1,0,0:0:0:0:
192,192,50467,1,0,0:0:0:40:kick.wav
448,192,50554,1,0,0:0:0:0:
320,192,50641,1,0,0:0:0:50:hihat.wav
64,192,50729,1,0,0:0:0:0:
320,192,50816,1,0,0:0:0:40:clap.wav
192,192,50903,1,0,0:0:0:0:
448,192,50990,1,0,0:0:0:50:hihat.wav
192,192,51078,1,0,0:0:0:0:
64,192,51165,1,0,0:0:0:40:kick.wav
320,192,51252,1,0,0:0:0:0:
192,192,51339,1,0,0:0:0:50:hihat.wav
64,192,51426,1,0,0:0:0:0:
320,192,51514,1,0,0:0:0:40:clap.wav
448,192,51601,1,0,0:0:0:0:
192,192,51688,1,0,0:0:0:50:hihat.wav
64,192,51775,1,0,0:0:0:0:
320,192,51862,1,0,0:0:0:40:kick.wav
192,192,51950,1,0,0:0:0:0:
448,192,52037,1,0,0:0:0:50:hihat.wav
320,192,52124,1,0,0:0:0:0:
64,192,52211,1,0,0:0:0:40:clap.wav
192,192,52211,1,0,0:0:0:0:
320,192,52386,1,0,0:0:0:50:hihat.wav
64,192,52560,1,0,0:0:0:40:kick.wav
448,192,52647,1,0,0:0:0:0:
64,192,52735,1,0,0:0:0:50:hihat.wav
448,192,52822,1,0,0:0:0:0:
192,192,52909,1,0,0:0:0:40:clap.wav
320,192,52996,1,0,0:0:0:0:
448,192,53083,1,0,0:0:0:50:hihat.wav
64,192,53171,1,0,0:0:0:0:
448,192,53258,1,0,0:0:0:40:kick.wav
192,192,53345,1,0,0:0:0:0:
320,192,53432,1,0,0:0:0:50:hihat.wav
448,192,53519,1,0,0:0:0:0:
64,192,53607,1,0,0:0:0:40:clap.wav
320,192,53694,1,0,0:0:0:0:
192,192,53781,1,0,0:0:0:50:hihat.wav
64,192,53868,1,0,0:0:0:0:
448,192,53955,1,0,0:0:0:40:kick.wav
320,192,54043,1,0,0:0:0:0:
192,192,54130,1,0,0:0:0:50:hihat.wav
320,192,54217,1,0,0:0:0:0:
448,192,54304,1,0,0:0:0:40:clap.wav
192,192,54391,1,0,0:0:0:0:
320,192,54479,1,0,0:0:0:50:hihat.wav
192,192,54566,1,0,0:0:0:0:
64,192,54653,1,0,0:0:0:40:kick.wav
448,192,54740,1,0,0:0:0:0:
192,192,54828,1,0,0:0:0:50:hihat.wav
320,192,54915,1,0,0:0:0:0:
64,192,55002,1,0,0:0:0:40:clap.wav
448,192,55002,1,0,0:0:0:0:
192,192,55176,1,0,0:0:0:50:hihat.wav
320,192,55351,1,0,0:0:0:40:kick.wav
192,192,55438,1,0,0:0:0:0:
320,192,55525,1,0,0:0:0:50:hihat.wav
192,192,55612,1,0,0:0:0:0:
448,192,55700,1,0,0:0:0:40:clap.wav
64,192,55787,1,0,0:0:0:0:
320,192,55874,1,0,0:0:0:50:hihat.wav
192,192,55961,1,0,0:0:0:0:
64,192,56048,1,0,0:0:0:40:kick.wav
448,192,56048,1,0,0:0:0:40:cymbal.wav
320,192,56136,1,0,0:0:0:0:
448,192,56223,1,0,0:0:0:50:hihat.wav
64,192,56310,1,0,0:0:0:0:
192,192,56397,1,0,0:0:0:40:clap.wav
320,192,56485,1,0,0:0:0:0:
64,192,56572,1,0,0:0:0:50:hihat.wav
192,192,56659,1,0,0:0:0:0:
448,192,56746,1,0,0:0:0:40:kick.wav
64,192,56833,1,0,0:0:0:0:
320,192,56921,1,0,0:0:0:50:hihat.wav
192,192,57008,1,0,0:0:0:0:
448,192,57095,1,0,0:0:0:40:clap.wav
320,192,57182,1,0,0:0:0:0:
192,192,57269,1,0,0:0:0:50:hihat.wav
320,192,57357,1,0,0:0:0:0:
448,192,57444,1,0,0:0:0:40:kick.wav
192,192,57531,1,0,0:0:0:0:
320,192,57618,1,0,0:0:0:50:hihat.wav
64,192,57705,1,0,0:0:0:0:
192,192,57793,1,0,0:0:0:40:clap.wav
320,192,57793,1,0,0:0:0:0:
448,192,57967,1,0,0:0:0:50:hihat.wav
320,192,58141,1,0,0:0:0:40:kick.wav
64,192,58229,1,0,0:0:0:0:
320,192,58316,1,0,0:0:0:50:hihat.wav
64,192,58403,1,0,0:0:0:0:
448,192,58490,1,0,0:0:0:40:clap.wav
192,192,58578,1,0,0:0:0:0:
64,192,58665,1,0,0:0:0:50:hihat.wav
320,192,58752,1,0,0:0:0:0:
64,192,58839,1,0,0:0:0:40:kick.wav
448,192,58926,1,0,0:0:0:0:
320,192,59014,1,0,0:0:0:50:hihat.wav
64,192,59101,1,0,0:0:0:0:
192,192,59188,1,0,0:0:0:40:clap.wav
448,192,59275,1,0,0:0:0:0:
192,192,59362,1,0,0:0:0:50:hihat.wav
320,192,59450,1,0,0:0:0:0:
64,192,59537,1,0,0:0:0:40:kick.wav
192,192,59624,1,0,0:0:0:0:
320,192,59711,1,0,0:0:0:50:hihat.wav
192,192,59798,1,0,0:0:0:0:
64,192,59886,1,0,0:0:0:40:clap.wav
448,192,59973,1,0,0:0:0:0:
320,192,60060,1,0,0:0:0:50:hihat.wav
192,192,60147,1,0,0:0:0:0:
320,192,60235,1,0,0:0:0:40:kick.wav
448,192,60322,1,0,0:0:0:0:
192,192,60409,1,0,0:0:0:50:hihat.wav
320,192,60496,1,0,0:0:0:0:
64,192,60583,1,0,0:0:0:40:clap.wav
448,192,60583,1,0,0:0:0:0:
320,192,60758,1,0,0:0:0:50:hihat.wav
64,192,60932,1,0,0:0:0:40:kick.wav
448,192,61019,1,0,0:0:0:0:
64,192,61107,1,0,0:0:0:50:hihat.wav
448,192,61194,1,0,0:0:0:0:
192,192,61281,1,0,0:0:0:40:clap.wav
320,192,61368,1,0,0:0:0:0:
448,192,61455,1,0,0:0:0:50:hihat.wav
192,192,61543,1,0,0:0:0:0:
320,192,61630,1,0,0:0:0:40:kick.wav
64,192,61717,1,0,0:0:0:0:
448,192,61804,1,0,0:0:0:50:hihat.wav
192,192,61891,1,0,0:0:0:0:
320,192,61979,1,0,0:0:0:40:clap.wav
64,192,62066,1,0,0:0:0:0:
192,192,62153,1,0,0:0:0:50:hihat.wav
320,192,62240,1,0,0:0:0:0:
448,192,62328,1,0,0:0:0:40:kick.wav
192,192,62415,1,0,0:0:0:0:
320,192,62502,1,0,0:0:0:50:hihat.wav
64,192,62589,1,0,0:0:0:0:
192,192,62676,1,0,0:0:0:40:clap.wav
448,192,62764,1,0,0:0:0:0:
320,192,62851,1,0,0:0:0:50:hihat.wav
64,192,62938,1,0,0:0:0:0:
448,192,63025,1,0,0:0:0:40:kick.wav
192,192,63112,1,0,0:0:0:0:
320,192,63200,1,0,0:0:0:50:hihat.wav
192,192,63287,1,0,0:0:0:0:
64,192,63374,1,0,0:0:0:40:clap.wav
448,192,63374,1,0,0:0:0:0:
320,192,63548,1,0,0:0:0:50:hihat.wav
192,192,63723,1,0,0:0:0:40:kick.wav
448,192,63810,1,0,0:0:0:0:
192,192,63897,1,0,0:0:0:50:hihat.wav
448,192,63985,1,0,0:0:0:0:
64,192,64072,1,0,0:0:0:40:clap.wav
320,192,64159,1,0,0:0:0:0:
448,192,64246,1,0,0:0:0:50:hihat.wav
64,192,64333,1,0,0:0:0:0:
448,192,64421,1,0,0:0:0:40:kick.wav
192,192,64508,1,0,0:0:0:0:
320,192,64595,1,0,0:0:0:50:hihat.wav
448,192,64682,1,0,0:0:0:0:
64,192,64769,1,0,0:0:0:40:clap.wav
320,192,64857,1,0,0:0:0:0:
192,192,64944,1,0,0:0:0:50:hihat.wav
448,192,65031,1,0,0:0:0:0:
192,192,65118,1,0,0:0:0:40:kick.wav
320,192,65205,1,0,0:0:0:0:
64,192,65293,1,0,0:0:0:50:hihat.wav
192,192,65380,1,0,0:0:0:0:
320,192,65467,1,0,0:0:0:40:clap.wav
64,192,65554,1,0,0:0:0:0:
192,192,65641,1,0,0:0:0:50:hihat.wav
448,192,65729,1,0,0:0:0:0:
320,192,65816,1,0,0:0:0:40:kick.wav
192,192,65903,1,0,0:0:0:0:
320,192,65990,1,0,0:0:0:50:hihat.wav
448,192,66078,1,0,0:0:0:0:
64,192,66165,1,0,0:0:0:40:clap.wav
192,192,66165,1,0,0:0:0:0:
320,192,66339,1,0,0:0:0:50:hihat.wav
64,192,66514,1,0,0:0:0:40:kick.wav
320,192,66601,1,0,0:0:0:0:
192,192,66688,1,0,0:0:0:50:hihat.wav
320,192,66775,1,0,0:0:0:0:
64,192,66862,1,0,0:0:0:40:clap.wav
448,192,66862,1,0,0:0:0:0:
192,192,67037,1,0,0:0:0:50:hihat.wav
320,192,67124,1,0,0:0:0:0:
64,192,67211,1,0,0:0:0:40:cymbal.wav
448,192,67211,1,0,0:0:0:0:
192,192,67298,1,0,0:0:0:0:
448,192,67386,1,0,0:0:0:50:hihat.wav
192,192,67560,1,0,0:0:0:0:
448,192,67647,1,0,0:0:0:0:
64,192,67735,1,0,0:0:0:50:hihat.wav
192,192,67822,1,0,0:0:0:0:
448,192,67909,1,0,0:0:0:0:
192,192,68083,1,0,0:0:0:50:hihat.wav
448,192,68171,1,0,0:0:0:0:
64,192,68258,1,0,0:0:0:0:
192,192,68345,1,0,0:0:0:0:
448,192,68432,1,0,0:0:0:50:hihat.wav
192,192,68607,1,0,0:0:0:0:
320,192,68694,1,0,0:0:0:0:
448,192,68781,1,0,0:0:0:50:hihat.wav
320,192,68955,1,0,0:0:0:0:
448,192,69043,1,0,0:0:0:0:
192,192,69130,1,0,0:0:0:50:hihat.wav
320,192,69217,1,0,0:0:0:0:
448,192,69304,1,0,0:0:0:0:
320,192,69479,1,0,0:0:0:50:hihat.wav
448,192,69566,1,0,0:0:0:0:
192,192,69653,1,0,0:0:0:0:
320,192,69740,1,0,0:0:0:0:
448,192,69828,1,0,0:0:0:50:hihat.wav
64,192,70002,1,0,0:0:0:0:
192,192,70089,1,0,0:0:0:0:
320,192,70176,1,0,0:0:0:50:hihat.wav
64,192,70351,1,0,0:0:0:0:
192,192,70438,1,0,0:0:0:0:
320,192,70525,1,0,0:0:0:50:hihat.wav
64,192,70612,1,0,0:0:0:0:
192,192,70700,1,0,0:0:0:0:
64,192,70874,1,0,0:0:0:50:hihat.wav
192,192,70961,1,0,0:0:0:0:
320,192,71048,1,0,0:0:0:0:
64,192,71136,1,0,0:0:0:0:
192,192,71223,1,0,0:0:0:50:hihat.wav
64,192,71397,1,0,0:0:0:0:
320,192,71485,1,0,0:0:0:0:
448,192,71572,1,0,0:0:0:50:hihat.wav
64,192,71746,1,0,0:0:0:0:
320,192,71833,1,0,0:0:0:0:
448,192,71921,1,0,0:0:0:50:hihat.wav
64,192,72008,1,0,0:0:0:0:
320,192,72095,1,0,0:0:0:0:
64,192,72269,1,0,0:0:0:50:hihat.wav
320,192,72357,1,0,0:0:0:0:
448,192,72444,1,0,0:0:0:0:
64,192,72531,1,0,0:0:0:0:
320,192,72618,1,0,0:0:0:50:hihat.wav
64,192,72793,1,0,0:0:0:0:
192,192,72880,1,0,0:0:0:0:
448,192,72967,1,0,0:0:0:50:hihat.wav
192,192,73141,1,0,0:0:0:0:
448,192,73229,1,0,0:0:0:0:
64,192,73316,1,0,0:0:0:50:hihat.wav
192,192,73403,1,0,0:0:0:0:
448,192,73490,1,0,0:0:0:0:
192,192,73665,1,0,0:0:0:50:hihat.wav
448,192,73752,1,0,0:0:0:0:
64,192,73839,1,0,0:0:0:0:
192,192,73926,1,0,0:0:0:0:
448,192,74014,1,0,0:0:0:50:hihat.wav
192,192,74188,1,0,0:0:0:0:
320,192,74275,1,0,0:0:0:0:
448,192,74362,1,0,0:0:0:50:hihat.wav
320,192,74537,1,0,0:0:0:0:
448,192,74624,1,0,0:0:0:0:
192,192,74711,1,0,0:0:0:50:hihat.wav
320,192,74798,1,0,0:0:0:0:
448,192,74886,1,0,0:0:0:0:
320,192,75060,1,0,0:0:0:50:hihat.wav
448,192,75147,1,0,0:0:0:0:
192,192,75235,1,0,0:0:0:0:
320,192,75322,1,0,0:0:0:0:
448,192,75409,1,0,0:0:0:50:hihat.wav
64,192,75583,1,0,0:0:0:0:
192,192,75671,1,0,0:0:0:0:
320,192,75758,1,0,0:0:0:50:hihat.wav
64,192,75932,1,0,0:0:0:0:
192,192,76019,1,0,0:0:0:0:
320,192,76107,1,0,0:0:0:50:hihat.wav
64,192,76194,1,0,0:0:0:0:
192,192,76281,1,0,0:0:0:0:
64,192,76455,1,0,0:0:0:50:hihat.wav
192,192,76543,1,0,0:0:0:0:
320,192,76630,1,0,0:0:0:0:
64,192,76717,1,0,0:0:0:0:
192,192,76804,1,0,0:0:0:50:hihat.wav
64,192,76979,1,0,0:0:0:0:
320,192,77066,1,0,0:0:0:0:
448,192,77153,1,0,0:0:0:50:hihat.wav
64,192,77328,1,0,0:0:0:0:
320,192,77415,1,0,0:0:0:0:
448,192,77502,1,0,0:0:0:50:hihat.wav
64,192,77589,1,0,0:0:0:0:
320,192,77676,1,0,0:0:0:0:
64,192,77851,1,0,0:0:0:50:hihat.wav
320,192,77938,1,0,0:0:0:0:
448,192,78025,1,0,0:0:0:0:
64,192,78112,1,0,0:0:0:0:
320,192,78200,1,0,0:0:0:50:hihat.wav
64,192,78374,1,0,0:0:0:0:
192,192,78461,1,0,0:0:0:0:
448,192,78548,1,0,0:0:0:50:hihat.wav
192,192,78723,1,0,0:0:0:0:
448,192,78810,1,0,0:0:0:0:
64,192,78897,1,0,0:0:0:50:hihat.wav
192,192,78985,1,0,0:0:0:0:
448,192,79072,1,0,0:0:0:0:
192,192,79246,1,0,0:0:0:50:hihat.wav
448,192,79333,1,0,0:0:0:0:
64,192,79421,1,0,0:0:0:0:
192,192,79508,1,0,0:0:0:0:
448,192,79595,1,0,0:0:0:50:hihat.wav
192,192,79769,1,0,0:0:0:0:
320,192,79857,1,0,0:0:0:0:
448,192,79944,1,0,0:0:0:50:hihat.wav
320,192,80118,1,0,0:0:0:0:
448,192,80205,1,0,0:0:0:0:
192,192,80293,1,0,0:0:0:50:hihat.wav
320,192,80380,1,0,0:0:0:0:
448,192,80467,1,0,0:0:0:0:
320,192,80641,1,0,0:0:0:50:hihat.wav
448,192,80729,1,0,0:0:0:0:
192,192,80816,1,0,0:0:0:0:
320,192,80903,1,0,0:0:0:0:
448,192,80990,1,0,0:0:0:50:hihat.wav
64,192,81165,1,0,0:0:0:0:
192,192,81252,1,0,0:0:0:0:
320,192,81339,1,0,0:0:0:50:hihat.wav
64,192,81514,1,0,0:0:0:0:
192,192,81601,1,0,0:0:0:0:
320,192,81688,1,0,0:0:0:50:hihat.wav
64,192,81775,1,0,0:0:0:0:
192,192,81862,1,0,0:0:0:0:
64,192,82037,1,0,0:0:0:50:hihat.wav
192,192,82124,1,0,0:0:0:0:
320,192,82211,1,0,0:0:0:0:
64,192,82298,1,0,0:0:0:0:
192,192,82386,1,0,0:0:0:50:hihat.wav
64,192,82560,1,0,0:0:0:0:
320,192,82647,1,0,0:0:0:0:
448,192,82735,1,0,0:0:0:50:hihat.wav
64,192,82909,1,0,0:0:0:0:
320,192,82996,1,0,0:0:0:0:
448,192,83083,1,0,0:0:0:50:hihat.wav
64,192,83171,1,0,0:0:0:0:
320,192,83258,1,0,0:0:0:0:
64,192,83432,1,0,0:0:0:50:hihat.wav
320,192,83519,1,0,0:0:0:0:
448,192,83607,1,0,0:0:0:0:
64,192,83694,1,0,0:0:0:0:
320,192,83781,1,0,0:0:0:50:hihat.wav
64,192,83955,1,0,0:0:0:0:
192,192,84043,1,0,0:0:0:0:
448,192,84130,1,0,0:0:0:50:hihat.wav
192,192,84304,1,0,0:0:0:0:
448,192,84391,1,0,0:0:0:0:
64,192,84479,1,0,0:0:0:50:hihat.wav
192,192,84566,1,0,0:0:0:0:
448,192,84653,1,0,0:0:0:0:
192,192,84828,1,0,0:0:0:50:hihat.wav
448,192,84915,1,0,0:0:0:0:
64,192,85002,1,0,0:0:0:0:
192,192,85089,1,0,0:0:0:0:
448,192,85176,1,0,0:0:0:50:hihat.wav
192,192,85351,1,0,0:0:0:0:
320,192,85438,1,0,0:0:0:0:
448,192,85525,1,0,0:0:0:50:hihat.wav
320,192,85700,1,0,0:0:0:0:
448,192,85787,1,0,0:0:0:0:
192,192,85874,1,0,0:0:0:50:hihat.wav
320,192,85961,1,0,0:0:0:0:
448,192,86048,1,0,0:0:0:0:
320,192,86223,1,0,0:0:0:50:hihat.wav
448,192,86310,1,0,0:0:0:0:
192,192,86397,1,0,0:0:0:0:
320,192,86485,1,0,0:0:0:0:
448,192,86572,1,0,0:0:0:50:hihat.wav
64,192,86746,1,0,0:0:0:0:
192,192,86833,1,0,0:0:0:0:
320,192,86921,1,0,0:0:0:50:hihat.wav
64,192,87095,1,0,0:0:0:0:
320,192,87182,1,0,0:0:0:0:
192,192,87269,1,0,0:0:0:50:hihat.wav
448,192,87357,1,0,0:0:0:0:
192,192,89537,1,0,0:0:0:40:kick.wav
448,192,89537,1,0,0:0:0:60:cymbal.wav
320,192,89624,1,0,0:0:0:0:
64,192,89711,1,0,0:0:0:0:
448,192,89798,1,0,0:0:0:0:
192,192,89886,1,0,0:0:0:0:
320,192,89973,1,0,0:0:0:0:
64,192,90060,1,0,0:0:0:0:
448,192,90147,1,0,0:0:0:0:
192,192,90235,1,0,0:0:0:40:clap.wav
320,192,90235,1,0,0:0:0:0:
64,192,90409,1,0,0:0:0:0:
320,192,90583,1,0,0:0:0:0:
192,192,90758,1,0,0:0:0:0:
448,192,90932,1,0,0:0:0:0:
192,192,91107,1,0,0:0:0:40:kick 2.wav
320,192,91107,1,0,0:0:0:0:
64,192,91281,1,0,0:0:0:40:kick.wav
448,192,91281,1,0,0:0:0:0:
320,192,91368,1,0,0:0:0:0:
192,192,91455,1,0,0:0:0:0:
64,192,91543,1,0,0:0:0:0:
320,192,91630,1,0,0:0:0:40:clap.wav
448,192,91630,1,0,0:0:0:0:
192,192,91804,1,0,0:0:0:0:
320,192,91979,1,0,0:0:0:0:
64,192,92153,1,0,0:0:0:0:
192,192,92328,1,0,0:0:0:40:kick.wav
448,192,92328,1,0,0:0:0:0:
320,192,92415,1,0,0:0:0:0:
64,192,92502,1,0,0:0:0:0:
192,192,92589,1,0,0:0:0:0:
320,192,92676,1,0,0:0:0:0:
448,192,92764,1,0,0:0:0:0:
320,192,92851,1,0,0:0:0:0:
192,192,92938,1,0,0:0:0:0:
64,192,93025,1,0,0:0:0:40:clap.wav
448,192,93025,1,0,0:0:0:0:
320,192,93200,1,0,0:0:0:0:
192,192,93374,1,0,0:0:0:0:
448,192,93548,1,0,0:0:0:0:
64,192,93723,1,0,0:0:0:0:
192,192,93897,1,0,0:0:0:40:kick 2.wav
320,192,93897,1,0,0:0:0:0:
64,192,94072,1,0,0:0:0:40:kick.wav
448,192,94072,1,0,0:0:0:0:
192,192,94159,1,0,0:0:0:0:
320,192,94246,1,0,0:0:0:0:
448,192,94333,1,0,0:0:0:0:
64,192,94421,1,0,0:0:0:40:clap.wav
192,192,94421,1,0,0:0:0:0:
320,192,94595,1,0,0:0:0:0:
192,192,94769,1,0,0:0:0:0:
64,192,94857,1,0,0:0:0:0:
448,192,94944,1,0,0:0:0:0:
192,192,95118,1,0,0:0:0:40:kick.wav
320,192,95118,1,0,0:0:0:0:
64,192,95205,1,0,0:0:0:0:
448,192,95293,1,0,0:0:0:0:
192,192,95380,1,0,0:0:0:0:
320,192,95467,1,0,0:0:0:0:
64,192,95554,1,0,0:0:0:0:
192,192,95641,1,0,0:0:0:0:
448,192,95729,1,0,0:0:0:0:
64,192,95816,1,0,0:0:0:40:clap.wav
320,192,95816,1,0,0:0:0:0:
192,192,95990,1,0,0:0:0:0:
320,192,96078,1,0,0:0:0:0:
64,192,96165,1,0,0:0:0:0:
320,192,96339,1,0,0:0:0:0:
192,192,96426,1,0,0:0:0:0:
448,192,96514,1,0,0:0:0:0:
64,192,96688,1,0,0:0:0:40:kick 2.wav
320,192,96688,1,0,0:0:0:0:
192,192,96862,1,0,0:0:0:40:kick.wav
448,192,96862,1,0,0:0:0:0:
320,192,96950,1,0,0:0:0:0:
64,192,97037,1,0,0:0:0:0:
192,192,97124,1,0,0:0:0:0:
320,192,97211,1,0,0:0:0:40:clap.wav
448,192,97211,1,0,0:0:0:0:
64,192,97386,1,0,0:0:0:0:
192,192,97560,1,0,0:0:0:0:
448,192,97735,1,0,0:0:0:0:
192,192,97909,1,0,0:0:0:40:kick.wav
320,192,97909,1,0,0:0:0:0:
64,192,97996,1,0,0:0:0:0:
448,192,98083,1,0,0:0:0:0:
320,192,98171,1,0,0:0:0:0:
192,192,98258,1,0,0:0:0:0:
64,192,98345,1,0,0:0:0:0:
320,192,98432,1,0,0:0:0:0:
192,192,98519,1,0,0:0:0:0:
64,192,98607,1,0,0:0:0:40:clap.wav
448,192,98607,1,0,0:0:0:0:
320,192,98781,1,0,0:0:0:0:
64,192,98868,1,0,0:0:0:0:
192,192,98955,1,0,0:0:0:0:
448,192,99043,1,0,0:0:0:0:
64,192,99130,1,0,0:0:0:0:
320,192,99304,1,0,0:0:0:0:
192,192,99479,1,0,0:0:0:0:
64,192,99653,1,0,0:0:0:40:kick.wav
448,192,99653,1,0,0:0:0:0:
320,192,99740,1,0,0:0:0:0:
192,192,99828,1,0,0:0:0:0:
448,192,99915,1,0,0:0:0:0:
64,192,100002,1,0,0:0:0:40:clap.wav
320,192,100002,1,0,0:0:0:0:
192,192,100176,1,0,0:0:0:40:kick 2.wav
448,192,100176,1,0,0:0:0:0:
320,192,100351,1,0,0:0:0:40:kick 2.wav
64,192,100525,1,0,0:0:0:0:
192,192,100700,1,0,0:0:0:40:kick.wav
448,192,100700,1,0,0:0:0:60:cymbal.wav
320,192,100787,1,0,0:0:0:0:
192,192,100874,1,0,0:0:0:0:
64,192,100961,1,0,0:0:0:0:
320,192,101048,1,0,0:0:0:0:
192,192,101136,1,0,0:0:0:0:
448,192,101223,1,0,0:0:0:0:
64,192,101310,1,0,0:0:0:0:
192,192,101397,1,0,0:0:0:40:clap.wav
320,192,101397,1,0,0:0:0:0:
448,192,101572,1,0,0:0:0:0:
64,192,101746,1,0,0:0:0:0:
192,192,101921,1,0,0:0:0:0:
320,192,102008,1,0,0:0:0:0:
448,192,102095,1,0,0:0:0:0:
64,192,102269,1,0,0:0:0:40:kick 2.wav
192,192,102269,1,0,0:0:0:0:
320,192,102444,1,0,0:0:0:40:kick.wav
448,192,102444,1,0,0:0:0:0:
192,192,102531,1,0,0:0:0:0:
64,192,102618,1,0,0:0:0:0:
320,192,102705,1,0,0:0:0:0:
192,192,102793,1,0,0:0:0:40:clap.wav
448,192,102793,1,0,0:0:0:0:
64,192,102967,1,0,0:0:0:0:
448,192,103141,1,0,0:0:0:0:
192,192,103316,1,0,0:0:0:0:
64,192,103490,1,0,0:0:0:40:kick.wav
320,192,103490,1,0,0:0:0:0:
448,192,103578,1,0,0:0:0:0:
192,192,103665,1,0,0:0:0:0:
64,192,103752,1,0,0:0:0:0:
320,192,103839,1,0,0:0:0:0:
192,192,103926,1,0,0:0:0:0:
448,192,104014,1,0,0:0:0:0:
320,192,104101,1,0,0:0:0:0:
64,192,104188,1,0,0:0:0:40:clap.wav
192,192,104188,1,0,0:0:0:0:
448,192,104362,1,0,0:0:0:0:
64,192,104537,1,0,0:0:0:0:
320,192,104711,1,0,0:0:0:0:
192,192,104798,1,0,0:0:0:0:
448,192,104886,1,0,0:0:0:0:
64,192,105060,1,0,0:0:0:40:kick 2.wav
320,192,105060,1,0,0:0:0:0:
192,192,105235,1,0,0:0:0:40:kick.wav
448,192,105235,1,0,0:0:0:0:
320,192,105322,1,0,0:0:0:0:
64,192,105409,1,0,0:0:0:0:
192,192,105496,1,0,0:0:0:0:
320,192,105583,1,0,0:0:0:40:clap.wav
448,192,105583,1,0,0:0:0:0:
192,192,105758,1,0,0:0:0:0:
320,192,105932,1,0,0:0:0:0:
64,192,106107,1,0,0:0:0:0:
192,192,106281,1,0,0:0:0:40:kick.wav
448,192,106281,1,0,0:0:0:0:
320,192,106368,1,0,0:0:0:0:
64,192,106455,1,0,0:0:0:0:
192,192,106543,1,0,0:0:0:0:
320,192,106630,1,0,0:0:0:0:
192,192,106717,1,0,0:0:0:0:
64,192,106804,1,0,0:0:0:0:
320,192,106891,1,0,0:0:0:0:
192,192,106979,1,0,0:0:0:40:clap.wav
448,192,106979,1,0,0:0:0:0:
64,192,107153,1,0,0:0:0:0:
320,192,107328,1,0,0:0:0:0:
192,192,107502,1,0,0:0:0:0:
448,192,107676,1,0,0:0:0:0:
192,192,107851,1,0,0:0:0:40:kick 2.wav
320,192,107851,1,0,0:0:0:0:
64,192,108025,1,0,0:0:0:40:kick.wav
448,192,108025,1,0,0:0:0:0:
192,192,108112,1,0,0:0:0:0:
320,192,108200,1,0,0:0:0:0:
64,192,108287,1,0,0:0:0:0:
192,192,108374,1,0,0:0:0:40:clap.wav
448,192,108374,1,0,0:0:0:0:
320,192,108548,1,0,0:0:0:0:
64,192,108723,1,0,0:0:0:0:
448,192,108897,1,0,0:0:0:0:
192,192,109072,1,0,0:0:0:40:kick.wav
320,192,109072,1,0,0:0:0:0:
64,192,109159,1,0,0:0:0:0:
448,192,109246,1,0,0:0:0:0:
192,192,109333,1,0,0:0:0:0:
320,192,109421,1,0,0:0:0:0:
64,192,109508,1,0,0:0:0:0:
192,192,109595,1,0,0:0:0:0:
320,192,109682,1,0,0:0:0:0:
64,192,109769,1,0,0:0:0:40:clap.wav
448,192,109769,1,0,0:0:0:0:
192,192,109944,1,0,0:0:0:0:
320,192,110118,1,0,0:0:0:0:
192,192,110205,1,0,0:0:0:0:
64,192,110293,1,0,0:0:0:0:
320,192,110467,1,0,0:0:0:0:
192,192,110641,1,0,0:0:0:0:
320,192,110816,1,0,0:0:0:40:kick.wav
448,192,110816,1,0,0:0:0:0:
64,192,110903,1,0,0:0:0:0:
192,192,110990,1,0,0:0:0:0:
320,192,111078,1,0,0:0:0:0:
64,192,111165,1,0,0:0:0:40:clap.wav
448,192,111165,1,0,0:0:0:0:
192,192,111339,1,0,0:0:0:40:kick 2.wav
320,192,111339,1,0,0:0:0:0:
64,192,111514,1,0,0:0:0:40:kick 2.wav
448,192,111688,1,0,0:0:0:0:
64,192,111862,1,0,0:0:0:40:kick.wav
320,192,111862,1,0,0:0:0:60:cymbal.wav
192,192,111950,1,0,0:0:0:0:
448,192,112037,1,0,0:0:0:0:
320,192,112124,1,0,0:0:0:0:
192,192,112211,1,0,0:0:0:0:
448,192,112298,1,0,0:0:0:0:
64,192,112386,1,0,0:0:0:0:
192,192,112473,1,0,0:0:0:0:
320,192,112560,1,0,0:0:0:40:clap.wav
448,192,112560,1,0,0:0:0:0:
64,192,112735,1,0,0:0:0:0:
320,192,112822,1,0,0:0:0:0:
64,192,112909,1,0,0:0:0:0:
448,192,113083,1,0,0:0:0:0:
192,192,113258,1,0,0:0:0:0:
320,192,113432,1,0,0:0:0:40:kick 2.wav
448,192,113432,1,0,0:0:0:0:
64,192,113607,1,0,0:0:0:40:kick.wav
192,192,113607,1,0,0:0:0:0:
448,192,113694,1,0,0:0:0:0:
320,192,113781,1,0,0:0:0:0:
192,192,113868,1,0,0:0:0:0:
64,192,113955,1,0,0:0:0:40:clap.wav
448,192,113955,1,0,0:0:0:0:
320,192,114130,1,0,0:0:0:0:
448,192,114304,1,0,0:0:0:0:
192,192,114479,1,0,0:0:0:0:
64,192,114653,1,0,0:0:0:40:kick.wav
320,192,114653,1,0,0:0:0:0:
448,192,114740,1,0,0:0:0:0:
192,192,114828,1,0,0:0:0:0:
320,192,114915,1,0,0:0:0:0:
64,192,115002,1,0,0:0:0:0:
192,192,115089,1,0,0:0:0:0:
320,192,115176,1,0,0:0:0:0:
192,192,115264,1,0,0:0:0:0:
64,192,115351,1,0,0:0:0:40:clap.wav
448,192,115351,1,0,0:0:0:0:
320,192,115525,1,0,0:0:0:0:
192,192,115700,1,0,0:0:0:0:
448,192,115874,1,0,0:0:0:0:
64,192,116048,1,0,0:0:0:0:
192,192,116223,1,0,0:0:0:40:kick 2.wav
320,192,116223,1,0,0:0:0:0:
64,192,116397,1,0,0:0:0:40:kick.wav
448,192,116397,1,0,0:0:0:0:
192,192,116485,1,0,0:0:0:0:
320,192,116572,1,0,0:0:0:0:
448,192,116659,1,0,0:0:0:0:
64,192,116746,1,0,0:0:0:40:clap.wav
192,192,116746,1,0,0:0:0:0:
320,192,116921,1,0,0:0:0:0:
192,192,117095,1,0,0:0:0:0:
448,192,117269,1,0,0:0:0:0:
192,192,117444,1,0,0:0:0:40:kick.wav
320,192,117444,1,0,0:0:0:0:
64,192,117531,1,0,0:0:0:0:
448,192,117618,1,0,0:0:0:0:
320,192,117705,1,0,0:0:0:0:
192,192,117793,1,0,0:0:0:0:
64,192,117880,1,0,0:0:0:0:
448,192,117967,1,0,0:0:0:0:
320,192,118054,1,0,0:0:0:0:
64,192,118141,1,0,0:0:0:40:clap.wav
192,192,118141,1,0,0:0:0:0:
448,192,118316,1,0,0:0:0:0:
192,192,118403,1,0,0:0:0:0:
448,192,118490,1,0,0:0:0:0:
64,192,118665,1,0,0:0:0:0:
320,192,118839,1,0,0:0:0:0:
64,192,119014,1,0,0:0:0:40:kick 2.wav
448,192,119014,1,0,0:0:0:0:
192,192,119188,1,0,0:0:0:40:kick.wav
320,192,119188,1,0,0:0:0:0:
448,192,119275,1,0,0:0:0:0:
64,192,119362,1,0,0:0:0:0:
192,192,119450,1,0,0:0:0:0:
320,192,119537,1,0,0:0:0:40:clap.wav
448,192,119537,1,0,0:0:0:0:
64,192,119711,1,0,0:0:0:0:
320,192,119886,1,0,0:0:0:0:
192,192,120060,1,0,0:0:0:0:
64,192,120235,1,0,0:0:0:40:kick.wav
448,192,120235,1,0,0:0:0:0:
320,192,120322,1,0,0:0:0:0:
192,192,120409,1,0,0:0:0:0:
448,192,120496,1,0,0:0:0:0:
64,192,120583,1,0,0:0:0:0:
192,192,120671,1,0,0:0:0:0:
320,192,120758,1,0,0:0:0:0:
64,192,120845,1,0,0:0:0:0:
320,192,120932,1,0,0:0:0:40:clap.wav
448,192,120932,1,0,0:0:0:0:
192,192,121107,1,0,0:0:0:0:
64,192,121281,1,0,0:0:0:0:
320,192,121455,1,0,0:0:0:0:
192,192,121630,1,0,0:0:0:0:
448,192,121804,1,0,0:0:0:0:
64,192,121979,1,0,0:0:0:40:kick.wav
320,192,121979,1,0,0:0:0:0:
192,192,122066,1,0,0:0:0:0:
448,192,122153,1,0,0:0:0:0:
320,192,122240,1,0,0:0:0:0:
64,192,122328,1,0,0:0:0:40:clap.wav
192,192,122328,1,0,0:0:0:0:
320,192,122502,1,0,0:0:0:40:kick 2.wav
448,192,122502,1,0,0:0:0:0:
64,192,122676,1,0,0:0:0:40:kick 2.wav
320,192,122851,1,0,0:0:0:0:
64,192,123025,1,0,0:0:0:40:kick.wav
448,192,123025,1,0,0:0:0:60:cymbal.wav
192,192,123112,1,0,0:0:0:0:
320,192,123200,1,0,0:0:0:0:
64,192,123287,1,0,0:0:0:0:
448,192,123374,1,0,0:0:0:0:
320,192,123461,1,0,0:0:0:0:
192,192,123548,1,0,0:0:0:0:
64,192,123636,1,0,0:0:0:0:
320,192,123723,1,0,0:0:0:40:clap.wav
448,192,123723,1,0,0:0:0:0:
64,192,123897,1,0,0:0:0:0:
320,192,123985,1,0,0:0:0:0:
64,192,124072,1,0,0:0:0:0:
448,192,124246,1,0,0:0:0:0:
320,192,124421,1,0,0:0:0:0:
64,192,124595,1,0,0:0:0:40:kick 2.wav
192,192,124595,1,0,0:0:0:0:
320,192,124769,1,0,0:0:0:40:kick.wav
448,192,124769,1,0,0:0:0:0:
64,192,124857,1,0,0:0:0:0:
192,192,124944,1,0,0:0:0:0:
320,192,125031,1,0,0:0:0:0:
64,192,125118,1,0,0:0:0:40:clap.wav
448,192,125118,1,0,0:0:0:0:
192,192,125293,1,0,0:0:0:0:
64,192,125467,1,0,0:0:0:0:
320,192,125641,1,0,0:0:0:0:
192,192,125816,1,0,0:0:0:40:kick.wav
448,192,125816,1,0,0:0:0:0:
64,192,125903,1,0,0:0:0:0:
320,192,125990,1,0,0:0:0:0:
192,192,126078,1,0,0:0:0:0:
448,192,126165,1,0,0:0:0:0:
320,192,126252,1,0,0:0:0:0:
192,192,126339,1,0,0:0:0:0:
320,192,126426,1,0,0:0:0:0:
64,192,126514,1,0,0:0:0:40:clap.wav
448,192,126514,1,0,0:0:0:0:
192,192,126688,1,0,0:0:0:0:
320,192,126862,1,0,0:0:0:0:
64,192,127037,1,0,0:0:0:0:
448,192,127211,1,0,0:0:0:0:
192,192,127386,1,0,0:0:0:40:kick 2.wav
320,192,127386,1,0,0:0:0:0:
64,192,127560,1,0,0:0:0:40:kick.wav
448,192,127560,1,0,0:0:0:0:
320,192,127647,1,0,0:0:0:0:
192,192,127735,1,0,0:0:0:0:
64,192,127822,1,0,0:0:0:0:
320,192,127909,1,0,0:0:0:40:clap.wav
448,192,127909,1,0,0:0:0:0:
192,192,128083,1,0,0:0:0:0:
320,192,128258,1,0,0:0:0:0:
64,192,128432,1,0,0:0:0:0:
192,192,128607,1,0,0:0:0:40:kick.wav
320,192,128607,1,0,0:0:0:0:
448,192,128694,1,0,0:0:0:0:
64,192,128781,1,0,0:0:0:0:
192,192,128868,1,0,0:0:0:0:
320,192,128955,1,0,0:0:0:0:
448,192,129043,1,0,0:0:0:0:
64,192,129130,1,0,0:0:0:0:
192,192,129217,1,0,0:0:0:0:
320,192,129304,1,0,0:0:0:40:clap.wav
448,192,129304,1,0,0:0:0:0:
64,192,129479,1,0,0:0:0:0:
320,192,129566,1,0,0:0:0:0:
64,192,129653,1,0,0:0:0:0:
448,192,129828,1,0,0:0:0:0:
192,192,130002,1,0,0:0:0:0:
64,192,130176,1,0,0:0:0:40:kick 2.wav
448,192,130176,1,0,0:0:0:0:
192,192,130351,1,0,0:0:0:40:kick.wav
320,192,130351,1,0,0:0:0:0:
64,192,130438,1,0,0:0:0:0:
448,192,130525,1,0,0:0:0:0:
320,192,130612,1,0,0:0:0:0:
64,192,130700,1,0,0:0:0:40:clap.wav
192,192,130700,1,0,0:0:0:0:
448,192,130874,1,0,0:0:0:0:
192,192,131048,1,0,0:0:0:0:
320,192,131223,1,0,0:0:0:0:
64,192,131397,1,0,0:0:0:40:kick.wav
448,192,131397,1,0,0:0:0:0:
192,192,131485,1,0,0:0:0:0:
320,192,131572,1,0,0:0:0:0:
64,192,131659,1,0,0:0:0:0:
448,192,131746,1,0,0:0:0:0:
320,192,131833,1,0,0:0:0:0:
192,192,131921,1,0,0:0:0:0:
448,192,132008,1,0,0:0:0:0:
64,192,132095,1,0,0:0:0:40:clap.wav
192,192,132095,1,0,0:0:0:0:
320,192,132269,1,0,0:0:0:0:
448,192,132444,1,0,0:0:0:0:
192,192,132618,1,0,0:0:0:0:
448,192,132793,1,0,0:0:0:0:
192,192,132967,1,0,0:0:0:0:
64,192,133141,1,0,0:0:0:40:kick.wav
448,192,133141,1,0,0:0:0:0:
320,192,133229,1,0,0:0:0:0:
192,192,133316,1,0,0:0:0:0:
320,192,133403,1,0,0:0:0:0:
448,192,133490,1,0,0:0:0:0:
64,192,133607,1,0,0:0:0:0:
320,192,133723,1,0,0:0:0:0:
192,192,133839,1,0,0:0:0:0:
448,192,133955,1,0,0:0:0:0:
