osu file format v14

[General]
AudioFilename: audio.mp3
AudioLeadIn: 0
PreviewTime: 1182
Countdown: 0
SampleSet: Normal
StackLeniency: 0.7
Mode: 1
LetterboxInBreaks: 0
WidescreenStoryboard: 1

[Editor]
Bookmarks: 1354,23296,45239,67182,89125,111068,133011
DistanceSpacing: 0.8
BeatDivisor: 8
GridSize: 16
TimelineZoom: 3.199999

[Metadata]
Title:20210517demo
TitleUnicode:20210517demo
Artist:Kabanagu
ArtistUnicode:Kabanagu
Creator:Ulqui
Version:Oni
Source:
Tags:japanese electronic dance music edm
BeatmapID:3159245
BeatmapSetID:1544926

[Difficulty]
HPDrainRate:5
CircleSize:2
OverallDifficulty:5
ApproachRate:10
SliderMultiplier:1.4
SliderTickRate:1

[Events]
//Background and Video events
0,0,"qwgqfqw.png",0,45
//Break Periods
2,67382,77468
//Storyboard Layer 0 (Background)
//Storyboard Layer 1 (Fail)
//Storyboard Layer 2 (Pass)
//Storyboard Layer 3 (Foreground)
//Storyboard Layer 4 (Overlay)
//Storyboard Sound Samples

[TimingPoints]
1354,342.857142857143,4,1,0,100,1,0
1354,-166.666666666667,4,1,0,100,0,0
23254,-133.333333333333,4,1,0,100,0,0
23339,-166.666666666667,4,1,0,100,0,0
23511,-166.666666666667,4,1,0,100,0,0
23596,-163.934426229508,4,1,0,100,0,0
23682,-161.290322580645,4,1,0,100,0,0
23768,-158.730158730159,4,1,0,100,0,0
23939,-133.333333333333,4,1,0,100,0,0
24024,-166.666666666667,4,1,0,100,0,0
24111,-158.730158730159,4,1,0,100,0,0
24196,-161.290322580645,4,1,0,100,0,0
24282,-163.934426229508,4,1,0,100,0,0
24368,-166.666666666667,4,1,0,100,0,0
24625,-133.333333333333,4,1,0,100,0,0
24710,-166.666666666667,4,1,0,100,0,0
24882,-166.666666666667,4,1,0,100,0,0
24967,-163.934426229508,4,1,0,100,0,0
25053,-161.290322580645,4,1,0,100,0,0
25139,-158.730158730159,4,1,0,100,0,0
25311,-133.333333333333,4,1,0,100,0,0
25396,-166.666666666667,4,1,0,100,0,0
25482,-158.730158730159,4,1,0,100,0,0
25567,-161.290322580645,4,1,0,100,0,0
25653,-163.934426229508,4,1,0,100,0,0
25739,-166.666666666667,4,1,0,100,0,0
25996,-133.333333333333,4,1,0,100,0,0
26081,-166.666666666667,4,1,0,100,0,0
26254,-166.666666666667,4,1,0,100,0,0
26339,-163.934426229508,4,1,0,100,0,0
26425,-161.290322580645,4,1,0,100,0,0
26511,-158.730158730159,4,1,0,100,0,0
26682,-133.333333333333,4,1,0,100,0,0
26767,-166.666666666667,4,1,0,100,0,0
26854,-158.730158730159,4,1,0,100,0,0
26939,-161.290322580645,4,1,0,100,0,0
27025,-163.934426229508,4,1,0,100,0,0
27111,-166.666666666667,4,1,0,100,0,0
27368,-133.333333333333,4,1,0,100,0,0
27453,-166.666666666667,4,1,0,100,0,0
27625,-166.666666666667,4,1,0,100,0,0
27710,-163.934426229508,4,1,0,100,0,0
27796,-161.290322580645,4,1,0,100,0,0
27882,-158.730158730159,4,1,0,100,0,0
28054,-133.333333333333,4,1,0,100,0,0
28139,-166.666666666667,4,1,0,100,0,0
28225,-158.730158730159,4,1,0,100,0,0
28310,-161.290322580645,4,1,0,100,0,0
28396,-163.934426229508,4,1,0,100,0,0
28482,-166.666666666667,4,1,0,100,0,0
28739,-133.333333333333,4,1,0,100,0,0
28824,-166.666666666667,4,1,0,100,0,0
28996,-166.666666666667,4,1,0,100,0,0
29081,-163.934426229508,4,1,0,100,0,0
29167,-161.290322580645,4,1,0,100,0,0
29253,-158.730158730159,4,1,0,100,0,0
29424,-133.333333333333,4,1,0,100,0,0
29509,-166.666666666667,4,1,0,100,0,0
29596,-158.730158730159,4,1,0,100,0,0
29681,-161.290322580645,4,1,0,100,0,0
29767,-163.934426229508,4,1,0,100,0,0
29853,-166.666666666667,4,1,0,100,0,0
30110,-133.333333333333,4,1,0,100,0,0
30195,-166.666666666667,4,1,0,100,0,0
30368,-166.666666666667,4,1,0,100,0,0
30453,-163.934426229508,4,1,0,100,0,0
30539,-161.290322580645,4,1,0,100,0,0
30625,-158.730158730159,4,1,0,100,0,0
30796,-133.333333333333,4,1,0,100,0,0
30881,-166.666666666667,4,1,0,100,0,0
30968,-158.730158730159,4,1,0,100,0,0
31053,-161.290322580645,4,1,0,100,0,0
31139,-163.934426229508,4,1,0,100,0,0
31225,-166.666666666667,4,1,0,100,0,0
31481,-133.333333333333,4,1,0,100,0,0
31566,-166.666666666667,4,1,0,100,0,0
31739,-166.666666666667,4,1,0,100,0,0
31824,-163.934426229508,4,1,0,100,0,0
31910,-161.290322580645,4,1,0,100,0,0
31996,-158.730158730159,4,1,0,100,0,0
32167,-133.333333333333,4,1,0,100,0,0
32252,-166.666666666667,4,1,0,100,0,0
32339,-158.730158730159,4,1,0,100,0,0
32424,-161.290322580645,4,1,0,100,0,0
32510,-163.934426229508,4,1,0,100,0,0
32596,-166.666666666667,4,1,0,100,0,0
32853,-133.333333333333,4,1,0,100,0,0
32938,-166.666666666667,4,1,0,100,0,0
33111,-166.666666666667,4,1,0,100,0,0
33196,-163.934426229508,4,1,0,100,0,0
33282,-161.290322580645,4,1,0,100,0,0
33368,-158.730158730159,4,1,0,100,0,0
33539,-133.333333333333,4,1,0,100,0,0
33624,-166.666666666667,4,1,0,100,0,0
33711,-158.730158730159,4,1,0,100,0,0
33796,-161.290322580645,4,1,0,100,0,0
33882,-163.934426229508,4,1,0,100,0,0
33968,-166.666666666667,4,1,0,100,0,0
34225,-133.333333333333,4,1,0,100,0,0
34310,-166.666666666667,4,1,0,100,0,0
34482,-166.666666666667,4,1,0,100,0,0
34567,-163.934426229508,4,1,0,100,0,0
34653,-161.290322580645,4,1,0,100,0,0
34739,-158.730158730159,4,1,0,100,0,0
34910,-133.333333333333,4,1,0,100,0,0
34995,-166.666666666667,4,1,0,100,0,0
35082,-158.730158730159,4,1,0,100,0,0
35167,-161.290322580645,4,1,0,100,0,0
35253,-163.934426229508,4,1,0,100,0,0
35339,-166.666666666667,4,1,0,100,0,0
35596,-133.333333333333,4,1,0,100,0,0
35681,-166.666666666667,4,1,0,100,0,0
35854,-166.666666666667,4,1,0,100,0,0
35939,-163.934426229508,4,1,0,100,0,0
36025,-161.290322580645,4,1,0,100,0,0
36111,-158.730158730159,4,1,0,100,0,0
36282,-133.333333333333,4,1,0,100,0,0
36367,-166.666666666667,4,1,0,100,0,0
36454,-158.730158730159,4,1,0,100,0,0
36539,-161.290322580645,4,1,0,100,0,0
36625,-163.934426229508,4,1,0,100,0,0
36711,-166.666666666667,4,1,0,100,0,0
36967,-133.333333333333,4,1,0,100,0,0
37052,-166.666666666667,4,1,0,100,0,0
37225,-166.666666666667,4,1,0,100,0,0
37310,-163.934426229508,4,1,0,100,0,0
37396,-161.290322580645,4,1,0,100,0,0
37482,-158.730158730159,4,1,0,100,0,0
37653,-133.333333333333,4,1,0,100,0,0
37738,-166.666666666667,4,1,0,100,0,0
37825,-158.730158730159,4,1,0,100,0,0
37910,-161.290322580645,4,1,0,100,0,0
37996,-163.934426229508,4,1,0,100,0,0
38082,-166.666666666667,4,1,0,100,0,0
38339,-133.333333333333,4,1,0,100,0,0
38424,-166.666666666667,4,1,0,100,0,0
38596,-166.666666666667,4,1,0,100,0,0
38681,-163.934426229508,4,1,0,100,0,0
38767,-161.290322580645,4,1,0,100,0,0
38853,-158.730158730159,4,1,0,100,0,0
39025,-133.333333333333,4,1,0,100,0,0
39110,-166.666666666667,4,1,0,100,0,0
39196,-158.730158730159,4,1,0,100,0,0
39281,-161.290322580645,4,1,0,100,0,0
39367,-163.934426229508,4,1,0,100,0,0
39453,-166.666666666667,4,1,0,100,0,0
39710,-133.333333333333,4,1,0,100,0,0
39795,-166.666666666667,4,1,0,100,0,0
39968,-166.666666666667,4,1,0,100,0,0
40053,-163.934426229508,4,1,0,100,0,0
40139,-161.290322580645,4,1,0,100,0,0
40225,-158.730158730159,4,1,0,100,0,0
40395,-133.333333333333,4,1,0,100,0,0
40480,-166.666666666667,4,1,0,100,0,0
40568,-158.730158730159,4,1,0,100,0,0
40653,-161.290322580645,4,1,0,100,0,0
40739,-163.934426229508,4,1,0,100,0,0
40825,-166.666666666667,4,1,0,100,0,0
41081,-133.333333333333,4,1,0,100,0,0
41166,-166.666666666667,4,1,0,100,0,0
41339,-166.666666666667,4,1,0,100,0,0
41424,-163.934426229508,4,1,0,100,0,0
41510,-161.290322580645,4,1,0,100,0,0
41596,-158.730158730159,4,1,0,100,0,0
41767,-133.333333333333,4,1,0,100,0,0
41852,-166.666666666667,4,1,0,100,0,0
41939,-158.730158730159,4,1,0,100,0,0
42024,-161.290322580645,4,1,0,100,0,0
42110,-163.934426229508,4,1,0,100,0,0
42196,-166.666666666667,4,1,0,100,0,0
42452,-133.333333333333,4,1,0,100,0,0
42537,-166.666666666667,4,1,0,100,0,0
42711,-166.666666666667,4,1,0,100,0,0
42796,-163.934426229508,4,1,0,100,0,0
42882,-161.290322580645,4,1,0,100,0,0
42968,-158.730158730159,4,1,0,100,0,0
43138,-133.333333333333,4,1,0,100,0,0
43223,-166.666666666667,4,1,0,100,0,0
43311,-158.730158730159,4,1,0,100,0,0
43396,-161.290322580645,4,1,0,100,0,0
43482,-163.934426229508,4,1,0,100,0,0
43568,-166.666666666667,4,1,0,100,0,0
43824,-133.333333333333,4,1,0,100,0,0
43909,-166.666666666667,4,1,0,100,0,0
44082,-166.666666666667,4,1,0,100,0,0
44167,-163.934426229508,4,1,0,100,0,0
44253,-161.290322580645,4,1,0,100,0,0
44339,-158.730158730159,4,1,0,100,0,0
44510,-133.333333333333,4,1,0,100,0,0
44595,-166.666666666667,4,1,0,100,0,0
44682,-158.730158730159,4,1,0,100,0,0
44767,-161.290322580645,4,1,0,100,0,0
44853,-163.934426229508,4,1,0,100,0,0
44939,-166.666666666667,4,1,0,100,0,0
45239,-66.6666666666667,4,1,0,100,0,1
45282,-86.9565217391304,4,1,0,100,0,1
56211,-66.6666666666667,4,1,0,100,0,1
56254,-86.9565217391304,4,1,0,100,0,1
67182,-66.6666666666667,4,1,0,100,0,0
67268,-200,4,1,0,30,0,0
77468,-200,4,1,0,30,0,0
78111,-200,4,1,0,100,0,0
78796,-133.333333333333,4,1,0,100,0,0
78882,-200,4,1,0,100,0,0
80168,-133.333333333333,4,1,0,100,0,0
80254,-200,4,1,0,100,0,0
81539,-133.333333333333,4,1,0,100,0,0
81625,-200,4,1,0,100,0,0
82911,-133.333333333333,4,1,0,100,0,0
82997,-200,4,1,0,100,0,0
84282,-133.333333333333,4,1,0,100,0,0
84368,-200,4,1,0,100,0,0
85654,-133.333333333333,4,1,0,100,0,0
85740,-200,4,1,0,100,0,0
87025,-133.333333333333,4,1,0,100,0,0
87111,-200,4,1,0,100,0,0
88396,-133.333333333333,4,1,0,100,0,0
88482,-200,4,1,0,100,0,0
89039,-166.666666666667,4,1,0,100,0,0
89125,-166.666666666667,4,1,0,100,0,1
89189,-165.289256198347,4,1,0,100,0,1
89275,-163.934426229508,4,1,0,100,0,1
89361,-162.601626016259,4,1,0,100,0,1
89446,-161.290322580645,4,1,0,100,0,1
89532,-160,4,1,0,100,0,1
89618,-158.730158730158,4,1,0,100,0,1
89704,-157.48031496063,4,1,0,100,0,1
89789,-156.25,4,1,0,100,0,1
89875,-157.48031496063,4,1,0,100,0,1
89961,-158.730158730158,4,1,0,100,0,1
90046,-160,4,1,0,100,0,1
90132,-161.290322580645,4,1,0,100,0,1
90218,-162.601626016259,4,1,0,100,0,1
90304,-163.934426229508,4,1,0,100,0,1
90389,-165.289256198347,4,1,0,100,0,1
90475,-166.666666666667,4,1,0,100,0,1
90561,-165.289256198347,4,1,0,100,0,1
90647,-163.934426229508,4,1,0,100,0,1
90733,-162.601626016259,4,1,0,100,0,1
90818,-161.290322580645,4,1,0,100,0,1
90904,-160,4,1,0,100,0,1
90990,-158.730158730158,4,1,0,100,0,1
91076,-157.48031496063,4,1,0,100,0,1
91161,-156.25,4,1,0,100,0,1
91247,-157.48031496063,4,1,0,100,0,1
91333,-158.730158730158,4,1,0,100,0,1
91418,-160,4,1,0,100,0,1
91504,-161.290322580645,4,1,0,100,0,1
91590,-162.601626016259,4,1,0,100,0,1
91676,-163.934426229508,4,1,0,100,0,1
91761,-165.289256198347,4,1,0,100,0,1
91847,-166.666666666667,4,1,0,100,0,1
91932,-165.289256198347,4,1,0,100,0,1
92018,-163.934426229508,4,1,0,100,0,1
92104,-162.601626016259,4,1,0,100,0,1
92189,-161.290322580645,4,1,0,100,0,1
92275,-160,4,1,0,100,0,1
92361,-158.730158730158,4,1,0,100,0,1
92447,-157.48031496063,4,1,0,100,0,1
92532,-156.25,4,1,0,100,0,1
92618,-157.48031496063,4,1,0,100,0,1
92704,-158.730158730158,4,1,0,100,0,1
92789,-160,4,1,0,100,0,1
92875,-161.290322580645,4,1,0,100,0,1
92961,-162.601626016259,4,1,0,100,0,1
93047,-163.934426229508,4,1,0,100,0,1
93132,-165.289256198347,4,1,0,100,0,1
93218,-166.666666666667,4,1,0,100,0,1
93304,-163.934426229508,4,1,0,100,0,1
93390,-161.290322580645,4,1,0,100,0,1
93476,-158.730158730159,4,1,0,100,0,1
93561,-156.25,4,1,0,100,0,1
93647,-153.846153846154,4,1,0,100,0,1
93733,-151.515151515152,4,1,0,100,0,1
93819,-149.253731343284,4,1,0,100,0,1
93904,-147.058823529412,4,1,0,100,0,1
93990,-149.253731343284,4,1,0,100,0,1
94076,-151.515151515152,4,1,0,100,0,1
94161,-153.846153846154,4,1,0,100,0,1
94247,-156.25,4,1,0,100,0,1
94333,-158.730158730159,4,1,0,100,0,1
94419,-161.290322580645,4,1,0,100,0,1
94504,-163.934426229508,4,1,0,100,0,1
94590,-166.666666666667,4,1,0,100,0,1
94675,-165.289256198347,4,1,0,100,0,1
94761,-163.934426229508,4,1,0,100,0,1
94847,-162.601626016259,4,1,0,100,0,1
94932,-161.290322580645,4,1,0,100,0,1
95018,-160,4,1,0,100,0,1
95104,-158.730158730158,4,1,0,100,0,1
95190,-157.48031496063,4,1,0,100,0,1
95275,-156.25,4,1,0,100,0,1
95361,-157.48031496063,4,1,0,100,0,1
95447,-158.730158730158,4,1,0,100,0,1
95532,-160,4,1,0,100,0,1
95618,-161.290322580645,4,1,0,100,0,1
95704,-162.601626016259,4,1,0,100,0,1
95790,-163.934426229508,4,1,0,100,0,1
95875,-165.289256198347,4,1,0,100,0,1
95961,-166.666666666667,4,1,0,100,0,1
96047,-165.289256198347,4,1,0,100,0,1
96133,-163.934426229508,4,1,0,100,0,1
96219,-162.601626016259,4,1,0,100,0,1
96304,-161.290322580645,4,1,0,100,0,1
96390,-160,4,1,0,100,0,1
96476,-158.730158730158,4,1,0,100,0,1
96562,-157.48031496063,4,1,0,100,0,1
96647,-156.25,4,1,0,100,0,1
96733,-157.48031496063,4,1,0,100,0,1
96819,-158.730158730158,4,1,0,100,0,1
96904,-160,4,1,0,100,0,1
96990,-161.290322580645,4,1,0,100,0,1
97076,-162.601626016259,4,1,0,100,0,1
97162,-163.934426229508,4,1,0,100,0,1
97247,-165.289256198347,4,1,0,100,0,1
97333,-166.666666666667,4,1,0,100,0,1
97418,-165.289256198347,4,1,0,100,0,1
97504,-163.934426229508,4,1,0,100,0,1
97590,-162.601626016259,4,1,0,100,0,1
97675,-161.290322580645,4,1,0,100,0,1
97761,-160,4,1,0,100,0,1
97847,-158.730158730158,4,1,0,100,0,1
97933,-157.48031496063,4,1,0,100,0,1
98018,-156.25,4,1,0,100,0,1
98104,-157.48031496063,4,1,0,100,0,1
98190,-158.730158730158,4,1,0,100,0,1
98275,-160,4,1,0,100,0,1
98361,-161.290322580645,4,1,0,100,0,1
98447,-162.601626016259,4,1,0,100,0,1
98533,-163.934426229508,4,1,0,100,0,1
98618,-165.289256198347,4,1,0,100,0,1
98704,-166.666666666667,4,1,0,100,0,1
98789,-163.934426229508,4,1,0,100,0,1
98875,-161.290322580645,4,1,0,100,0,1
98961,-158.730158730159,4,1,0,100,0,1
99046,-156.25,4,1,0,100,0,1
99132,-153.846153846154,4,1,0,100,0,1
99218,-151.515151515152,4,1,0,100,0,1
99304,-149.253731343284,4,1,0,100,0,1
99389,-147.058823529412,4,1,0,100,0,1
99475,-149.253731343284,4,1,0,100,0,1
99561,-151.515151515152,4,1,0,100,0,1
99646,-153.846153846154,4,1,0,100,0,1
99732,-156.25,4,1,0,100,0,1
99818,-158.730158730159,4,1,0,100,0,1
99904,-161.290322580645,4,1,0,100,0,1
99989,-163.934426229508,4,1,0,100,0,1
100076,-166.666666666667,4,1,0,100,0,1
100161,-165.289256198347,4,1,0,100,0,1
100247,-163.934426229508,4,1,0,100,0,1
100333,-162.601626016259,4,1,0,100,0,1
100418,-161.290322580645,4,1,0,100,0,1
100504,-160,4,1,0,100,0,1
100590,-158.730158730158,4,1,0,100,0,1
100676,-157.48031496063,4,1,0,100,0,1
100761,-156.25,4,1,0,100,0,1
100847,-157.48031496063,4,1,0,100,0,1
100933,-158.730158730158,4,1,0,100,0,1
101018,-160,4,1,0,100,0,1
101104,-161.290322580645,4,1,0,100,0,1
101190,-162.601626016259,4,1,0,100,0,1
101276,-163.934426229508,4,1,0,100,0,1
101361,-165.289256198347,4,1,0,100,0,1
101447,-166.666666666667,4,1,0,100,0,1
101533,-165.289256198347,4,1,0,100,0,1
101619,-163.934426229508,4,1,0,100,0,1
101705,-162.601626016259,4,1,0,100,0,1
101790,-161.290322580645,4,1,0,100,0,1
101876,-160,4,1,0,100,0,1
101962,-158.730158730158,4,1,0,100,0,1
102048,-157.48031496063,4,1,0,100,0,1
102133,-156.25,4,1,0,100,0,1
102219,-157.48031496063,4,1,0,100,0,1
102305,-158.730158730158,4,1,0,100,0,1
102390,-160,4,1,0,100,0,1
102476,-161.290322580645,4,1,0,100,0,1
102562,-162.601626016259,4,1,0,100,0,1
102648,-163.934426229508,4,1,0,100,0,1
102733,-165.289256198347,4,1,0,100,0,1
102819,-166.666666666667,4,1,0,100,0,1
102904,-165.289256198347,4,1,0,100,0,1
102990,-163.934426229508,4,1,0,100,0,1
103076,-162.601626016259,4,1,0,100,0,1
103161,-161.290322580645,4,1,0,100,0,1
103247,-160,4,1,0,100,0,1
103333,-158.730158730158,4,1,0,100,0,1
103419,-157.48031496063,4,1,0,100,0,1
103504,-156.25,4,1,0,100,0,1
103590,-157.48031496063,4,1,0,100,0,1
103676,-158.730158730158,4,1,0,100,0,1
103761,-160,4,1,0,100,0,1
103847,-161.290322580645,4,1,0,100,0,1
103933,-162.601626016259,4,1,0,100,0,1
104019,-163.934426229508,4,1,0,100,0,1
104104,-165.289256198347,4,1,0,100,0,1
104190,-166.666666666667,4,1,0,100,0,1
104275,-163.934426229508,4,1,0,100,0,1
104361,-161.290322580645,4,1,0,100,0,1
104447,-158.730158730159,4,1,0,100,0,1
104532,-156.25,4,1,0,100,0,1
104618,-153.846153846154,4,1,0,100,0,1
104704,-151.515151515152,4,1,0,100,0,1
104790,-149.253731343284,4,1,0,100,0,1
104875,-147.058823529412,4,1,0,100,0,1
104961,-149.253731343284,4,1,0,100,0,1
105047,-151.515151515152,4,1,0,100,0,1
105132,-153.846153846154,4,1,0,100,0,1
105218,-156.25,4,1,0,100,0,1
105304,-158.730158730159,4,1,0,100,0,1
105390,-161.290322580645,4,1,0,100,0,1
105475,-163.934426229508,4,1,0,100,0,1
105562,-166.666666666667,4,1,0,100,0,1
105646,-165.289256198347,4,1,0,100,0,1
105732,-163.934426229508,4,1,0,100,0,1
105818,-162.601626016259,4,1,0,100,0,1
105903,-161.290322580645,4,1,0,100,0,1
105989,-160,4,1,0,100,0,1
106075,-158.730158730158,4,1,0,100,0,1
106161,-157.48031496063,4,1,0,100,0,1
106246,-156.25,4,1,0,100,0,1
106332,-157.48031496063,4,1,0,100,0,1
106418,-158.730158730158,4,1,0,100,0,1
106503,-160,4,1,0,100,0,1
106589,-161.290322580645,4,1,0,100,0,1
106675,-162.601626016259,4,1,0,100,0,1
106761,-163.934426229508,4,1,0,100,0,1
106846,-165.289256198347,4,1,0,100,0,1
106932,-166.666666666667,4,1,0,100,0,1
107018,-165.289256198347,4,1,0,100,0,1
107104,-163.934426229508,4,1,0,100,0,1
107190,-162.601626016259,4,1,0,100,0,1
107275,-161.290322580645,4,1,0,100,0,1
107361,-160,4,1,0,100,0,1
107447,-158.730158730158,4,1,0,100,0,1
107533,-157.48031496063,4,1,0,100,0,1
107618,-156.25,4,1,0,100,0,1
107704,-157.48031496063,4,1,0,100,0,1
107790,-158.730158730158,4,1,0,100,0,1
107875,-160,4,1,0,100,0,1
107961,-161.290322580645,4,1,0,100,0,1
108047,-162.601626016259,4,1,0,100,0,1
108133,-163.934426229508,4,1,0,100,0,1
108218,-165.289256198347,4,1,0,100,0,1
108304,-166.666666666667,4,1,0,100,0,1
108389,-165.289256198347,4,1,0,100,0,1
108475,-163.934426229508,4,1,0,100,0,1
108561,-162.601626016259,4,1,0,100,0,1
108646,-161.290322580645,4,1,0,100,0,1
108732,-160,4,1,0,100,0,1
108818,-158.730158730158,4,1,0,100,0,1
108904,-157.48031496063,4,1,0,100,0,1
108989,-156.25,4,1,0,100,0,1
109075,-157.48031496063,4,1,0,100,0,1
109161,-158.730158730158,4,1,0,100,0,1
109246,-160,4,1,0,100,0,1
109332,-161.290322580645,4,1,0,100,0,1
109418,-162.601626016259,4,1,0,100,0,1
109504,-163.934426229508,4,1,0,100,0,1
109589,-165.289256198347,4,1,0,100,0,1
109675,-166.666666666667,4,1,0,100,0,1
109761,-163.934426229508,4,1,0,100,0,1
109847,-161.290322580645,4,1,0,100,0,1
109933,-158.730158730159,4,1,0,100,0,1
110018,-156.25,4,1,0,100,0,1
110104,-153.846153846154,4,1,0,100,0,1
110190,-151.515151515152,4,1,0,100,0,1
110276,-149.253731343284,4,1,0,100,0,1
110361,-147.058823529412,4,1,0,100,0,1
110447,-149.253731343284,4,1,0,100,0,1
110533,-151.515151515152,4,1,0,100,0,1
110618,-153.846153846154,4,1,0,100,0,1
110704,-156.25,4,1,0,100,0,1
110790,-158.730158730159,4,1,0,100,0,1
110876,-161.290322580645,4,1,0,100,0,1
110961,-163.934426229508,4,1,0,100,0,1
111068,-166.666666666667,4,1,0,100,0,0
111154,-166.666666666667,4,1,0,100,0,0
113768,-100,4,1,0,100,0,0
121311,-83.3333333333333,4,1,0,100,0,0
121396,-83.3333333333333,4,1,0,100,0,0
121568,-87.719298245614,4,1,0,100,0,0
121654,-88.4955752212389,4,1,0,100,0,0
121739,-89.2857142857143,4,1,0,100,0,0
121825,-90.0900900900901,4,1,0,100,0,0
121911,-90.9090909090909,4,1,0,100,0,0
122039,-80,4,1,0,100,0,1
122104,-79.7507788161994,4,1,0,100,0,1
122189,-79.5031055900621,4,1,0,100,0,1
122275,-79.2569659442725,4,1,0,100,0,1
122361,-79.0123456790123,4,1,0,100,0,1
122446,-78.7692307692308,4,1,0,100,0,1
122532,-78.5276073619632,4,1,0,100,0,1
122618,-78.2874617737003,4,1,0,100,0,1
122704,-78.0487804878049,4,1,0,100,0,1
122789,-77.8115501519757,4,1,0,100,0,1
122875,-77.5757575757576,4,1,0,100,0,1
122961,-77.3413897280967,4,1,0,100,0,1
123046,-77.1084337349398,4,1,0,100,0,1
123132,-76.8768768768769,4,1,0,100,0,1
123217,-76.6467065868263,4,1,0,100,0,1
123303,-76.4179104477612,4,1,0,100,0,1
123389,-76.1904761904762,4,1,0,100,0,1
123474,-75.9643916913947,4,1,0,100,0,1
123560,-75.7396449704142,4,1,0,100,0,1
123646,-75.5162241887906,4,1,0,100,0,1
123732,-75.2941176470588,4,1,0,100,0,1
123817,-75.0733137829912,4,1,0,100,0,1
123903,-74.8538011695906,4,1,0,100,0,1
123989,-74.6355685131195,4,1,0,100,0,1
124075,-74.4186046511628,4,1,0,100,0,1
124160,-74.2028985507246,4,1,0,100,0,1
124246,-73.9884393063584,4,1,0,100,0,1
124332,-73.7752161383285,4,1,0,100,0,1
124417,-73.5632183908046,4,1,0,100,0,1
124503,-73.352435530086,4,1,0,100,0,1
124589,-73.1428571428571,4,1,0,100,0,1
124675,-72.9344729344729,4,1,0,100,0,1
124760,-72.7272727272727,4,1,0,100,0,1
124846,-72.5212464589235,4,1,0,100,0,1
124932,-72.316384180791,4,1,0,100,0,1
125018,-72.112676056338,4,1,0,100,0,1
125103,-71.9101123595506,4,1,0,100,0,1
125189,-71.7086834733894,4,1,0,100,0,1
125275,-71.5083798882682,4,1,0,100,0,1
125360,-71.3091922005571,4,1,0,100,0,1
125446,-71.1111111111111,4,1,0,100,0,1
125532,-70.9141274238227,4,1,0,100,0,1
125618,-70.7182320441989,4,1,0,100,0,1
125703,-70.5234159779614,4,1,0,100,0,1
125789,-70.3296703296703,4,1,0,100,0,1
125875,-70.1369863013699,4,1,0,100,0,1
125961,-69.9453551912568,4,1,0,100,0,1
126046,-69.7547683923706,4,1,0,100,0,1
126131,-69.5652173913043,4,1,0,100,0,1
126217,-69.3766937669377,4,1,0,100,0,1
126303,-69.1891891891892,4,1,0,100,0,1
126388,-69.0026954177898,4,1,0,100,0,1
126474,-68.8172043010753,4,1,0,100,0,1
126560,-68.6327077747989,4,1,0,100,0,1
126646,-68.4491978609626,4,1,0,100,0,1
126731,-68.2666666666667,4,1,0,100,0,1
126817,-68.0851063829787,4,1,0,100,0,1
126903,-67.9045092838196,4,1,0,100,0,1
126989,-67.7248677248677,4,1,0,100,0,1
127074,-67.5461741424802,4,1,0,100,0,1
127160,-67.3684210526316,4,1,0,100,0,1
127246,-67.1916010498688,4,1,0,100,0,1
127331,-67.0157068062827,4,1,0,100,0,1
127417,-66.8407310704961,4,1,0,100,0,1
127503,-66.6666666666667,4,1,0,100,0,1
127589,-66.4935064935065,4,1,0,100,0,1
127674,-66.3212435233161,4,1,0,100,0,1
127760,-66.1498708010336,4,1,0,100,0,1
127846,-65.979381443299,4,1,0,100,0,1
127932,-65.8097686375321,4,1,0,100,0,1
128017,-65.6410256410256,4,1,0,100,0,1
128103,-65.4731457800512,4,1,0,100,0,1
128189,-65.3061224489796,4,1,0,100,0,1
128274,-65.1399491094148,4,1,0,100,0,1
128360,-64.9746192893401,4,1,0,100,0,1
128446,-64.8101265822785,4,1,0,100,0,1
128532,-64.6464646464647,4,1,0,100,0,1
128617,-64.4836272040302,4,1,0,100,0,1
128703,-64.321608040201,4,1,0,100,0,1
128789,-64.1604010025063,4,1,0,100,0,1
128875,-64,4,1,0,100,0,1
128960,-63.8403990024938,4,1,0,100,0,1
129046,-63.681592039801,4,1,0,100,0,1
129132,-63.5235732009926,4,1,0,100,0,1
129217,-63.3663366336634,4,1,0,100,0,1
129303,-63.2098765432099,4,1,0,100,0,1
129389,-63.0541871921182,4,1,0,100,0,1
129475,-62.8992628992629,4,1,0,100,0,1
129560,-62.7450980392157,4,1,0,100,0,1
129646,-62.5916870415648,4,1,0,100,0,1
129732,-62.4390243902439,4,1,0,100,0,1
129818,-62.287104622871,4,1,0,100,0,1
129903,-62.1359223300971,4,1,0,100,0,1
129989,-61.9854721549637,4,1,0,100,0,1
130075,-61.8357487922705,4,1,0,100,0,1
130160,-61.6867469879518,4,1,0,100,0,1
130246,-61.5384615384615,4,1,0,100,0,1
130332,-61.3908872901679,4,1,0,100,0,1
130418,-61.244019138756,4,1,0,100,0,1
130503,-61.0978520286396,4,1,0,100,0,1
130589,-60.9523809523809,4,1,0,100,0,1
130675,-60.8076009501188,4,1,0,100,0,1
130761,-60.6635071090047,4,1,0,100,0,1
130846,-60.5200945626478,4,1,0,100,0,1
130932,-60.377358490566,4,1,0,100,0,1
131018,-60.2352941176471,4,1,0,100,0,1
131103,-60.093896713615,4,1,0,100,0,1
131189,-59.9531615925059,4,1,0,100,0,1
131275,-59.8130841121495,4,1,0,100,0,1
131361,-59.6736596736597,4,1,0,100,0,1
131446,-59.5348837209302,4,1,0,100,0,1
131532,-59.3967517401392,4,1,0,100,0,1
131618,-59.2592592592593,4,1,0,100,0,1
131704,-59.1224018475751,4,1,0,100,0,1
131789,-58.9861751152074,4,1,0,100,0,1
131875,-58.8505747126437,4,1,0,100,0,1
131961,-58.7155963302752,4,1,0,100,0,1
132046,-58.5812356979405,4,1,0,100,0,1
132132,-58.4474885844749,4,1,0,100,0,1
132218,-58.3143507972665,4,1,0,100,0,1
132304,-58.1818181818182,4,1,0,100,0,1
132389,-58.0498866213152,4,1,0,100,0,1
132475,-57.9185520361991,4,1,0,100,0,1
132561,-57.7878103837472,4,1,0,100,0,1
132646,-57.6576576576577,4,1,0,100,0,1
132732,-57.5280898876404,4,1,0,100,0,1
132818,-57.3991031390135,4,1,0,100,0,1
132904,-57.2706935123042,4,1,0,100,0,1
132968,-57.1428571428571,4,1,0,100,0,0

[HitObjects]
152,202,23296,5,0,0:0:0:0:
164,199,23554,1,8,0:0:0:0:
164,199,23725,1,8,0:0:0:0:
161,212,23982,1,0,0:0:0:0:
160,212,24239,1,8,0:0:0:0:
160,212,24411,1,8,0:0:0:0:
174,192,24668,1,0,0:0:0:0:
174,192,24925,1,8,0:0:0:0:
174,192,25096,1,8,0:0:0:0:
174,192,25354,1,0,0:0:0:0:
174,192,25611,1,8,0:0:0:0:
174,192,25782,1,8,0:0:0:0:
201,116,26039,1,0,0:0:0:0:
201,116,26296,1,8,0:0:0:0:
201,116,26468,1,8,0:0:0:0:
201,116,26725,1,0,0:0:0:0:
201,116,26982,1,8,0:0:0:0:
201,116,27154,1,8,0:0:0:0:
162,121,27411,1,0,0:0:0:0:
162,121,28096,1,8,0:0:0:0:
183,119,28782,1,0,0:0:0:0:
175,124,29039,1,8,0:0:0:0:
175,124,29211,1,8,0:0:0:0:
175,124,29468,1,0,0:0:0:0:
175,124,29725,1,8,0:0:0:0:
175,124,29896,1,8,0:0:0:0:
210,138,30154,1,0,0:0:0:0:
210,138,30411,1,8,0:0:0:0:
210,138,30582,1,8,0:0:0:0:
210,138,30839,1,0,0:0:0:0:
210,138,31096,1,8,0:0:0:0:
210,138,31268,1,8,0:0:0:0:
210,151,31525,1,0,0:0:0:0:
210,151,31782,1,8,0:0:0:0:
210,151,31954,1,8,0:0:0:0:
210,151,32211,1,0,0:0:0:0:
175,198,32468,1,8,0:0:0:0:
175,198,32639,1,8,0:0:0:0:
176,205,32896,1,0,0:0:0:0:
189,175,33582,1,8,0:0:0:0:
189,175,34268,1,0,0:0:0:0:
189,175,34525,1,8,0:0:0:0:
189,175,34696,1,8,0:0:0:0:
189,175,34954,1,0,0:0:0:0:
189,175,35211,1,8,0:0:0:0:
189,175,35382,1,8,0:0:0:0:
189,175,35639,1,0,0:0:0:0:
171,109,35896,1,8,0:0:0:0:
171,109,36068,1,8,0:0:0:0:
171,109,36325,1,0,0:0:0:0:
171,109,36582,1,8,0:0:0:0:
171,109,36754,1,8,0:0:0:0:
171,109,37011,1,0,0:0:0:0:
171,109,37268,1,8,0:0:0:0:
171,109,37439,1,8,0:0:0:0:
171,109,37696,1,0,0:0:0:0:
171,109,37954,1,8,0:0:0:0:
171,109,38125,1,8,0:0:0:0:
171,109,38382,1,0,0:0:0:0:
186,130,39068,1,8,0:0:0:0:
187,137,39754,1,0,0:0:0:0:
187,137,40011,1,8,0:0:0:0:
187,137,40182,1,8,0:0:0:0:
187,137,40439,1,0,0:0:0:0:
187,137,40696,1,8,0:0:0:0:
187,137,40868,1,8,0:0:0:0:
181,146,41125,1,0,0:0:0:0:
181,147,41382,1,8,0:0:0:0:
181,147,41554,1,8,0:0:0:0:
181,147,41811,1,0,0:0:0:0:
181,146,42068,1,8,0:0:0:0:
181,147,42239,1,8,0:0:0:0:
171,144,42496,1,0,0:0:0:0:
170,145,42754,1,8,0:0:0:0:
170,145,42925,1,8,0:0:0:0:
170,145,43182,1,0,0:0:0:0:
171,144,43439,1,8,0:0:0:0:
170,145,43611,1,8,0:0:0:0:
170,145,43868,1,0,0:0:0:0:
210,112,44554,1,8,0:0:0:0:
149,230,45239,5,4,0:0:0:0:
200,218,45582,1,8,0:0:0:0:
162,134,45754,1,0,0:0:0:0:
162,134,45839,1,0,0:0:0:0:
162,134,45925,1,0,0:0:0:0:
162,134,46011,1,0,0:0:0:0:
162,134,46096,1,0,0:0:0:0:
175,142,46268,1,8,0:0:0:0:
175,172,46439,1,0,0:0:0:0:
175,171,46611,1,0,0:0:0:0:
177,181,46782,1,0,0:0:0:0:
177,181,46954,1,8,0:0:0:0:
177,181,47125,1,0,0:0:0:0:
206,158,47211,1,8,0:0:0:0:
177,181,47296,1,8,0:0:0:0:
206,157,47382,1,8,0:0:0:0:
205,157,47468,1,0,0:0:0:0:
180,70,47639,1,8,0:0:0:0:
194,89,47811,1,0,0:0:0:0:
193,90,47982,1,0,0:0:0:0:
187,94,48154,1,0,0:0:0:0:
187,95,48325,1,8,0:0:0:0:
180,104,48496,1,0,0:0:0:0:
180,104,48582,1,0,0:0:0:0:
180,104,48668,1,8,0:0:0:0:
180,104,48754,1,8,0:0:0:0:
180,104,48839,1,0,0:0:0:0:
158,131,49011,1,8,0:0:0:0:
158,131,49182,1,0,0:0:0:0:
181,69,49354,1,0,0:0:0:0:
178,88,49439,1,8,0:0:0:0:
182,74,49525,1,0,0:0:0:0:
182,74,49696,1,8,0:0:0:0:
187,86,49782,1,0,0:0:0:0:
187,86,49868,1,8,0:0:0:0:
187,86,50039,1,0,0:0:0:0:
187,86,50382,1,8,0:0:0:0:
187,86,50554,1,8,0:0:0:0:
187,86,50725,1,0,0:0:0:0:
206,200,50896,1,0,0:0:0:0:
206,200,51068,1,8,0:0:0:0:
206,200,51239,1,0,0:0:0:0:
206,200,51325,1,0,0:0:0:0:
206,200,51411,1,0,0:0:0:0:
206,200,51496,1,0,0:0:0:0:
206,200,51582,1,0,0:0:0:0:
206,200,51754,1,8,0:0:0:0:
206,200,51925,1,0,0:0:0:0:
206,200,52096,1,0,0:0:0:0:
206,200,52268,1,0,0:0:0:0:
206,200,52439,1,8,0:0:0:0:
206,200,52611,1,0,0:0:0:0:
165,173,52696,1,8,0:0:0:0:
206,200,52782,1,8,0:0:0:0:
165,173,52868,1,8,0:0:0:0:
206,200,52954,1,0,0:0:0:0:
206,200,53125,1,8,0:0:0:0:
181,190,53296,1,0,0:0:0:0:
181,190,53468,1,0,0:0:0:0:
181,190,53639,1,0,0:0:0:0:
179,190,53811,1,8,0:0:0:0:
178,191,53982,1,0,0:0:0:0:
180,194,54068,1,0,0:0:0:0:
178,191,54154,1,8,0:0:0:0:
181,190,54239,1,8,0:0:0:0:
181,190,54325,1,0,0:0:0:0:
179,208,54496,1,8,0:0:0:0:
179,208,54668,1,0,0:0:0:0:
179,208,54839,1,0,0:0:0:0:
187,217,54925,1,8,0:0:0:0:
187,217,55011,1,0,0:0:0:0:
187,219,55182,1,8,0:0:0:0:
187,219,55268,1,0,0:0:0:0:
187,219,55354,1,8,0:0:0:0:
187,219,55525,1,0,0:0:0:0:
254,186,55696,1,0,0:0:0:0:
187,219,55868,1,8,0:0:0:0:
78,99,55954,1,8,0:0:0:0:
187,217,56039,1,8,0:0:0:0:
191,165,56125,1,8,0:0:0:0:
187,219,56211,1,4,0:0:0:0:
202,193,56554,1,8,0:0:0:0:
202,193,56725,1,0,0:0:0:0:
219,168,56811,1,0,0:0:0:0:
202,193,56896,1,0,0:0:0:0:
219,168,56982,1,0,0:0:0:0:
202,193,57068,1,0,0:0:0:0:
202,193,57239,1,8,0:0:0:0:
227,139,57325,1,8,0:0:0:0:
202,193,57411,1,8,0:0:0:0:
202,193,57582,1,0,0:0:0:0:
183,177,57754,1,0,0:0:0:0:
181,177,57925,1,8,0:0:0:0:
181,177,58096,1,0,0:0:0:0:
182,177,58182,1,8,0:0:0:0:
181,177,58268,1,0,0:0:0:0:
182,177,58354,1,8,0:0:0:0:
181,177,58439,1,0,0:0:0:0:
198,106,58611,1,8,0:0:0:0:
198,106,58782,1,0,0:0:0:0:
191,121,58868,1,8,0:0:0:0:
191,122,58954,1,0,0:0:0:0:
190,130,59125,1,0,0:0:0:0:
190,130,59296,1,8,0:0:0:0:
190,130,59468,1,0,0:0:0:0:
192,128,59554,1,0,0:0:0:0:
190,130,59639,1,8,0:0:0:0:
191,128,59725,1,8,0:0:0:0:
190,130,59811,1,0,0:0:0:0:
178,105,59982,1,8,0:0:0:0:
187,102,60068,1,8,0:0:0:0:
178,106,60154,1,8,0:0:0:0:
178,106,60325,1,0,0:0:0:0:
170,116,60411,1,8,0:0:0:0:
170,116,60496,1,0,0:0:0:0:
170,116,60668,1,8,0:0:0:0:
170,116,60754,1,0,0:0:0:0:
170,116,60839,1,8,0:0:0:0:
170,116,61011,1,0,0:0:0:0:
170,122,61354,1,8,0:0:0:0:
170,116,61525,1,8,0:0:0:0:
170,123,61611,1,8,0:0:0:0:
170,122,61696,1,0,0:0:0:0:
203,130,61868,1,0,0:0:0:0:
203,130,62039,1,8,0:0:0:0:
203,130,62211,1,0,0:0:0:0:
215,121,62296,1,0,0:0:0:0:
204,129,62382,1,0,0:0:0:0:
215,121,62468,1,0,0:0:0:0:
204,129,62554,1,8,0:0:0:0:
167,65,62639,1,8,0:0:0:0:
204,129,62725,1,8,0:0:0:0:
188,108,62896,1,0,0:0:0:0:
188,108,63068,1,0,0:0:0:0:
188,125,63239,1,0,0:0:0:0:
187,125,63411,1,8,0:0:0:0:
176,136,63582,1,0,0:0:0:0:
176,136,63668,1,8,0:0:0:0:
176,136,63754,1,8,0:0:0:0:
176,137,63839,1,8,0:0:0:0:
176,136,63925,1,0,0:0:0:0:
160,93,64096,1,8,0:0:0:0:
170,130,64182,1,8,0:0:0:0:
172,129,64268,1,8,0:0:0:0:
172,130,64439,1,0,0:0:0:0:
176,136,64611,1,0,0:0:0:0:
176,136,64782,1,8,0:0:0:0:
179,131,64954,1,0,0:0:0:0:
182,130,65039,1,0,0:0:0:0:
179,132,65125,1,8,0:0:0:0:
182,130,65211,1,8,0:0:0:0:
179,132,65296,1,0,0:0:0:0:
159,99,65468,1,8,0:0:0:0:
186,86,65639,1,0,0:0:0:0:
159,99,65811,1,0,0:0:0:0:
201,130,65896,1,8,0:0:0:0:
193,105,65982,1,0,0:0:0:0:
193,105,66154,1,8,0:0:0:0:
201,130,66239,1,0,0:0:0:0:
193,105,66325,1,8,0:0:0:0:
201,130,66496,1,0,0:0:0:0:
195,137,66668,1,0,0:0:0:0:
195,137,66839,1,8,0:0:0:0:
184,109,66925,1,8,0:0:0:0:
185,108,67011,1,8,0:0:0:0:
184,109,67096,1,8,0:0:0:0:
195,137,67182,1,4,0:0:0:0:
268,253,78154,5,0,0:0:0:0:
268,253,78839,1,8,0:0:0:0:
263,258,80211,1,8,0:0:0:0:
264,257,81582,1,8,0:0:0:0:
264,255,82954,1,8,0:0:0:0:
264,253,84325,1,8,0:0:0:0:
264,252,85696,1,8,0:0:0:0:
266,252,87068,1,8,0:0:0:0:
266,251,88439,1,8,0:0:0:0:
226,160,89125,1,0,0:0:0:0:
215,216,89296,1,8,0:0:0:0:
144,239,89382,1,0,0:0:0:0:
144,239,89554,1,0,0:0:0:0:
190,50,89639,1,0,0:0:0:0:
144,239,89811,1,8,0:0:0:0:
215,216,89982,1,0,0:0:0:0:
144,239,90068,1,8,0:0:0:0:
144,239,90239,1,8,0:0:0:0:
193,61,90325,1,8,0:0:0:0:
212,164,90496,1,0,0:0:0:0:
248,126,90668,1,8,0:0:0:0:
212,164,90754,1,0,0:0:0:0:
212,164,90925,1,0,0:0:0:0:
248,126,91011,1,0,0:0:0:0:
212,164,91182,1,8,0:0:0:0:
248,126,91354,1,0,0:0:0:0:
212,164,91439,1,8,0:0:0:0:
212,164,91611,1,8,0:0:0:0:
248,126,91696,1,8,0:0:0:0:
212,164,91868,1,0,0:0:0:0:
205,76,92039,1,8,0:0:0:0:
212,164,92125,1,0,0:0:0:0:
212,164,92296,1,0,0:0:0:0:
205,76,92382,1,0,0:0:0:0:
212,164,92554,1,8,0:0:0:0:
197,89,92725,1,0,0:0:0:0:
211,171,92811,1,8,0:0:0:0:
210,171,92982,1,8,0:0:0:0:
197,89,93068,1,8,0:0:0:0:
210,171,93239,1,0,0:0:0:0:
197,93,93411,1,8,0:0:0:0:
209,171,93496,1,0,0:0:0:0:
211,171,93668,1,0,0:0:0:0:
201,83,93754,1,0,0:0:0:0:
210,171,93925,1,8,0:0:0:0:
209,171,94268,1,8,0:0:0:0:
219,104,94354,1,8,0:0:0:0:
219,104,94439,1,8,0:0:0:0:
142,128,94525,1,8,0:0:0:0:
173,156,94611,1,0,0:0:0:0:
180,96,94782,1,8,0:0:0:0:
187,161,94868,1,0,0:0:0:0:
187,161,95039,1,0,0:0:0:0:
178,107,95125,1,0,0:0:0:0:
187,160,95296,1,8,0:0:0:0:
180,96,95468,1,0,0:0:0:0:
176,144,95554,1,8,0:0:0:0:
175,144,95725,1,8,0:0:0:0:
181,93,95811,1,8,0:0:0:0:
174,144,95982,1,0,0:0:0:0:
204,76,96154,1,8,0:0:0:0:
174,145,96239,1,0,0:0:0:0:
176,144,96411,1,0,0:0:0:0:
193,86,96496,1,0,0:0:0:0:
175,144,96668,1,8,0:0:0:0:
193,89,96839,1,0,0:0:0:0:
174,144,96925,1,8,0:0:0:0:
174,145,97096,1,8,0:0:0:0:
193,86,97182,1,8,0:0:0:0:
176,144,97354,1,0,0:0:0:0:
193,86,97525,1,8,0:0:0:0:
175,144,97611,1,0,0:0:0:0:
174,144,97782,1,0,0:0:0:0:
193,89,97868,1,0,0:0:0:0:
174,145,98039,1,8,0:0:0:0:
193,86,98211,1,0,0:0:0:0:
176,133,98296,1,8,0:0:0:0:
176,133,98468,1,8,0:0:0:0:
193,86,98554,1,8,0:0:0:0:
176,134,98725,1,0,0:0:0:0:
193,89,98896,1,8,0:0:0:0:
176,135,98982,1,0,0:0:0:0:
176,133,99154,1,0,0:0:0:0:
193,86,99239,1,0,0:0:0:0:
176,133,99411,1,8,0:0:0:0:
181,123,99496,1,8,0:0:0:0:
176,134,99668,1,0,0:0:0:0:
176,134,99754,1,8,0:0:0:0:
163,83,100096,1,0,0:0:0:0:
200,128,100268,1,8,0:0:0:0:
171,143,100354,1,0,0:0:0:0:
171,143,100525,1,0,0:0:0:0:
216,90,100611,1,8,0:0:0:0:
171,143,100782,1,8,0:0:0:0:
212,120,100954,1,8,0:0:0:0:
171,143,101039,1,8,0:0:0:0:
171,143,101211,1,8,0:0:0:0:
219,122,101296,1,0,0:0:0:0:
171,143,101468,1,0,0:0:0:0:
227,105,101639,1,8,0:0:0:0:
171,143,101725,1,0,0:0:0:0:
171,143,101896,1,0,0:0:0:0:
224,109,101982,1,0,0:0:0:0:
171,143,102154,1,8,0:0:0:0:
222,111,102325,1,8,0:0:0:0:
148,149,102411,1,8,0:0:0:0:
148,149,102582,1,8,0:0:0:0:
222,112,102668,1,0,0:0:0:0:
205,152,102839,1,0,0:0:0:0:
185,74,103011,1,8,0:0:0:0:
205,152,103096,1,0,0:0:0:0:
205,152,103268,1,0,0:0:0:0:
178,81,103354,1,8,0:0:0:0:
205,152,103525,1,8,0:0:0:0:
178,81,103696,1,8,0:0:0:0:
205,152,103782,1,8,0:0:0:0:
205,152,103954,1,8,0:0:0:0:
195,101,104039,1,0,0:0:0:0:
205,152,104211,1,0,0:0:0:0:
210,107,104382,1,8,0:0:0:0:
205,152,104468,1,0,0:0:0:0:
210,107,104639,1,0,0:0:0:0:
209,108,104725,1,0,0:0:0:0:
205,152,104896,1,8,0:0:0:0:
198,47,105239,1,8,0:0:0:0:
205,152,105325,1,8,0:0:0:0:
210,107,105411,1,8,0:0:0:0:
174,52,105496,1,8,0:0:0:0:
210,107,105582,1,0,0:0:0:0:
204,89,105754,1,8,0:0:0:0:
173,143,105839,1,0,0:0:0:0:
173,143,106011,1,0,0:0:0:0:
199,94,106096,1,0,0:0:0:0:
173,143,106268,1,8,0:0:0:0:
199,95,106439,1,8,0:0:0:0:
173,143,106525,1,8,0:0:0:0:
173,143,106696,1,8,0:0:0:0:
184,83,106782,1,0,0:0:0:0:
173,143,106954,1,0,0:0:0:0:
175,94,107125,1,8,0:0:0:0:
173,143,107211,1,0,0:0:0:0:
173,143,107382,1,0,0:0:0:0:
176,79,107468,1,0,0:0:0:0:
173,143,107639,1,8,0:0:0:0:
192,98,107811,1,8,0:0:0:0:
173,143,107896,1,8,0:0:0:0:
173,143,108068,1,8,0:0:0:0:
183,128,108154,1,0,0:0:0:0:
210,143,108325,1,0,0:0:0:0:
188,127,108496,1,8,0:0:0:0:
210,143,108582,1,0,0:0:0:0:
210,143,108754,1,0,0:0:0:0:
202,123,108839,1,8,0:0:0:0:
210,143,109011,1,8,0:0:0:0:
210,108,109182,1,8,0:0:0:0:
210,143,109268,1,8,0:0:0:0:
210,143,109439,1,8,0:0:0:0:
210,108,109525,1,0,0:0:0:0:
210,143,109696,1,0,0:0:0:0:
210,111,109868,1,8,0:0:0:0:
210,143,109954,1,0,0:0:0:0:
210,143,110125,1,0,0:0:0:0:
210,108,110211,1,0,0:0:0:0:
210,150,110382,1,8,0:0:0:0:
210,108,110554,1,0,0:0:0:0:
210,150,110639,1,8,0:0:0:0:
210,150,110811,1,8,0:0:0:0:
212,114,110896,1,8,0:0:0:0:
215,83,111068,1,0,0:0:0:0:
205,91,111296,1,0,0:0:0:0:
206,91,111582,1,0,0:0:0:0:
206,91,111696,1,0,0:0:0:0:
206,91,111811,1,0,0:0:0:0:
250,113,112096,1,0,0:0:0:0:
235,138,112439,1,0,0:0:0:0:
214,145,112696,1,0,0:0:0:0:
214,145,112868,1,0,0:0:0:0:
214,145,113039,1,0,0:0:0:0:
217,98,113211,1,0,0:0:0:0:
217,98,113382,1,0,0:0:0:0:
217,98,113554,1,0,0:0:0:0:
181,127,113811,1,8,0:0:0:0:
206,115,114068,1,0,0:0:0:0:
206,119,114239,1,0,0:0:0:0:
215,69,114496,1,8,0:0:0:0:
193,128,114611,1,8,0:0:0:0:
168,91,114725,1,8,0:0:0:0:
168,91,114839,1,8,0:0:0:0:
155,170,114954,1,8,0:0:0:0:
170,69,115182,1,0,0:0:0:0:
238,162,115439,1,0,0:0:0:0:
168,91,115611,1,0,0:0:0:0:
172,105,115868,1,8,0:0:0:0:
197,82,115982,1,8,0:0:0:0:
144,117,116096,1,8,0:0:0:0:
158,121,116211,1,8,0:0:0:0:
232,113,116325,1,8,0:0:0:0:
199,82,116439,1,8,0:0:0:0:
183,113,116554,1,0,0:0:0:0:
185,122,116811,1,0,0:0:0:0:
185,122,116982,1,0,0:0:0:0:
193,155,117239,1,8,0:0:0:0:
193,156,117354,1,8,0:0:0:0:
193,155,117468,1,8,0:0:0:0:
203,156,117582,1,8,0:0:0:0:
234,119,117696,1,8,0:0:0:0:
233,158,117925,1,0,0:0:0:0:
238,150,118182,1,0,0:0:0:0:
238,150,118354,1,0,0:0:0:0:
238,149,118611,1,8,0:0:0:0:
226,70,118725,1,8,0:0:0:0:
207,110,118839,1,8,0:0:0:0:
207,110,118954,1,8,0:0:0:0:
225,105,119068,1,8,0:0:0:0:
261,107,119182,1,8,0:0:0:0:
189,129,119296,1,0,0:0:0:0:
210,135,119554,1,0,0:0:0:0:
210,135,119725,1,0,0:0:0:0:
193,153,119982,1,8,0:0:0:0:
194,143,120096,1,8,0:0:0:0:
193,144,120211,1,8,0:0:0:0:
193,144,120325,1,8,0:0:0:0:
237,118,120439,1,8,0:0:0:0:
196,84,120668,1,0,0:0:0:0:
209,116,120925,5,0,0:0:0:0:
209,116,121096,1,0,0:0:0:0:
185,63,121354,5,8,0:0:0:0:
142,109,121696,1,8,0:0:0:0:
142,109,121782,1,8,0:0:0:0:
141,109,121868,1,8,0:0:0:0:
135,122,122039,1,0,0:0:0:0:
221,70,122125,1,8,0:0:0:0:
152,150,122211,1,8,0:0:0:0:
152,150,122296,1,0,0:0:0:0:
176,59,122468,1,0,0:0:0:0:
176,59,122554,1,0,0:0:0:0:
181,70,122725,1,8,0:0:0:0:
181,82,122811,1,0,0:0:0:0:
177,82,122896,1,0,0:0:0:0:
177,82,122982,1,8,0:0:0:0:
176,93,123154,1,8,0:0:0:0:
176,94,123239,1,8,0:0:0:0:
183,96,123411,1,0,0:0:0:0:
207,99,123496,1,8,0:0:0:0:
207,99,123582,1,8,0:0:0:0:
184,98,123668,1,0,0:0:0:0:
205,124,123839,1,0,0:0:0:0:
205,124,123925,1,0,0:0:0:0:
211,127,124096,1,8,0:0:0:0:
211,127,124182,1,0,0:0:0:0:
211,127,124268,1,0,0:0:0:0:
211,127,124354,1,8,0:0:0:0:
242,99,124525,1,8,0:0:0:0:
201,136,124611,1,8,0:0:0:0:
201,138,124782,1,0,0:0:0:0:
190,138,124868,1,8,0:0:0:0:
187,139,124954,1,8,0:0:0:0:
185,127,125039,1,0,0:0:0:0:
187,162,125211,1,0,0:0:0:0:
185,127,125296,1,0,0:0:0:0:
185,127,125468,1,8,0:0:0:0:
187,162,125554,1,0,0:0:0:0:
186,164,125639,1,0,0:0:0:0:
185,127,125725,1,8,0:0:0:0:
184,168,125896,1,8,0:0:0:0:
185,127,125982,1,8,0:0:0:0:
184,168,126154,1,0,0:0:0:0:
187,162,126325,1,8,0:0:0:0:
176,166,126411,1,8,0:0:0:0:
186,76,126496,1,8,0:0:0:0:
175,62,126582,1,8,0:0:0:0:
186,76,126668,1,0,0:0:0:0:
186,76,126839,1,8,0:0:0:0:
216,82,127182,1,8,0:0:0:0:
181,53,127268,1,8,0:0:0:0:
209,79,127354,1,8,0:0:0:0:
209,84,127525,1,0,0:0:0:0:
204,124,127611,1,8,0:0:0:0:
204,124,127696,1,8,0:0:0:0:
182,93,127782,1,0,0:0:0:0:
181,93,127954,1,0,0:0:0:0:
169,128,128039,1,0,0:0:0:0:
168,128,128211,1,8,0:0:0:0:
169,128,128296,1,0,0:0:0:0:
169,128,128382,1,0,0:0:0:0:
168,128,128468,1,8,0:0:0:0:
169,128,128639,1,8,0:0:0:0:
161,125,128725,1,8,0:0:0:0:
169,128,128896,1,0,0:0:0:0:
162,120,128982,1,8,0:0:0:0:
168,128,129068,1,8,0:0:0:0:
181,83,129154,1,0,0:0:0:0:
190,62,129325,1,0,0:0:0:0:
189,62,129411,1,0,0:0:0:0:
187,82,129582,1,8,0:0:0:0:
175,47,129668,1,0,0:0:0:0:
166,41,129754,1,0,0:0:0:0:
187,82,129839,1,8,0:0:0:0:
262,91,130011,1,8,0:0:0:0:
200,93,130096,1,8,0:0:0:0:
191,116,130268,1,0,0:0:0:0:
182,119,130354,1,8,0:0:0:0:
181,113,130439,1,8,0:0:0:0:
181,113,130525,1,0,0:0:0:0:
198,92,130696,1,0,0:0:0:0:
198,92,130782,1,0,0:0:0:0:
200,93,130954,1,8,0:0:0:0:
180,116,131039,1,0,0:0:0:0:
180,116,131125,1,0,0:0:0:0:
173,100,131211,1,8,0:0:0:0:
179,116,131382,1,8,0:0:0:0:
197,77,131468,1,8,0:0:0:0:
198,92,131639,1,0,0:0:0:0:
198,92,131811,1,8,0:0:0:0:
200,93,131896,1,8,0:0:0:0:
200,93,131982,1,8,0:0:0:0:
200,89,132068,1,8,0:0:0:0:
197,88,132154,1,0,0:0:0:0:
230,70,132325,1,8,0:0:0:0:
192,45,132668,1,8,0:0:0:0:
182,71,132754,1,8,0:0:0:0:
174,64,132839,1,8,0:0:0:0:
182,72,132925,1,8,0:0:0:0:
