osu file format v14

[General]
AudioFilename: audio.mp3
AudioLeadIn: 0
PreviewTime: 1182
Countdown: 0
SampleSet: Normal
StackLeniency: 0.7
Mode: 1
LetterboxInBreaks: 0
WidescreenStoryboard: 1

[Editor]
Bookmarks: 1354,23296,45239,67182,89125,111068,133011
DistanceSpacing: 0.8
BeatDivisor: 8
GridSize: 16
TimelineZoom: 2.899999

[Metadata]
Title:20210517demo
TitleUnicode:20210517demo
Artist:Kabanagu
ArtistUnicode:Kabanagu
Creator:Ulqui
Version:Muzukashii
Source:
Tags:japanese electronic dance music edm
BeatmapID:3159271
BeatmapSetID:1544926

[Difficulty]
HPDrainRate:6
CircleSize:2
OverallDifficulty:4.5
ApproachRate:10
SliderMultiplier:1.4
SliderTickRate:1

[Events]
//Background and Video events
0,0,"qwgqfqw.png",0,45
//Break Periods
2,67382,77468
//Storyboard Layer 0 (Background)
//Storyboard Layer 1 (Fail)
//Storyboard Layer 2 (Pass)
//Storyboard Layer 3 (Foreground)
//Storyboard Layer 4 (Overlay)
//Storyboard Sound Samples

[TimingPoints]
1354,342.857142857143,4,1,0,100,1,0
1354,-166.666666666667,4,1,0,100,0,0
23254,-153.846153846153,4,1,0,100,0,0
23768,-158.730158730159,4,1,0,100,0,0
24282,-163.934426229508,4,1,0,100,0,0
24625,-153.846153846153,4,1,0,100,0,0
25996,-153.846153846153,4,1,0,100,0,0
26510,-158.730158730159,4,1,0,100,0,0
27024,-163.934426229508,4,1,0,100,0,0
27367,-153.846153846153,4,1,0,100,0,0
28739,-153.846153846153,4,1,0,100,0,0
29253,-158.730158730159,4,1,0,100,0,0
29767,-163.934426229508,4,1,0,100,0,0
30110,-153.846153846153,4,1,0,100,0,0
31482,-153.846153846153,4,1,0,100,0,0
31996,-158.730158730159,4,1,0,100,0,0
32510,-163.934426229508,4,1,0,100,0,0
32853,-153.846153846153,4,1,0,100,0,0
34225,-153.846153846153,4,1,0,100,0,0
34739,-158.730158730159,4,1,0,100,0,0
35253,-163.934426229508,4,1,0,100,0,0
35596,-153.846153846153,4,1,0,100,0,0
36968,-153.846153846153,4,1,0,100,0,0
37482,-158.730158730159,4,1,0,100,0,0
37996,-163.934426229508,4,1,0,100,0,0
38339,-153.846153846153,4,1,0,100,0,0
39711,-153.846153846153,4,1,0,100,0,0
40225,-158.730158730159,4,1,0,100,0,0
40739,-163.934426229508,4,1,0,100,0,0
41082,-153.846153846153,4,1,0,100,0,0
42454,-153.846153846153,4,1,0,100,0,0
42968,-158.730158730159,4,1,0,100,0,0
43482,-163.934426229508,4,1,0,100,0,0
43825,-153.846153846153,4,1,0,100,0,0
45239,-76.9230769230769,4,1,0,100,0,1
45282,-86.9565217391304,4,1,0,100,0,1
56211,-76.9230769230769,4,1,0,100,0,1
56254,-86.9565217391304,4,1,0,100,0,1
67182,-76.9230769230769,4,1,0,100,0,0
67268,-200,4,1,0,30,0,0
77468,-200,4,1,0,30,0,0
78111,-200,4,1,0,100,0,0
78796,-133.333333333333,4,1,0,100,0,0
78882,-200,4,1,0,100,0,0
80168,-133.333333333333,4,1,0,100,0,0
80254,-200,4,1,0,100,0,0
81539,-133.333333333333,4,1,0,100,0,0
81625,-200,4,1,0,100,0,0
82911,-133.333333333333,4,1,0,100,0,0
82997,-200,4,1,0,100,0,0
84282,-133.333333333333,4,1,0,100,0,0
84368,-200,4,1,0,100,0,0
85654,-133.333333333333,4,1,0,100,0,0
85740,-200,4,1,0,100,0,0
87025,-133.333333333333,4,1,0,100,0,0
87111,-200,4,1,0,100,0,0
88396,-133.333333333333,4,1,0,100,0,0
88482,-200,4,1,0,100,0,0
89039,-166.666666666667,4,1,0,100,0,0
89125,-166.666666666667,4,1,0,100,0,1
89189,-165.289256198347,4,1,0,100,0,1
89275,-163.934426229508,4,1,0,100,0,1
89361,-162.601626016259,4,1,0,100,0,1
89446,-161.290322580645,4,1,0,100,0,1
89532,-160,4,1,0,100,0,1
89618,-158.730158730158,4,1,0,100,0,1
89704,-157.48031496063,4,1,0,100,0,1
89789,-156.25,4,1,0,100,0,1
89875,-157.48031496063,4,1,0,100,0,1
89961,-158.730158730158,4,1,0,100,0,1
90046,-160,4,1,0,100,0,1
90132,-161.290322580645,4,1,0,100,0,1
90218,-162.601626016259,4,1,0,100,0,1
90304,-163.934426229508,4,1,0,100,0,1
90389,-165.289256198347,4,1,0,100,0,1
90475,-166.666666666667,4,1,0,100,0,1
90561,-165.289256198347,4,1,0,100,0,1
90647,-163.934426229508,4,1,0,100,0,1
90733,-162.601626016259,4,1,0,100,0,1
90818,-161.290322580645,4,1,0,100,0,1
90904,-160,4,1,0,100,0,1
90990,-158.730158730158,4,1,0,100,0,1
91076,-157.48031496063,4,1,0,100,0,1
91161,-156.25,4,1,0,100,0,1
91247,-157.48031496063,4,1,0,100,0,1
91333,-158.730158730158,4,1,0,100,0,1
91418,-160,4,1,0,100,0,1
91504,-161.290322580645,4,1,0,100,0,1
91590,-162.601626016259,4,1,0,100,0,1
91676,-163.934426229508,4,1,0,100,0,1
91761,-165.289256198347,4,1,0,100,0,1
91847,-166.666666666667,4,1,0,100,0,1
91932,-165.289256198347,4,1,0,100,0,1
92018,-163.934426229508,4,1,0,100,0,1
92104,-162.601626016259,4,1,0,100,0,1
92189,-161.290322580645,4,1,0,100,0,1
92275,-160,4,1,0,100,0,1
92361,-158.730158730158,4,1,0,100,0,1
92447,-157.48031496063,4,1,0,100,0,1
92532,-156.25,4,1,0,100,0,1
92618,-157.48031496063,4,1,0,100,0,1
92704,-158.730158730158,4,1,0,100,0,1
92789,-160,4,1,0,100,0,1
92875,-161.290322580645,4,1,0,100,0,1
92961,-162.601626016259,4,1,0,100,0,1
93047,-163.934426229508,4,1,0,100,0,1
93132,-165.289256198347,4,1,0,100,0,1
93218,-166.666666666667,4,1,0,100,0,1
93304,-163.934426229508,4,1,0,100,0,1
93390,-161.290322580645,4,1,0,100,0,1
93476,-158.730158730159,4,1,0,100,0,1
93561,-156.25,4,1,0,100,0,1
93647,-153.846153846154,4,1,0,100,0,1
93733,-151.515151515152,4,1,0,100,0,1
93819,-149.253731343284,4,1,0,100,0,1
93904,-147.058823529412,4,1,0,100,0,1
93990,-149.253731343284,4,1,0,100,0,1
94076,-151.515151515152,4,1,0,100,0,1
94161,-153.846153846154,4,1,0,100,0,1
94247,-156.25,4,1,0,100,0,1
94333,-158.730158730159,4,1,0,100,0,1
94419,-161.290322580645,4,1,0,100,0,1
94504,-163.934426229508,4,1,0,100,0,1
94590,-166.666666666667,4,1,0,100,0,1
94675,-165.289256198347,4,1,0,100,0,1
94761,-163.934426229508,4,1,0,100,0,1
94847,-162.601626016259,4,1,0,100,0,1
94932,-161.290322580645,4,1,0,100,0,1
95018,-160,4,1,0,100,0,1
95104,-158.730158730158,4,1,0,100,0,1
95190,-157.48031496063,4,1,0,100,0,1
95275,-156.25,4,1,0,100,0,1
95361,-157.48031496063,4,1,0,100,0,1
95447,-158.730158730158,4,1,0,100,0,1
95532,-160,4,1,0,100,0,1
95618,-161.290322580645,4,1,0,100,0,1
95704,-162.601626016259,4,1,0,100,0,1
95790,-163.934426229508,4,1,0,100,0,1
95875,-165.289256198347,4,1,0,100,0,1
95961,-166.666666666667,4,1,0,100,0,1
96047,-165.289256198347,4,1,0,100,0,1
96133,-163.934426229508,4,1,0,100,0,1
96219,-162.601626016259,4,1,0,100,0,1
96304,-161.290322580645,4,1,0,100,0,1
96390,-160,4,1,0,100,0,1
96476,-158.730158730158,4,1,0,100,0,1
96562,-157.48031496063,4,1,0,100,0,1
96647,-156.25,4,1,0,100,0,1
96733,-157.48031496063,4,1,0,100,0,1
96819,-158.730158730158,4,1,0,100,0,1
96904,-160,4,1,0,100,0,1
96990,-161.290322580645,4,1,0,100,0,1
97076,-162.601626016259,4,1,0,100,0,1
97162,-163.934426229508,4,1,0,100,0,1
97247,-165.289256198347,4,1,0,100,0,1
97333,-166.666666666667,4,1,0,100,0,1
97418,-165.289256198347,4,1,0,100,0,1
97504,-163.934426229508,4,1,0,100,0,1
97590,-162.601626016259,4,1,0,100,0,1
97675,-161.290322580645,4,1,0,100,0,1
97761,-160,4,1,0,100,0,1
97847,-158.730158730158,4,1,0,100,0,1
97933,-157.48031496063,4,1,0,100,0,1
98018,-156.25,4,1,0,100,0,1
98104,-157.48031496063,4,1,0,100,0,1
98190,-158.730158730158,4,1,0,100,0,1
98275,-160,4,1,0,100,0,1
98361,-161.290322580645,4,1,0,100,0,1
98447,-162.601626016259,4,1,0,100,0,1
98533,-163.934426229508,4,1,0,100,0,1
98618,-165.289256198347,4,1,0,100,0,1
98704,-166.666666666667,4,1,0,100,0,1
98789,-163.934426229508,4,1,0,100,0,1
98875,-161.290322580645,4,1,0,100,0,1
98961,-158.730158730159,4,1,0,100,0,1
99046,-156.25,4,1,0,100,0,1
99132,-153.846153846154,4,1,0,100,0,1
99218,-151.515151515152,4,1,0,100,0,1
99304,-149.253731343284,4,1,0,100,0,1
99389,-147.058823529412,4,1,0,100,0,1
99475,-149.253731343284,4,1,0,100,0,1
99561,-151.515151515152,4,1,0,100,0,1
99646,-153.846153846154,4,1,0,100,0,1
99732,-156.25,4,1,0,100,0,1
99818,-158.730158730159,4,1,0,100,0,1
99904,-161.290322580645,4,1,0,100,0,1
99989,-163.934426229508,4,1,0,100,0,1
100076,-166.666666666667,4,1,0,100,0,1
100161,-165.289256198347,4,1,0,100,0,1
100247,-163.934426229508,4,1,0,100,0,1
100333,-162.601626016259,4,1,0,100,0,1
100418,-161.290322580645,4,1,0,100,0,1
100504,-160,4,1,0,100,0,1
100590,-158.730158730158,4,1,0,100,0,1
100676,-157.48031496063,4,1,0,100,0,1
100761,-156.25,4,1,0,100,0,1
100847,-157.48031496063,4,1,0,100,0,1
100933,-158.730158730158,4,1,0,100,0,1
101018,-160,4,1,0,100,0,1
101104,-161.290322580645,4,1,0,100,0,1
101190,-162.601626016259,4,1,0,100,0,1
101276,-163.934426229508,4,1,0,100,0,1
101361,-165.289256198347,4,1,0,100,0,1
101447,-166.666666666667,4,1,0,100,0,1
101533,-165.289256198347,4,1,0,100,0,1
101619,-163.934426229508,4,1,0,100,0,1
101705,-162.601626016259,4,1,0,100,0,1
101790,-161.290322580645,4,1,0,100,0,1
101876,-160,4,1,0,100,0,1
101962,-158.730158730158,4,1,0,100,0,1
102048,-157.48031496063,4,1,0,100,0,1
102133,-156.25,4,1,0,100,0,1
102219,-157.48031496063,4,1,0,100,0,1
102305,-158.730158730158,4,1,0,100,0,1
102390,-160,4,1,0,100,0,1
102476,-161.290322580645,4,1,0,100,0,1
102562,-162.601626016259,4,1,0,100,0,1
102648,-163.934426229508,4,1,0,100,0,1
102733,-165.289256198347,4,1,0,100,0,1
102819,-166.666666666667,4,1,0,100,0,1
102904,-165.289256198347,4,1,0,100,0,1
102990,-163.934426229508,4,1,0,100,0,1
103076,-162.601626016259,4,1,0,100,0,1
103161,-161.290322580645,4,1,0,100,0,1
103247,-160,4,1,0,100,0,1
103333,-158.730158730158,4,1,0,100,0,1
103419,-157.48031496063,4,1,0,100,0,1
103504,-156.25,4,1,0,100,0,1
103590,-157.48031496063,4,1,0,100,0,1
103676,-158.730158730158,4,1,0,100,0,1
103761,-160,4,1,0,100,0,1
103847,-161.290322580645,4,1,0,100,0,1
103933,-162.601626016259,4,1,0,100,0,1
104019,-163.934426229508,4,1,0,100,0,1
104104,-165.289256198347,4,1,0,100,0,1
104190,-166.666666666667,4,1,0,100,0,1
104275,-163.934426229508,4,1,0,100,0,1
104361,-161.290322580645,4,1,0,100,0,1
104447,-158.730158730159,4,1,0,100,0,1
104532,-156.25,4,1,0,100,0,1
104618,-153.846153846154,4,1,0,100,0,1
104704,-151.515151515152,4,1,0,100,0,1
104790,-149.253731343284,4,1,0,100,0,1
104875,-147.058823529412,4,1,0,100,0,1
104961,-149.253731343284,4,1,0,100,0,1
105047,-151.515151515152,4,1,0,100,0,1
105132,-153.846153846154,4,1,0,100,0,1
105218,-156.25,4,1,0,100,0,1
105304,-158.730158730159,4,1,0,100,0,1
105390,-161.290322580645,4,1,0,100,0,1
105475,-163.934426229508,4,1,0,100,0,1
105562,-166.666666666667,4,1,0,100,0,1
105646,-165.289256198347,4,1,0,100,0,1
105732,-163.934426229508,4,1,0,100,0,1
105818,-162.601626016259,4,1,0,100,0,1
105903,-161.290322580645,4,1,0,100,0,1
105989,-160,4,1,0,100,0,1
106075,-158.730158730158,4,1,0,100,0,1
106161,-157.48031496063,4,1,0,100,0,1
106246,-156.25,4,1,0,100,0,1
106332,-157.48031496063,4,1,0,100,0,1
106418,-158.730158730158,4,1,0,100,0,1
106503,-160,4,1,0,100,0,1
106589,-161.290322580645,4,1,0,100,0,1
106675,-162.601626016259,4,1,0,100,0,1
106761,-163.934426229508,4,1,0,100,0,1
106846,-165.289256198347,4,1,0,100,0,1
106932,-166.666666666667,4,1,0,100,0,1
107018,-165.289256198347,4,1,0,100,0,1
107104,-163.934426229508,4,1,0,100,0,1
107190,-162.601626016259,4,1,0,100,0,1
107275,-161.290322580645,4,1,0,100,0,1
107361,-160,4,1,0,100,0,1
107447,-158.730158730158,4,1,0,100,0,1
107533,-157.48031496063,4,1,0,100,0,1
107618,-156.25,4,1,0,100,0,1
107704,-157.48031496063,4,1,0,100,0,1
107790,-158.730158730158,4,1,0,100,0,1
107875,-160,4,1,0,100,0,1
107961,-161.290322580645,4,1,0,100,0,1
108047,-162.601626016259,4,1,0,100,0,1
108133,-163.934426229508,4,1,0,100,0,1
108218,-165.289256198347,4,1,0,100,0,1
108304,-166.666666666667,4,1,0,100,0,1
108389,-165.289256198347,4,1,0,100,0,1
108475,-163.934426229508,4,1,0,100,0,1
108561,-162.601626016259,4,1,0,100,0,1
108646,-161.290322580645,4,1,0,100,0,1
108732,-160,4,1,0,100,0,1
108818,-158.730158730158,4,1,0,100,0,1
108904,-157.48031496063,4,1,0,100,0,1
108989,-156.25,4,1,0,100,0,1
109075,-157.48031496063,4,1,0,100,0,1
109161,-158.730158730158,4,1,0,100,0,1
109246,-160,4,1,0,100,0,1
109332,-161.290322580645,4,1,0,100,0,1
109418,-162.601626016259,4,1,0,100,0,1
109504,-163.934426229508,4,1,0,100,0,1
109589,-165.289256198347,4,1,0,100,0,1
109675,-166.666666666667,4,1,0,100,0,1
109761,-163.934426229508,4,1,0,100,0,1
109847,-161.290322580645,4,1,0,100,0,1
109933,-158.730158730159,4,1,0,100,0,1
110018,-156.25,4,1,0,100,0,1
110104,-153.846153846154,4,1,0,100,0,1
110190,-151.515151515152,4,1,0,100,0,1
110276,-149.253731343284,4,1,0,100,0,1
110361,-147.058823529412,4,1,0,100,0,1
110447,-149.253731343284,4,1,0,100,0,1
110533,-151.515151515152,4,1,0,100,0,1
110618,-153.846153846154,4,1,0,100,0,1
110704,-156.25,4,1,0,100,0,1
110790,-158.730158730159,4,1,0,100,0,1
110876,-161.290322580645,4,1,0,100,0,1
110961,-163.934426229508,4,1,0,100,0,1
111068,-166.666666666667,4,1,0,100,0,0
111154,-166.666666666667,4,1,0,100,0,0
113768,-100,4,1,0,100,0,0
121311,-95.2380952380952,4,1,0,100,0,0
121654,-90.9090909090909,4,1,0,100,0,0
122039,-80,4,1,0,100,0,1
122104,-79.7507788161994,4,1,0,100,0,1
122189,-79.5031055900621,4,1,0,100,0,1
122275,-79.2569659442725,4,1,0,100,0,1
122361,-79.0123456790123,4,1,0,100,0,1
122446,-78.7692307692308,4,1,0,100,0,1
122532,-78.5276073619632,4,1,0,100,0,1
122618,-78.2874617737003,4,1,0,100,0,1
122704,-78.0487804878049,4,1,0,100,0,1
122789,-77.8115501519757,4,1,0,100,0,1
122875,-77.5757575757576,4,1,0,100,0,1
122961,-77.3413897280967,4,1,0,100,0,1
123046,-77.1084337349398,4,1,0,100,0,1
123132,-76.8768768768769,4,1,0,100,0,1
123217,-76.6467065868263,4,1,0,100,0,1
123303,-76.4179104477612,4,1,0,100,0,1
123389,-76.1904761904762,4,1,0,100,0,1
123474,-75.9643916913947,4,1,0,100,0,1
123560,-75.7396449704142,4,1,0,100,0,1
123646,-75.5162241887906,4,1,0,100,0,1
123732,-75.2941176470588,4,1,0,100,0,1
123817,-75.0733137829912,4,1,0,100,0,1
123903,-74.8538011695906,4,1,0,100,0,1
123989,-74.6355685131195,4,1,0,100,0,1
124075,-74.4186046511628,4,1,0,100,0,1
124160,-74.2028985507246,4,1,0,100,0,1
124246,-73.9884393063584,4,1,0,100,0,1
124332,-73.7752161383285,4,1,0,100,0,1
124417,-73.5632183908046,4,1,0,100,0,1
124503,-73.352435530086,4,1,0,100,0,1
124589,-73.1428571428571,4,1,0,100,0,1
124675,-72.9344729344729,4,1,0,100,0,1
124760,-72.7272727272727,4,1,0,100,0,1
124846,-72.5212464589235,4,1,0,100,0,1
124932,-72.316384180791,4,1,0,100,0,1
125018,-72.112676056338,4,1,0,100,0,1
125103,-71.9101123595506,4,1,0,100,0,1
125189,-71.7086834733894,4,1,0,100,0,1
125275,-71.5083798882682,4,1,0,100,0,1
125360,-71.3091922005571,4,1,0,100,0,1
125446,-71.1111111111111,4,1,0,100,0,1
125532,-70.9141274238227,4,1,0,100,0,1
125618,-70.7182320441989,4,1,0,100,0,1
125703,-70.5234159779614,4,1,0,100,0,1
125789,-70.3296703296703,4,1,0,100,0,1
125875,-70.1369863013699,4,1,0,100,0,1
125961,-69.9453551912568,4,1,0,100,0,1
126046,-69.7547683923706,4,1,0,100,0,1
126131,-69.5652173913043,4,1,0,100,0,1
126217,-69.3766937669377,4,1,0,100,0,1
126303,-69.1891891891892,4,1,0,100,0,1
126388,-69.0026954177898,4,1,0,100,0,1
126474,-68.8172043010753,4,1,0,100,0,1
126560,-68.6327077747989,4,1,0,100,0,1
126646,-68.4491978609626,4,1,0,100,0,1
126731,-68.2666666666667,4,1,0,100,0,1
126817,-68.0851063829787,4,1,0,100,0,1
126903,-67.9045092838196,4,1,0,100,0,1
126989,-67.7248677248677,4,1,0,100,0,1
127074,-67.5461741424802,4,1,0,100,0,1
127160,-67.3684210526316,4,1,0,100,0,1
127246,-67.1916010498688,4,1,0,100,0,1
127331,-67.0157068062827,4,1,0,100,0,1
127417,-66.8407310704961,4,1,0,100,0,1
127503,-66.6666666666667,4,1,0,100,0,1
127589,-66.4935064935065,4,1,0,100,0,1
127674,-66.3212435233161,4,1,0,100,0,1
127760,-66.1498708010336,4,1,0,100,0,1
127846,-65.979381443299,4,1,0,100,0,1
127932,-65.8097686375321,4,1,0,100,0,1
128017,-65.6410256410256,4,1,0,100,0,1
128103,-65.4731457800512,4,1,0,100,0,1
128189,-65.3061224489796,4,1,0,100,0,1
128274,-65.1399491094148,4,1,0,100,0,1
128360,-64.9746192893401,4,1,0,100,0,1
128446,-64.8101265822785,4,1,0,100,0,1
128532,-64.6464646464647,4,1,0,100,0,1
128617,-64.4836272040302,4,1,0,100,0,1
128703,-64.321608040201,4,1,0,100,0,1
128789,-64.1604010025063,4,1,0,100,0,1
128875,-64,4,1,0,100,0,1
128960,-63.8403990024938,4,1,0,100,0,1
129046,-63.681592039801,4,1,0,100,0,1
129132,-63.5235732009926,4,1,0,100,0,1
129217,-63.3663366336634,4,1,0,100,0,1
129303,-63.2098765432099,4,1,0,100,0,1
129389,-63.0541871921182,4,1,0,100,0,1
129475,-62.8992628992629,4,1,0,100,0,1
129560,-62.7450980392157,4,1,0,100,0,1
129646,-62.5916870415648,4,1,0,100,0,1
129732,-62.4390243902439,4,1,0,100,0,1
129818,-62.287104622871,4,1,0,100,0,1
129903,-62.1359223300971,4,1,0,100,0,1
129989,-61.9854721549637,4,1,0,100,0,1
130075,-61.8357487922705,4,1,0,100,0,1
130160,-61.6867469879518,4,1,0,100,0,1
130246,-61.5384615384615,4,1,0,100,0,1
130332,-61.3908872901679,4,1,0,100,0,1
130418,-61.244019138756,4,1,0,100,0,1
130503,-61.0978520286396,4,1,0,100,0,1
130589,-60.9523809523809,4,1,0,100,0,1
130675,-60.8076009501188,4,1,0,100,0,1
130761,-60.6635071090047,4,1,0,100,0,1
130846,-60.5200945626478,4,1,0,100,0,1
130932,-60.377358490566,4,1,0,100,0,1
131018,-60.2352941176471,4,1,0,100,0,1
131103,-60.093896713615,4,1,0,100,0,1
131189,-59.9531615925059,4,1,0,100,0,1
131275,-59.8130841121495,4,1,0,100,0,1
131361,-59.6736596736597,4,1,0,100,0,1
131446,-59.5348837209302,4,1,0,100,0,1
131532,-59.3967517401392,4,1,0,100,0,1
131618,-59.2592592592593,4,1,0,100,0,1
131704,-59.1224018475751,4,1,0,100,0,1
131789,-58.9861751152074,4,1,0,100,0,1
131875,-58.8505747126437,4,1,0,100,0,1
131961,-58.7155963302752,4,1,0,100,0,1
132046,-58.5812356979405,4,1,0,100,0,1
132132,-58.4474885844749,4,1,0,100,0,1
132218,-58.3143507972665,4,1,0,100,0,1
132304,-58.1818181818182,4,1,0,100,0,1
132389,-58.0498866213152,4,1,0,100,0,1
132475,-57.9185520361991,4,1,0,100,0,1
132561,-57.7878103837472,4,1,0,100,0,1
132646,-57.6576576576577,4,1,0,100,0,1
132732,-57.5280898876404,4,1,0,100,0,1
132818,-57.3991031390135,4,1,0,100,0,1
132904,-57.2706935123042,4,1,0,100,0,1
132968,-57.1428571428571,4,1,0,100,0,0

[HitObjects]
176,172,23296,5,0,0:0:0:0:
176,172,23811,1,8,0:0:0:0:
176,172,24325,1,0,0:0:0:0:
168,145,26039,1,0,0:0:0:0:
168,145,26554,1,8,0:0:0:0:
168,145,27068,1,0,0:0:0:0:
200,152,28782,1,0,0:0:0:0:
200,152,29296,1,8,0:0:0:0:
235,101,29811,1,0,0:0:0:0:
234,93,31525,1,0,0:0:0:0:
234,93,32039,1,8,0:0:0:0:
186,70,32554,1,0,0:0:0:0:
224,145,34268,1,0,0:0:0:0:
224,145,34782,1,8,0:0:0:0:
224,145,35296,1,0,0:0:0:0:
225,148,37011,1,0,0:0:0:0:
225,148,37525,1,8,0:0:0:0:
225,148,38039,1,0,0:0:0:0:
219,156,39754,1,0,0:0:0:0:
219,156,40268,1,8,0:0:0:0:
219,156,40782,1,0,0:0:0:0:
227,153,42496,1,0,0:0:0:0:
227,153,43011,1,8,0:0:0:0:
227,153,43525,1,0,0:0:0:0:
225,163,44554,1,8,0:0:0:0:
238,151,45239,1,4,0:0:0:0:
244,122,45582,1,8,0:0:0:0:
240,128,45754,1,0,0:0:0:0:
238,129,45839,1,0,0:0:0:0:
239,128,45925,1,0,0:0:0:0:
239,133,46096,1,0,0:0:0:0:
239,133,46268,1,8,0:0:0:0:
239,135,46611,1,0,0:0:0:0:
262,133,46954,1,8,0:0:0:0:
234,157,47125,1,8,0:0:0:0:
236,157,47211,1,8,0:0:0:0:
234,157,47296,1,8,0:0:0:0:
269,184,47468,1,0,0:0:0:0:
269,184,47639,1,8,0:0:0:0:
265,191,47982,1,0,0:0:0:0:
158,163,48325,1,8,0:0:0:0:
213,68,48496,1,0,0:0:0:0:
204,176,48668,1,0,0:0:0:0:
213,68,48839,1,0,0:0:0:0:
176,179,49011,1,8,0:0:0:0:
181,182,49354,1,0,0:0:0:0:
181,182,49525,1,8,0:0:0:0:
181,182,49696,1,8,0:0:0:0:
176,179,49868,1,8,0:0:0:0:
176,179,50039,1,0,0:0:0:0:
181,182,50382,1,8,0:0:0:0:
181,182,50554,1,8,0:0:0:0:
181,182,50725,1,0,0:0:0:0:
225,128,51068,1,8,0:0:0:0:
210,128,51239,1,0,0:0:0:0:
209,128,51325,1,0,0:0:0:0:
218,130,51411,1,0,0:0:0:0:
211,128,51582,1,0,0:0:0:0:
207,130,51754,1,8,0:0:0:0:
210,118,52096,1,0,0:0:0:0:
210,120,52439,1,8,0:0:0:0:
210,120,52611,1,8,0:0:0:0:
207,130,52696,1,8,0:0:0:0:
209,122,52782,1,8,0:0:0:0:
210,118,52954,1,0,0:0:0:0:
210,118,53125,1,8,0:0:0:0:
215,127,53468,1,0,0:0:0:0:
215,128,53811,1,8,0:0:0:0:
250,80,53982,1,0,0:0:0:0:
215,128,54154,1,0,0:0:0:0:
250,80,54325,1,0,0:0:0:0:
217,134,54496,1,8,0:0:0:0:
217,134,54839,1,0,0:0:0:0:
217,133,55011,1,8,0:0:0:0:
217,134,55182,1,8,0:0:0:0:
217,134,55354,1,8,0:0:0:0:
217,134,55525,1,0,0:0:0:0:
217,134,55868,1,8,0:0:0:0:
217,134,56211,1,4,0:0:0:0:
187,163,56554,1,8,0:0:0:0:
187,163,56725,1,0,0:0:0:0:
215,144,56811,1,0,0:0:0:0:
187,163,56896,1,0,0:0:0:0:
187,163,57068,1,0,0:0:0:0:
187,163,57239,1,8,0:0:0:0:
200,166,57411,1,8,0:0:0:0:
181,151,57582,1,0,0:0:0:0:
218,157,57925,1,8,0:0:0:0:
217,157,58096,1,8,0:0:0:0:
235,120,58182,1,8,0:0:0:0:
217,157,58268,1,8,0:0:0:0:
209,129,58439,1,0,0:0:0:0:
209,129,58611,1,8,0:0:0:0:
196,113,58782,1,8,0:0:0:0:
196,113,58954,1,0,0:0:0:0:
183,99,59296,1,8,0:0:0:0:
248,162,59468,1,0,0:0:0:0:
183,99,59639,1,0,0:0:0:0:
248,162,59811,1,0,0:0:0:0:
221,114,59982,1,8,0:0:0:0:
223,133,60325,1,0,0:0:0:0:
223,135,60496,1,8,0:0:0:0:
223,136,60668,1,8,0:0:0:0:
223,136,60839,1,8,0:0:0:0:
223,136,61011,1,0,0:0:0:0:
223,133,61354,1,8,0:0:0:0:
223,135,61525,1,8,0:0:0:0:
223,136,61696,1,0,0:0:0:0:
235,138,62039,1,8,0:0:0:0:
236,135,62211,1,0,0:0:0:0:
236,135,62382,1,0,0:0:0:0:
236,135,62468,1,0,0:0:0:0:
236,135,62554,1,0,0:0:0:0:
236,135,62725,1,8,0:0:0:0:
184,127,62896,1,8,0:0:0:0:
220,128,63068,1,0,0:0:0:0:
220,128,63411,1,8,0:0:0:0:
220,128,63582,1,0,0:0:0:0:
193,77,63668,1,0,0:0:0:0:
220,128,63754,1,0,0:0:0:0:
220,128,63925,1,0,0:0:0:0:
220,128,64096,1,8,0:0:0:0:
242,142,64268,1,8,0:0:0:0:
244,121,64439,1,0,0:0:0:0:
220,128,64782,1,8,0:0:0:0:
237,173,64954,1,0,0:0:0:0:
237,173,65125,1,0,0:0:0:0:
237,173,65296,1,0,0:0:0:0:
237,173,65468,1,8,0:0:0:0:
237,173,65811,1,0,0:0:0:0:
237,173,65982,1,8,0:0:0:0:
228,179,66154,1,8,0:0:0:0:
228,179,66325,1,8,0:0:0:0:
228,179,66496,1,0,0:0:0:0:
228,179,66839,1,8,0:0:0:0:
228,179,67011,1,8,0:0:0:0:
228,179,67182,1,4,0:0:0:0:
193,152,78154,5,0,0:0:0:0:
193,152,78839,1,8,0:0:0:0:
187,146,80211,1,8,0:0:0:0:
187,146,81582,1,8,0:0:0:0:
191,122,82954,1,8,0:0:0:0:
191,122,84325,1,8,0:0:0:0:
191,122,85696,1,8,0:0:0:0:
191,122,87068,1,8,0:0:0:0:
191,122,88439,1,8,0:0:0:0:
234,135,89125,1,0,0:0:0:0:
234,135,89382,1,0,0:0:0:0:
234,135,89554,1,0,0:0:0:0:
234,135,89811,1,8,0:0:0:0:
234,135,90068,1,8,0:0:0:0:
234,135,90239,1,8,0:0:0:0:
178,158,90496,1,0,0:0:0:0:
178,158,90754,1,0,0:0:0:0:
178,158,90925,1,0,0:0:0:0:
178,158,91182,1,8,0:0:0:0:
178,158,91439,1,8,0:0:0:0:
178,158,91611,1,8,0:0:0:0:
192,162,91868,1,0,0:0:0:0:
193,162,92125,1,0,0:0:0:0:
191,170,92296,1,0,0:0:0:0:
190,171,92554,1,8,0:0:0:0:
190,171,92811,1,8,0:0:0:0:
190,171,92982,1,8,0:0:0:0:
204,170,93239,1,0,0:0:0:0:
201,172,93496,1,0,0:0:0:0:
197,170,93668,1,0,0:0:0:0:
190,171,93925,1,8,0:0:0:0:
197,170,94611,1,0,0:0:0:0:
198,175,94868,1,0,0:0:0:0:
197,170,95039,1,0,0:0:0:0:
202,177,95296,1,8,0:0:0:0:
201,181,95554,1,8,0:0:0:0:
200,183,95725,1,8,0:0:0:0:
202,182,95982,1,0,0:0:0:0:
203,190,96239,1,0,0:0:0:0:
203,190,96411,1,0,0:0:0:0:
215,190,96668,1,8,0:0:0:0:
216,190,96925,1,8,0:0:0:0:
216,190,97096,1,8,0:0:0:0:
216,191,97354,1,0,0:0:0:0:
215,190,97611,1,0,0:0:0:0:
216,190,97782,1,0,0:0:0:0:
216,190,98039,1,8,0:0:0:0:
216,191,98296,1,8,0:0:0:0:
215,190,98468,1,8,0:0:0:0:
216,190,98725,1,0,0:0:0:0:
216,190,98982,1,0,0:0:0:0:
216,191,99154,1,0,0:0:0:0:
215,198,99411,1,8,0:0:0:0:
218,137,99754,1,8,0:0:0:0:
218,137,100096,1,0,0:0:0:0:
215,198,100354,1,0,0:0:0:0:
215,198,100525,1,8,0:0:0:0:
210,203,100782,1,8,0:0:0:0:
210,205,101039,1,8,0:0:0:0:
209,206,101211,1,0,0:0:0:0:
209,116,101468,1,0,0:0:0:0:
202,120,101725,1,0,0:0:0:0:
200,123,101896,1,0,0:0:0:0:
193,149,102154,1,8,0:0:0:0:
191,154,102411,1,8,0:0:0:0:
191,154,102582,1,8,0:0:0:0:
227,147,102839,1,0,0:0:0:0:
227,148,103096,1,0,0:0:0:0:
227,147,103268,1,8,0:0:0:0:
227,149,103525,1,8,0:0:0:0:
227,147,103782,1,8,0:0:0:0:
227,148,103954,1,0,0:0:0:0:
225,154,104211,1,0,0:0:0:0:
224,164,104468,1,0,0:0:0:0:
224,164,104639,1,0,0:0:0:0:
224,164,104896,1,8,0:0:0:0:
224,164,105582,1,0,0:0:0:0:
224,164,105839,1,0,0:0:0:0:
224,164,106011,1,0,0:0:0:0:
224,164,106268,1,8,0:0:0:0:
209,212,106525,1,8,0:0:0:0:
209,212,106696,1,8,0:0:0:0:
209,212,106954,1,0,0:0:0:0:
208,225,107211,1,0,0:0:0:0:
208,225,107382,1,0,0:0:0:0:
212,231,107639,1,8,0:0:0:0:
212,232,107896,1,8,0:0:0:0:
212,232,108068,1,8,0:0:0:0:
212,233,108325,1,0,0:0:0:0:
212,231,108582,1,0,0:0:0:0:
212,232,108754,1,8,0:0:0:0:
212,232,109011,1,8,0:0:0:0:
212,233,109268,1,8,0:0:0:0:
213,240,109439,1,8,0:0:0:0:
215,238,109696,1,0,0:0:0:0:
215,239,109954,1,0,0:0:0:0:
215,239,110125,1,0,0:0:0:0:
213,240,110382,1,8,0:0:0:0:
215,238,110639,1,8,0:0:0:0:
215,239,110811,1,8,0:0:0:0:
215,83,111068,1,0,0:0:0:0:
181,127,113811,1,0,0:0:0:0:
204,64,114068,1,0,0:0:0:0:
206,119,114239,1,0,0:0:0:0:
215,69,114496,1,8,0:0:0:0:
193,128,114611,1,8,0:0:0:0:
168,91,114725,1,8,0:0:0:0:
168,91,114839,1,8,0:0:0:0:
170,69,115182,1,0,0:0:0:0:
238,162,115439,1,0,0:0:0:0:
168,91,115611,1,0,0:0:0:0:
172,105,115868,1,8,0:0:0:0:
230,86,116096,1,8,0:0:0:0:
158,121,116211,1,8,0:0:0:0:
183,113,116554,1,0,0:0:0:0:
185,122,116811,1,0,0:0:0:0:
185,122,116982,1,0,0:0:0:0:
193,155,117239,1,8,0:0:0:0:
193,156,117354,1,8,0:0:0:0:
193,155,117468,1,8,0:0:0:0:
203,156,117582,1,8,0:0:0:0:
233,158,117925,1,0,0:0:0:0:
238,150,118182,1,0,0:0:0:0:
238,150,118354,1,0,0:0:0:0:
238,149,118611,1,8,0:0:0:0:
207,110,118839,1,8,0:0:0:0:
207,110,118954,1,8,0:0:0:0:
189,129,119296,1,0,0:0:0:0:
210,135,119554,1,0,0:0:0:0:
210,135,119725,1,0,0:0:0:0:
193,153,119982,1,8,0:0:0:0:
194,143,120096,1,8,0:0:0:0:
193,144,120211,1,8,0:0:0:0:
193,144,120325,1,8,0:0:0:0:
196,84,120668,1,0,0:0:0:0:
209,116,120925,1,0,0:0:0:0:
209,116,121096,1,0,0:0:0:0:
208,116,121354,1,8,0:0:0:0:
212,123,121696,1,8,0:0:0:0:
214,122,122039,1,0,0:0:0:0:
193,121,122296,1,0,0:0:0:0:
192,121,122468,1,0,0:0:0:0:
191,123,122725,1,8,0:0:0:0:
191,123,122982,1,8,0:0:0:0:
193,121,123154,1,8,0:0:0:0:
231,76,123239,1,8,0:0:0:0:
194,136,123411,1,0,0:0:0:0:
194,136,123668,1,0,0:0:0:0:
194,136,123839,1,0,0:0:0:0:
194,136,124096,1,8,0:0:0:0:
194,136,124354,1,8,0:0:0:0:
194,136,124525,1,8,0:0:0:0:
206,77,124611,1,8,0:0:0:0:
194,136,124782,1,0,0:0:0:0:
194,136,125039,1,0,0:0:0:0:
194,136,125211,1,0,0:0:0:0:
194,136,125468,1,8,0:0:0:0:
194,136,125725,1,8,0:0:0:0:
194,136,125896,1,8,0:0:0:0:
206,76,125982,1,8,0:0:0:0:
194,136,126154,1,0,0:0:0:0:
194,136,126411,1,0,0:0:0:0:
194,136,126582,1,0,0:0:0:0:
194,136,126839,1,8,0:0:0:0:
194,64,127182,1,8,0:0:0:0:
165,128,127525,1,0,0:0:0:0:
175,178,127782,1,0,0:0:0:0:
175,178,127954,1,0,0:0:0:0:
182,164,128211,1,8,0:0:0:0:
182,164,128382,1,8,0:0:0:0:
182,164,128468,1,8,0:0:0:0:
181,164,128639,1,8,0:0:0:0:
201,59,128896,1,0,0:0:0:0:
198,65,129154,1,0,0:0:0:0:
198,65,129325,1,0,0:0:0:0:
198,67,129582,1,8,0:0:0:0:
198,67,129839,1,8,0:0:0:0:
198,65,130011,1,8,0:0:0:0:
198,65,130096,1,8,0:0:0:0:
198,65,130268,1,0,0:0:0:0:
198,67,130525,1,0,0:0:0:0:
198,67,130696,1,0,0:0:0:0:
199,74,130954,1,8,0:0:0:0:
199,76,131211,1,8,0:0:0:0:
199,77,131382,1,8,0:0:0:0:
196,95,131639,1,0,0:0:0:0:
196,95,131896,1,0,0:0:0:0:
196,95,132068,1,0,0:0:0:0:
196,96,132325,1,8,0:0:0:0:
152,95,132668,1,8,0:0:0:0:
152,95,132839,1,8,0:0:0:0:
