osu file format v14

[General]
AudioFilename: audio.mp3
AudioLeadIn: 0
PreviewTime: 1182
Countdown: 0
SampleSet: Normal
StackLeniency: 0.7
Mode: 1
LetterboxInBreaks: 0
WidescreenStoryboard: 0

[Editor]
Bookmarks: 1354,23296,45239,67182,89125,111068,133011
DistanceSpacing: 0.8
BeatDivisor: 12
GridSize: 16
TimelineZoom: 2.899999

[Metadata]
Title:20210517demo
TitleUnicode:20210517demo
Artist:Kabanagu
ArtistUnicode:Kabanagu
Creator:Ulqui
Version:Hippopotamus
Source:
Tags:japanese electronic dance music edm
BeatmapID:3157853
BeatmapSetID:1544926

[Difficulty]
HPDrainRate:6
CircleSize:2
OverallDifficulty:6
ApproachRate:10
SliderMultiplier:1.4
SliderTickRate:1

[Events]
//Background and Video events
0,0,"qwgqfqw.png",0,45
//Break Periods
2,67382,77468
//Storyboard Layer 0 (Background)
//Storyboard Layer 1 (Fail)
//Storyboard Layer 2 (Pass)
//Storyboard Layer 3 (Foreground)
//Storyboard Layer 4 (Overlay)
//Storyboard Sound Samples

[TimingPoints]
1354,342.857142857143,4,1,0,100,1,0
1354,-166.666666666667,4,1,0,100,0,0
23254,-133.333333333333,4,1,0,100,0,0
23339,-166.666666666667,4,1,0,100,0,0
23511,-166.666666666667,4,1,0,100,0,0
23596,-163.934426229508,4,1,0,100,0,0
23682,-161.290322580645,4,1,0,100,0,0
23768,-158.730158730159,4,1,0,100,0,0
23939,-133.333333333333,4,1,0,100,0,0
24024,-166.666666666667,4,1,0,100,0,0
24111,-158.730158730159,4,1,0,100,0,0
24196,-161.290322580645,4,1,0,100,0,0
24282,-163.934426229508,4,1,0,100,0,0
24368,-166.666666666667,4,1,0,100,0,0
24625,-133.333333333333,4,1,0,100,0,0
24710,-166.666666666667,4,1,0,100,0,0
24882,-166.666666666667,4,1,0,100,0,0
24967,-163.934426229508,4,1,0,100,0,0
25053,-161.290322580645,4,1,0,100,0,0
25139,-158.730158730159,4,1,0,100,0,0
25311,-133.333333333333,4,1,0,100,0,0
25396,-166.666666666667,4,1,0,100,0,0
25482,-158.730158730159,4,1,0,100,0,0
25567,-161.290322580645,4,1,0,100,0,0
25653,-163.934426229508,4,1,0,100,0,0
25739,-166.666666666667,4,1,0,100,0,0
25996,-133.333333333333,4,1,0,100,0,0
26081,-166.666666666667,4,1,0,100,0,0
26254,-166.666666666667,4,1,0,100,0,0
26339,-163.934426229508,4,1,0,100,0,0
26425,-161.290322580645,4,1,0,100,0,0
26511,-158.730158730159,4,1,0,100,0,0
26682,-133.333333333333,4,1,0,100,0,0
26767,-166.666666666667,4,1,0,100,0,0
26854,-158.730158730159,4,1,0,100,0,0
26939,-161.290322580645,4,1,0,100,0,0
27025,-163.934426229508,4,1,0,100,0,0
27111,-166.666666666667,4,1,0,100,0,0
27368,-133.333333333333,4,1,0,100,0,0
27453,-166.666666666667,4,1,0,100,0,0
27625,-166.666666666667,4,1,0,100,0,0
27710,-163.934426229508,4,1,0,100,0,0
27796,-161.290322580645,4,1,0,100,0,0
27882,-158.730158730159,4,1,0,100,0,0
28054,-133.333333333333,4,1,0,100,0,0
28139,-166.666666666667,4,1,0,100,0,0
28225,-158.730158730159,4,1,0,100,0,0
28310,-161.290322580645,4,1,0,100,0,0
28396,-163.934426229508,4,1,0,100,0,0
28482,-166.666666666667,4,1,0,100,0,0
28739,-133.333333333333,4,1,0,100,0,0
28824,-166.666666666667,4,1,0,100,0,0
28996,-166.666666666667,4,1,0,100,0,0
29081,-163.934426229508,4,1,0,100,0,0
29167,-161.290322580645,4,1,0,100,0,0
29253,-158.730158730159,4,1,0,100,0,0
29424,-133.333333333333,4,1,0,100,0,0
29509,-166.666666666667,4,1,0,100,0,0
29596,-158.730158730159,4,1,0,100,0,0
29681,-161.290322580645,4,1,0,100,0,0
29767,-163.934426229508,4,1,0,100,0,0
29853,-166.666666666667,4,1,0,100,0,0
30110,-133.333333333333,4,1,0,100,0,0
30195,-166.666666666667,4,1,0,100,0,0
30368,-166.666666666667,4,1,0,100,0,0
30453,-163.934426229508,4,1,0,100,0,0
30539,-161.290322580645,4,1,0,100,0,0
30625,-158.730158730159,4,1,0,100,0,0
30796,-133.333333333333,4,1,0,100,0,0
30881,-166.666666666667,4,1,0,100,0,0
30968,-158.730158730159,4,1,0,100,0,0
31053,-161.290322580645,4,1,0,100,0,0
31139,-163.934426229508,4,1,0,100,0,0
31225,-166.666666666667,4,1,0,100,0,0
31481,-133.333333333333,4,1,0,100,0,0
31566,-166.666666666667,4,1,0,100,0,0
31739,-166.666666666667,4,1,0,100,0,0
31824,-163.934426229508,4,1,0,100,0,0
31910,-161.290322580645,4,1,0,100,0,0
31996,-158.730158730159,4,1,0,100,0,0
32167,-133.333333333333,4,1,0,100,0,0
32252,-166.666666666667,4,1,0,100,0,0
32339,-158.730158730159,4,1,0,100,0,0
32424,-161.290322580645,4,1,0,100,0,0
32510,-163.934426229508,4,1,0,100,0,0
32596,-166.666666666667,4,1,0,100,0,0
32853,-133.333333333333,4,1,0,100,0,0
32938,-166.666666666667,4,1,0,100,0,0
33111,-166.666666666667,4,1,0,100,0,0
33196,-163.934426229508,4,1,0,100,0,0
33282,-161.290322580645,4,1,0,100,0,0
33368,-158.730158730159,4,1,0,100,0,0
33539,-133.333333333333,4,1,0,100,0,0
33624,-166.666666666667,4,1,0,100,0,0
33711,-158.730158730159,4,1,0,100,0,0
33796,-161.290322580645,4,1,0,100,0,0
33882,-163.934426229508,4,1,0,100,0,0
33968,-166.666666666667,4,1,0,100,0,0
34225,-133.333333333333,4,1,0,100,0,0
34310,-166.666666666667,4,1,0,100,0,0
34482,-166.666666666667,4,1,0,100,0,0
34567,-163.934426229508,4,1,0,100,0,0
34653,-161.290322580645,4,1,0,100,0,0
34739,-158.730158730159,4,1,0,100,0,0
34910,-133.333333333333,4,1,0,100,0,0
34995,-166.666666666667,4,1,0,100,0,0
35082,-158.730158730159,4,1,0,100,0,0
35167,-161.290322580645,4,1,0,100,0,0
35253,-163.934426229508,4,1,0,100,0,0
35339,-166.666666666667,4,1,0,100,0,0
35596,-133.333333333333,4,1,0,100,0,0
35681,-166.666666666667,4,1,0,100,0,0
35854,-166.666666666667,4,1,0,100,0,0
35939,-163.934426229508,4,1,0,100,0,0
36025,-161.290322580645,4,1,0,100,0,0
36111,-158.730158730159,4,1,0,100,0,0
36282,-133.333333333333,4,1,0,100,0,0
36367,-166.666666666667,4,1,0,100,0,0
36454,-158.730158730159,4,1,0,100,0,0
36539,-161.290322580645,4,1,0,100,0,0
36625,-163.934426229508,4,1,0,100,0,0
36711,-166.666666666667,4,1,0,100,0,0
36967,-133.333333333333,4,1,0,100,0,0
37052,-166.666666666667,4,1,0,100,0,0
37225,-166.666666666667,4,1,0,100,0,0
37310,-163.934426229508,4,1,0,100,0,0
37396,-161.290322580645,4,1,0,100,0,0
37482,-158.730158730159,4,1,0,100,0,0
37653,-133.333333333333,4,1,0,100,0,0
37738,-166.666666666667,4,1,0,100,0,0
37825,-158.730158730159,4,1,0,100,0,0
37910,-161.290322580645,4,1,0,100,0,0
37996,-163.934426229508,4,1,0,100,0,0
38082,-166.666666666667,4,1,0,100,0,0
38339,-133.333333333333,4,1,0,100,0,0
38424,-166.666666666667,4,1,0,100,0,0
38596,-166.666666666667,4,1,0,100,0,0
38681,-163.934426229508,4,1,0,100,0,0
38767,-161.290322580645,4,1,0,100,0,0
38853,-158.730158730159,4,1,0,100,0,0
39025,-133.333333333333,4,1,0,100,0,0
39110,-166.666666666667,4,1,0,100,0,0
39196,-158.730158730159,4,1,0,100,0,0
39281,-161.290322580645,4,1,0,100,0,0
39367,-163.934426229508,4,1,0,100,0,0
39453,-166.666666666667,4,1,0,100,0,0
39710,-133.333333333333,4,1,0,100,0,0
39795,-166.666666666667,4,1,0,100,0,0
39968,-166.666666666667,4,1,0,100,0,0
40053,-163.934426229508,4,1,0,100,0,0
40139,-161.290322580645,4,1,0,100,0,0
40225,-158.730158730159,4,1,0,100,0,0
40395,-133.333333333333,4,1,0,100,0,0
40480,-166.666666666667,4,1,0,100,0,0
40568,-158.730158730159,4,1,0,100,0,0
40653,-161.290322580645,4,1,0,100,0,0
40739,-163.934426229508,4,1,0,100,0,0
40825,-166.666666666667,4,1,0,100,0,0
41081,-133.333333333333,4,1,0,100,0,0
41166,-166.666666666667,4,1,0,100,0,0
41339,-166.666666666667,4,1,0,100,0,0
41424,-163.934426229508,4,1,0,100,0,0
41510,-161.290322580645,4,1,0,100,0,0
41596,-158.730158730159,4,1,0,100,0,0
41767,-133.333333333333,4,1,0,100,0,0
41852,-166.666666666667,4,1,0,100,0,0
41939,-158.730158730159,4,1,0,100,0,0
42024,-161.290322580645,4,1,0,100,0,0
42110,-163.934426229508,4,1,0,100,0,0
42196,-166.666666666667,4,1,0,100,0,0
42452,-133.333333333333,4,1,0,100,0,0
42537,-166.666666666667,4,1,0,100,0,0
42711,-166.666666666667,4,1,0,100,0,0
42796,-163.934426229508,4,1,0,100,0,0
42882,-161.290322580645,4,1,0,100,0,0
42968,-158.730158730159,4,1,0,100,0,0
43138,-133.333333333333,4,1,0,100,0,0
43223,-166.666666666667,4,1,0,100,0,0
43311,-158.730158730159,4,1,0,100,0,0
43396,-161.290322580645,4,1,0,100,0,0
43482,-163.934426229508,4,1,0,100,0,0
43568,-166.666666666667,4,1,0,100,0,0
43824,-133.333333333333,4,1,0,100,0,0
43909,-166.666666666667,4,1,0,100,0,0
44082,-166.666666666667,4,1,0,100,0,0
44167,-163.934426229508,4,1,0,100,0,0
44253,-161.290322580645,4,1,0,100,0,0
44339,-158.730158730159,4,1,0,100,0,0
44510,-133.333333333333,4,1,0,100,0,0
44595,-166.666666666667,4,1,0,100,0,0
44682,-158.730158730159,4,1,0,100,0,0
44767,-161.290322580645,4,1,0,100,0,0
44853,-163.934426229508,4,1,0,100,0,0
44939,-166.666666666667,4,1,0,100,0,0
45239,-50,4,1,0,100,0,1
45282,-86.9565217391304,4,1,0,100,0,1
56211,-50,4,1,0,100,0,1
56254,-86.9565217391304,4,1,0,100,0,1
67182,-50,4,1,0,100,0,0
67268,-200,4,1,0,30,0,0
77468,-200,4,1,0,30,0,0
78111,-200,4,1,0,100,0,0
78796,-133.333333333333,4,1,0,100,0,0
78882,-200,4,1,0,100,0,0
80168,-133.333333333333,4,1,0,100,0,0
80254,-200,4,1,0,100,0,0
81539,-133.333333333333,4,1,0,100,0,0
81625,-200,4,1,0,100,0,0
82911,-133.333333333333,4,1,0,100,0,0
82997,-200,4,1,0,100,0,0
84282,-133.333333333333,4,1,0,100,0,0
84368,-200,4,1,0,100,0,0
85654,-133.333333333333,4,1,0,100,0,0
85740,-200,4,1,0,100,0,0
87025,-133.333333333333,4,1,0,100,0,0
87111,-200,4,1,0,100,0,0
88396,-133.333333333333,4,1,0,100,0,0
88482,-200,4,1,0,100,0,0
89039,-166.666666666667,4,1,0,100,0,0
89125,-166.666666666667,4,1,0,100,0,1
89189,-165.289256198347,4,1,0,100,0,1
89275,-163.934426229508,4,1,0,100,0,1
89361,-162.601626016259,4,1,0,100,0,1
89446,-161.290322580645,4,1,0,100,0,1
89532,-160,4,1,0,100,0,1
89618,-158.730158730158,4,1,0,100,0,1
89704,-157.48031496063,4,1,0,100,0,1
89789,-156.25,4,1,0,100,0,1
89875,-157.48031496063,4,1,0,100,0,1
89961,-158.730158730158,4,1,0,100,0,1
90046,-160,4,1,0,100,0,1
90132,-161.290322580645,4,1,0,100,0,1
90218,-162.601626016259,4,1,0,100,0,1
90304,-163.934426229508,4,1,0,100,0,1
90389,-165.289256198347,4,1,0,100,0,1
90475,-166.666666666667,4,1,0,100,0,1
90561,-165.289256198347,4,1,0,100,0,1
90647,-163.934426229508,4,1,0,100,0,1
90733,-162.601626016259,4,1,0,100,0,1
90818,-161.290322580645,4,1,0,100,0,1
90904,-160,4,1,0,100,0,1
90990,-158.730158730158,4,1,0,100,0,1
91076,-157.48031496063,4,1,0,100,0,1
91161,-156.25,4,1,0,100,0,1
91247,-157.48031496063,4,1,0,100,0,1
91333,-158.730158730158,4,1,0,100,0,1
91418,-160,4,1,0,100,0,1
91504,-161.290322580645,4,1,0,100,0,1
91590,-162.601626016259,4,1,0,100,0,1
91676,-163.934426229508,4,1,0,100,0,1
91761,-165.289256198347,4,1,0,100,0,1
91847,-166.666666666667,4,1,0,100,0,1
91932,-165.289256198347,4,1,0,100,0,1
92018,-163.934426229508,4,1,0,100,0,1
92104,-162.601626016259,4,1,0,100,0,1
92189,-161.290322580645,4,1,0,100,0,1
92275,-160,4,1,0,100,0,1
92361,-158.730158730158,4,1,0,100,0,1
92447,-157.48031496063,4,1,0,100,0,1
92532,-156.25,4,1,0,100,0,1
92618,-157.48031496063,4,1,0,100,0,1
92704,-158.730158730158,4,1,0,100,0,1
92789,-160,4,1,0,100,0,1
92875,-161.290322580645,4,1,0,100,0,1
92961,-162.601626016259,4,1,0,100,0,1
93047,-163.934426229508,4,1,0,100,0,1
93132,-165.289256198347,4,1,0,100,0,1
93218,-166.666666666667,4,1,0,100,0,1
93304,-163.934426229508,4,1,0,100,0,1
93390,-161.290322580645,4,1,0,100,0,1
93476,-158.730158730159,4,1,0,100,0,1
93561,-156.25,4,1,0,100,0,1
93647,-153.846153846154,4,1,0,100,0,1
93733,-151.515151515152,4,1,0,100,0,1
93819,-149.253731343284,4,1,0,100,0,1
93904,-147.058823529412,4,1,0,100,0,1
93990,-149.253731343284,4,1,0,100,0,1
94076,-151.515151515152,4,1,0,100,0,1
94161,-153.846153846154,4,1,0,100,0,1
94247,-156.25,4,1,0,100,0,1
94333,-158.730158730159,4,1,0,100,0,1
94419,-161.290322580645,4,1,0,100,0,1
94504,-163.934426229508,4,1,0,100,0,1
94590,-166.666666666667,4,1,0,100,0,1
94675,-165.289256198347,4,1,0,100,0,1
94761,-163.934426229508,4,1,0,100,0,1
94847,-162.601626016259,4,1,0,100,0,1
94932,-161.290322580645,4,1,0,100,0,1
95018,-160,4,1,0,100,0,1
95104,-158.730158730158,4,1,0,100,0,1
95190,-157.48031496063,4,1,0,100,0,1
95275,-156.25,4,1,0,100,0,1
95361,-157.48031496063,4,1,0,100,0,1
95447,-158.730158730158,4,1,0,100,0,1
95532,-160,4,1,0,100,0,1
95618,-161.290322580645,4,1,0,100,0,1
95704,-162.601626016259,4,1,0,100,0,1
95790,-163.934426229508,4,1,0,100,0,1
95875,-165.289256198347,4,1,0,100,0,1
95961,-166.666666666667,4,1,0,100,0,1
96047,-165.289256198347,4,1,0,100,0,1
96133,-163.934426229508,4,1,0,100,0,1
96219,-162.601626016259,4,1,0,100,0,1
96304,-161.290322580645,4,1,0,100,0,1
96390,-160,4,1,0,100,0,1
96476,-158.730158730158,4,1,0,100,0,1
96562,-157.48031496063,4,1,0,100,0,1
96647,-156.25,4,1,0,100,0,1
96733,-157.48031496063,4,1,0,100,0,1
96819,-158.730158730158,4,1,0,100,0,1
96904,-160,4,1,0,100,0,1
96990,-161.290322580645,4,1,0,100,0,1
97076,-162.601626016259,4,1,0,100,0,1
97162,-163.934426229508,4,1,0,100,0,1
97247,-165.289256198347,4,1,0,100,0,1
97333,-166.666666666667,4,1,0,100,0,1
97418,-165.289256198347,4,1,0,100,0,1
97504,-163.934426229508,4,1,0,100,0,1
97590,-162.601626016259,4,1,0,100,0,1
97675,-161.290322580645,4,1,0,100,0,1
97761,-160,4,1,0,100,0,1
97847,-158.730158730158,4,1,0,100,0,1
97933,-157.48031496063,4,1,0,100,0,1
98018,-156.25,4,1,0,100,0,1
98104,-157.48031496063,4,1,0,100,0,1
98190,-158.730158730158,4,1,0,100,0,1
98275,-160,4,1,0,100,0,1
98361,-161.290322580645,4,1,0,100,0,1
98447,-162.601626016259,4,1,0,100,0,1
98533,-163.934426229508,4,1,0,100,0,1
98618,-165.289256198347,4,1,0,100,0,1
98704,-166.666666666667,4,1,0,100,0,1
98789,-163.934426229508,4,1,0,100,0,1
98875,-161.290322580645,4,1,0,100,0,1
98961,-158.730158730159,4,1,0,100,0,1
99046,-156.25,4,1,0,100,0,1
99132,-153.846153846154,4,1,0,100,0,1
99218,-151.515151515152,4,1,0,100,0,1
99304,-149.253731343284,4,1,0,100,0,1
99389,-147.058823529412,4,1,0,100,0,1
99475,-149.253731343284,4,1,0,100,0,1
99561,-151.515151515152,4,1,0,100,0,1
99646,-153.846153846154,4,1,0,100,0,1
99732,-156.25,4,1,0,100,0,1
99818,-158.730158730159,4,1,0,100,0,1
99904,-161.290322580645,4,1,0,100,0,1
99989,-163.934426229508,4,1,0,100,0,1
100076,-166.666666666667,4,1,0,100,0,1
100161,-165.289256198347,4,1,0,100,0,1
100247,-163.934426229508,4,1,0,100,0,1
100333,-162.601626016259,4,1,0,100,0,1
100418,-161.290322580645,4,1,0,100,0,1
100504,-160,4,1,0,100,0,1
100590,-158.730158730158,4,1,0,100,0,1
100676,-157.48031496063,4,1,0,100,0,1
100761,-156.25,4,1,0,100,0,1
100847,-157.48031496063,4,1,0,100,0,1
100933,-158.730158730158,4,1,0,100,0,1
101018,-160,4,1,0,100,0,1
101104,-161.290322580645,4,1,0,100,0,1
101190,-162.601626016259,4,1,0,100,0,1
101276,-163.934426229508,4,1,0,100,0,1
101361,-165.289256198347,4,1,0,100,0,1
101447,-166.666666666667,4,1,0,100,0,1
101533,-165.289256198347,4,1,0,100,0,1
101619,-163.934426229508,4,1,0,100,0,1
101705,-162.601626016259,4,1,0,100,0,1
101790,-161.290322580645,4,1,0,100,0,1
101876,-160,4,1,0,100,0,1
101962,-158.730158730158,4,1,0,100,0,1
102048,-157.48031496063,4,1,0,100,0,1
102133,-156.25,4,1,0,100,0,1
102219,-157.48031496063,4,1,0,100,0,1
102305,-158.730158730158,4,1,0,100,0,1
102390,-160,4,1,0,100,0,1
102476,-161.290322580645,4,1,0,100,0,1
102562,-162.601626016259,4,1,0,100,0,1
102648,-163.934426229508,4,1,0,100,0,1
102733,-165.289256198347,4,1,0,100,0,1
102819,-166.666666666667,4,1,0,100,0,1
102904,-165.289256198347,4,1,0,100,0,1
102990,-163.934426229508,4,1,0,100,0,1
103076,-162.601626016259,4,1,0,100,0,1
103161,-161.290322580645,4,1,0,100,0,1
103247,-160,4,1,0,100,0,1
103333,-158.730158730158,4,1,0,100,0,1
103419,-157.48031496063,4,1,0,100,0,1
103504,-156.25,4,1,0,100,0,1
103590,-157.48031496063,4,1,0,100,0,1
103676,-158.730158730158,4,1,0,100,0,1
103761,-160,4,1,0,100,0,1
103847,-161.290322580645,4,1,0,100,0,1
103933,-162.601626016259,4,1,0,100,0,1
104019,-163.934426229508,4,1,0,100,0,1
104104,-165.289256198347,4,1,0,100,0,1
104190,-166.666666666667,4,1,0,100,0,1
104275,-163.934426229508,4,1,0,100,0,1
104361,-161.290322580645,4,1,0,100,0,1
104447,-158.730158730159,4,1,0,100,0,1
104532,-156.25,4,1,0,100,0,1
104618,-153.846153846154,4,1,0,100,0,1
104704,-151.515151515152,4,1,0,100,0,1
104790,-149.253731343284,4,1,0,100,0,1
104875,-147.058823529412,4,1,0,100,0,1
104961,-149.253731343284,4,1,0,100,0,1
105047,-151.515151515152,4,1,0,100,0,1
105132,-153.846153846154,4,1,0,100,0,1
105218,-156.25,4,1,0,100,0,1
105304,-158.730158730159,4,1,0,100,0,1
105390,-161.290322580645,4,1,0,100,0,1
105475,-163.934426229508,4,1,0,100,0,1
105562,-166.666666666667,4,1,0,100,0,1
105646,-165.289256198347,4,1,0,100,0,1
105732,-163.934426229508,4,1,0,100,0,1
105818,-162.601626016259,4,1,0,100,0,1
105903,-161.290322580645,4,1,0,100,0,1
105989,-160,4,1,0,100,0,1
106075,-158.730158730158,4,1,0,100,0,1
106161,-157.48031496063,4,1,0,100,0,1
106246,-156.25,4,1,0,100,0,1
106332,-157.48031496063,4,1,0,100,0,1
106418,-158.730158730158,4,1,0,100,0,1
106503,-160,4,1,0,100,0,1
106589,-161.290322580645,4,1,0,100,0,1
106675,-162.601626016259,4,1,0,100,0,1
106761,-163.934426229508,4,1,0,100,0,1
106846,-165.289256198347,4,1,0,100,0,1
106932,-166.666666666667,4,1,0,100,0,1
107018,-165.289256198347,4,1,0,100,0,1
107104,-163.934426229508,4,1,0,100,0,1
107190,-162.601626016259,4,1,0,100,0,1
107275,-161.290322580645,4,1,0,100,0,1
107361,-160,4,1,0,100,0,1
107447,-158.730158730158,4,1,0,100,0,1
107533,-157.48031496063,4,1,0,100,0,1
107618,-156.25,4,1,0,100,0,1
107704,-157.48031496063,4,1,0,100,0,1
107790,-158.730158730158,4,1,0,100,0,1
107875,-160,4,1,0,100,0,1
107961,-161.290322580645,4,1,0,100,0,1
108047,-162.601626016259,4,1,0,100,0,1
108133,-163.934426229508,4,1,0,100,0,1
108218,-165.289256198347,4,1,0,100,0,1
108304,-166.666666666667,4,1,0,100,0,1
108389,-165.289256198347,4,1,0,100,0,1
108475,-163.934426229508,4,1,0,100,0,1
108561,-162.601626016259,4,1,0,100,0,1
108646,-161.290322580645,4,1,0,100,0,1
108732,-160,4,1,0,100,0,1
108818,-158.730158730158,4,1,0,100,0,1
108904,-157.48031496063,4,1,0,100,0,1
108989,-156.25,4,1,0,100,0,1
109075,-157.48031496063,4,1,0,100,0,1
109161,-158.730158730158,4,1,0,100,0,1
109246,-160,4,1,0,100,0,1
109332,-161.290322580645,4,1,0,100,0,1
109418,-162.601626016259,4,1,0,100,0,1
109504,-163.934426229508,4,1,0,100,0,1
109589,-165.289256198347,4,1,0,100,0,1
109675,-166.666666666667,4,1,0,100,0,1
109761,-163.934426229508,4,1,0,100,0,1
109847,-161.290322580645,4,1,0,100,0,1
109933,-158.730158730159,4,1,0,100,0,1
110018,-156.25,4,1,0,100,0,1
110104,-153.846153846154,4,1,0,100,0,1
110190,-151.515151515152,4,1,0,100,0,1
110276,-149.253731343284,4,1,0,100,0,1
110361,-147.058823529412,4,1,0,100,0,1
110447,-149.253731343284,4,1,0,100,0,1
110533,-151.515151515152,4,1,0,100,0,1
110618,-153.846153846154,4,1,0,100,0,1
110704,-156.25,4,1,0,100,0,1
110790,-158.730158730159,4,1,0,100,0,1
110876,-161.290322580645,4,1,0,100,0,1
110961,-163.934426229508,4,1,0,100,0,1
111068,-50,4,1,0,100,0,0
111154,-166.666666666667,4,1,0,100,0,0
113768,-100,4,1,0,100,0,0
121311,-83.3333333333333,4,1,0,100,0,0
121396,-83.3333333333333,4,1,0,100,0,0
121568,-87.719298245614,4,1,0,100,0,0
121654,-88.4955752212389,4,1,0,100,0,0
121739,-89.2857142857143,4,1,0,100,0,0
121825,-90.0900900900901,4,1,0,100,0,0
121911,-90.9090909090909,4,1,0,100,0,0
122039,-80,4,1,0,100,0,1
122104,-79.76011994003,4,1,0,100,0,1
122189,-79.5216741405082,4,1,0,100,0,1
122275,-79.2846497764531,4,1,0,100,0,1
122361,-79.0490341753343,4,1,0,100,0,1
122446,-78.8148148148148,4,1,0,100,0,1
122532,-78.5819793205318,4,1,0,100,0,1
122618,-78.3505154639175,4,1,0,100,0,1
122704,-78.1204111600587,4,1,0,100,0,1
122789,-77.891654465593,4,1,0,100,0,1
122875,-77.6642335766423,4,1,0,100,0,1
122961,-77.4381368267831,4,1,0,100,0,1
123046,-77.2133526850508,4,1,0,100,0,1
123132,-76.9898697539797,4,1,0,100,0,1
123175,-76.7676767676768,4,1,0,100,0,1
123217,-76.5467625899281,4,1,0,100,0,1
123303,-76.3271162123386,4,1,0,100,0,1
123389,-76.1087267525036,4,1,0,100,0,1
123474,-75.8915834522111,4,1,0,100,0,1
123560,-75.6756756756757,4,1,0,100,0,1
123646,-75.4609929078014,4,1,0,100,0,1
123732,-75.2475247524752,4,1,0,100,0,1
123817,-75.0352609308886,4,1,0,100,0,1
123903,-74.8241912798875,4,1,0,100,0,1
123989,-74.6143057503506,4,1,0,100,0,1
124075,-74.4055944055944,4,1,0,100,0,1
124160,-74.1980474198047,4,1,0,100,0,1
124246,-73.9916550764951,4,1,0,100,0,1
124332,-73.7864077669903,4,1,0,100,0,1
124417,-73.582295988935,4,1,0,100,0,1
124503,-73.3793103448276,4,1,0,100,0,1
124589,-73.1774415405777,4,1,0,100,0,1
124675,-72.9766803840878,4,1,0,100,0,1
124760,-72.7770177838577,4,1,0,100,0,1
124846,-72.5784447476126,4,1,0,100,0,1
124932,-72.3809523809524,4,1,0,100,0,1
125018,-72.1845318860244,4,1,0,100,0,1
125103,-71.9891745602165,4,1,0,100,0,1
125189,-71.7948717948718,4,1,0,100,0,1
125275,-71.6016150740242,4,1,0,100,0,1
125360,-71.4093959731544,4,1,0,100,0,1
125446,-71.2182061579652,4,1,0,100,0,1
125532,-71.0280373831776,4,1,0,100,0,1
125618,-70.8388814913449,4,1,0,100,0,1
125703,-70.6507304116866,4,1,0,100,0,1
125789,-70.4635761589404,4,1,0,100,0,1
125875,-70.2774108322325,4,1,0,100,0,1
125918,-70.0922266139657,4,1,0,100,0,1
125961,-69.9080157687254,4,1,0,100,0,1
126046,-69.7247706422018,4,1,0,100,0,1
126131,-69.5424836601307,4,1,0,100,0,1
126217,-69.361147327249,4,1,0,100,0,1
126303,-69.1807542262679,4,1,0,100,0,1
126388,-69.0012970168612,4,1,0,100,0,1
126474,-68.8227684346701,4,1,0,100,0,1
126560,-68.6451612903226,4,1,0,100,0,1
126646,-68.4684684684685,4,1,0,100,0,1
126731,-68.2926829268293,4,1,0,100,0,1
126817,-68.1177976952625,4,1,0,100,0,1
126903,-67.9438058748404,4,1,0,100,0,1
126989,-67.7707006369427,4,1,0,100,0,1
127074,-67.5984752223634,4,1,0,100,0,1
127160,-67.4271229404309,4,1,0,100,0,1
127246,-67.2566371681416,4,1,0,100,0,1
127331,-67.0870113493064,4,1,0,100,0,1
127417,-66.9182389937107,4,1,0,100,0,1
127503,-66.7503136762861,4,1,0,100,0,1
127589,-66.5832290362954,4,1,0,100,0,1
127674,-66.4169787765293,4,1,0,100,0,1
127760,-66.2515566625156,4,1,0,100,0,1
127846,-66.0869565217391,4,1,0,100,0,1
127932,-65.9231722428749,4,1,0,100,0,1
128017,-65.7601977750309,4,1,0,100,0,1
128103,-65.5980271270037,4,1,0,100,0,1
128189,-65.4366543665437,4,1,0,100,0,1
128274,-65.2760736196319,4,1,0,100,0,1
128360,-65.1162790697674,4,1,0,100,0,1
128404,-64.957264957265,4,1,0,100,0,1
128446,-64.7990255785627,4,1,0,100,0,1
128532,-64.6415552855407,4,1,0,100,0,1
128617,-64.4848484848485,4,1,0,100,0,1
128703,-64.3288996372431,4,1,0,100,0,1
128789,-64.1737032569361,4,1,0,100,0,1
128875,-64.0192539109507,4,1,0,100,0,1
128960,-63.8655462184874,4,1,0,100,0,1
129046,-63.7125748502994,4,1,0,100,0,1
129132,-63.5603345280765,4,1,0,100,0,1
129217,-63.4088200238379,4,1,0,100,0,1
129303,-63.2580261593341,4,1,0,100,0,1
129389,-63.1079478054567,4,1,0,100,0,1
129475,-62.9585798816568,4,1,0,100,0,1
129560,-62.8099173553719,4,1,0,100,0,1
129646,-62.6619552414605,4,1,0,100,0,1
129732,-62.5146886016451,4,1,0,100,0,1
129818,-62.3681125439625,4,1,0,100,0,1
129903,-62.2222222222222,4,1,0,100,0,1
129989,-62.0770128354726,4,1,0,100,0,1
130032,-61.9324796274738,4,1,0,100,0,1
130075,-61.7886178861789,4,1,0,100,0,1
130160,-61.6454229432213,4,1,0,100,0,1
130246,-61.5028901734104,4,1,0,100,0,1
130332,-61.361014994233,4,1,0,100,0,1
130418,-61.2197928653625,4,1,0,100,0,1
130503,-61.0792192881745,4,1,0,100,0,1
130589,-60.9392898052692,4,1,0,100,0,1
130675,-60.8,4,1,0,100,0,1
130761,-60.6613454960091,4,1,0,100,0,1
130846,-60.5233219567691,4,1,0,100,0,1
130932,-60.3859250851305,4,1,0,100,0,1
131018,-60.2491506228766,4,1,0,100,0,1
131103,-60.1129943502825,4,1,0,100,0,1
131189,-59.9774520856821,4,1,0,100,0,1
131275,-59.8425196850394,4,1,0,100,0,1
131361,-59.7081930415264,4,1,0,100,0,1
131446,-59.5744680851064,4,1,0,100,0,1
131532,-59.4413407821229,4,1,0,100,0,1
131618,-59.3088071348941,4,1,0,100,0,1
131704,-59.1768631813126,4,1,0,100,0,1
131789,-59.0455049944506,4,1,0,100,0,1
131875,-58.9147286821705,4,1,0,100,0,1
131961,-58.7845303867403,4,1,0,100,0,1
132046,-58.6549062844542,4,1,0,100,0,1
132132,-58.5258525852585,4,1,0,100,0,1
132218,-58.397365532382,4,1,0,100,0,1
132304,-58.2694414019715,4,1,0,100,0,1
132389,-58.1420765027322,4,1,0,100,0,1
132475,-58.0152671755725,4,1,0,100,0,1
132561,-57.8890097932535,4,1,0,100,0,1
132646,-57.7633007600434,4,1,0,100,0,1
132696,-57.638136511376,4,1,0,100,0,1
132754,-57.5135135135135,4,1,0,100,0,1
132811,-57.3894282632147,4,1,0,100,0,1
132868,-57.2658772874058,4,1,0,100,0,1
132954,-57.1428571428571,4,1,0,100,0,1
132968,-57.1428571428571,4,1,0,100,0,0

[HitObjects]
180,195,23296,5,8,0:0:0:0:
164,217,23554,1,0,0:0:0:0:
164,217,23725,1,0,0:0:0:0:
198,80,23811,1,0,0:0:0:0:
164,218,23982,1,8,0:0:0:0:
198,80,24154,1,0,0:0:0:0:
164,218,24239,1,0,0:0:0:0:
164,217,24411,1,0,0:0:0:0:
164,217,24668,1,8,0:0:0:0:
164,218,24925,1,0,0:0:0:0:
164,218,25096,1,0,0:0:0:0:
164,217,25354,1,8,0:0:0:0:
164,217,25611,1,0,0:0:0:0:
176,52,25696,1,0,0:0:0:0:
164,218,25782,1,0,0:0:0:0:
164,218,26039,1,8,0:0:0:0:
164,217,26296,1,0,0:0:0:0:
177,156,26468,1,0,0:0:0:0:
201,61,26554,1,0,0:0:0:0:
164,218,26725,1,8,0:0:0:0:
201,61,26896,1,0,0:0:0:0:
164,218,26982,1,0,0:0:0:0:
164,217,27154,1,0,0:0:0:0:
164,218,27411,1,8,0:0:0:0:
164,218,27668,1,0,0:0:0:0:
164,218,27839,1,0,0:0:0:0:
164,217,28096,1,8,0:0:0:0:
165,236,28354,1,0,0:0:0:0:
221,67,28439,1,0,0:0:0:0:
165,236,28525,1,0,0:0:0:0:
180,195,28782,5,8,0:0:0:0:
164,217,29039,1,0,0:0:0:0:
164,217,29211,1,0,0:0:0:0:
198,80,29296,1,0,0:0:0:0:
164,218,29468,1,8,0:0:0:0:
198,80,29639,1,0,0:0:0:0:
164,218,29725,1,0,0:0:0:0:
164,217,29896,1,0,0:0:0:0:
164,217,30154,1,8,0:0:0:0:
164,218,30411,1,0,0:0:0:0:
164,218,30582,1,0,0:0:0:0:
164,217,30839,1,8,0:0:0:0:
164,217,31096,1,0,0:0:0:0:
176,52,31182,1,0,0:0:0:0:
164,218,31268,1,0,0:0:0:0:
164,218,31525,1,8,0:0:0:0:
164,217,31782,1,0,0:0:0:0:
177,156,31954,1,0,0:0:0:0:
201,61,32039,1,0,0:0:0:0:
164,218,32211,1,8,0:0:0:0:
201,61,32382,1,0,0:0:0:0:
164,218,32468,1,0,0:0:0:0:
164,217,32639,1,0,0:0:0:0:
164,218,32896,1,8,0:0:0:0:
164,218,33154,1,0,0:0:0:0:
164,218,33325,1,0,0:0:0:0:
164,217,33582,1,8,0:0:0:0:
165,236,33839,1,0,0:0:0:0:
221,67,33925,1,0,0:0:0:0:
165,236,34011,1,0,0:0:0:0:
180,195,34268,5,8,0:0:0:0:
164,217,34525,1,0,0:0:0:0:
164,217,34696,1,0,0:0:0:0:
198,80,34782,1,0,0:0:0:0:
164,218,34954,1,8,0:0:0:0:
198,80,35125,1,0,0:0:0:0:
164,218,35211,1,0,0:0:0:0:
164,217,35382,1,0,0:0:0:0:
164,217,35639,1,8,0:0:0:0:
164,218,35896,1,0,0:0:0:0:
164,218,36068,1,0,0:0:0:0:
164,217,36325,1,8,0:0:0:0:
164,217,36582,1,0,0:0:0:0:
176,52,36668,1,0,0:0:0:0:
164,218,36754,1,0,0:0:0:0:
164,218,37011,1,8,0:0:0:0:
164,217,37268,1,0,0:0:0:0:
177,156,37439,1,0,0:0:0:0:
201,61,37525,1,0,0:0:0:0:
164,218,37696,1,8,0:0:0:0:
201,61,37868,1,0,0:0:0:0:
164,218,37954,1,0,0:0:0:0:
164,217,38125,1,0,0:0:0:0:
164,218,38382,1,8,0:0:0:0:
164,218,38639,1,0,0:0:0:0:
164,218,38811,1,0,0:0:0:0:
164,217,39068,1,8,0:0:0:0:
165,236,39325,1,0,0:0:0:0:
221,67,39411,1,0,0:0:0:0:
165,236,39496,1,0,0:0:0:0:
180,195,39754,5,8,0:0:0:0:
164,217,40011,1,0,0:0:0:0:
164,217,40182,1,0,0:0:0:0:
198,80,40268,1,0,0:0:0:0:
164,218,40439,1,8,0:0:0:0:
198,80,40611,1,0,0:0:0:0:
164,218,40696,1,0,0:0:0:0:
164,217,40868,1,0,0:0:0:0:
164,217,41125,1,8,0:0:0:0:
164,218,41382,1,0,0:0:0:0:
164,218,41554,1,0,0:0:0:0:
164,217,41811,1,8,0:0:0:0:
164,217,42068,1,0,0:0:0:0:
176,52,42154,1,0,0:0:0:0:
164,218,42239,1,0,0:0:0:0:
164,218,42496,1,8,0:0:0:0:
164,217,42754,1,0,0:0:0:0:
177,156,42925,1,0,0:0:0:0:
201,61,43011,1,0,0:0:0:0:
164,218,43182,1,8,0:0:0:0:
201,61,43354,1,0,0:0:0:0:
164,218,43439,1,0,0:0:0:0:
164,217,43611,1,0,0:0:0:0:
164,218,43868,1,8,0:0:0:0:
164,218,44125,1,0,0:0:0:0:
164,218,44296,1,0,0:0:0:0:
164,217,44554,1,8,0:0:0:0:
178,190,45239,1,12,0:0:0:0:
165,119,45411,1,0,0:0:0:0:
165,119,45582,1,8,0:0:0:0:
165,119,45754,1,0,0:0:0:0:
168,157,45839,1,0,0:0:0:0:
168,129,45925,1,0,0:0:0:0:
168,157,46011,1,0,0:0:0:0:
168,129,46096,1,0,0:0:0:0:
168,157,46182,1,0,0:0:0:0:
168,129,46268,1,8,0:0:0:0:
193,104,46439,1,0,0:0:0:0:
203,97,46525,1,0,0:0:0:0:
194,104,46611,1,0,0:0:0:0:
194,104,46782,1,0,0:0:0:0:
194,104,46954,1,8,0:0:0:0:
192,113,47125,1,0,0:0:0:0:
192,110,47211,1,8,0:0:0:0:
191,113,47296,1,8,0:0:0:0:
192,110,47382,1,0,0:0:0:0:
191,113,47468,1,0,0:0:0:0:
192,110,47554,1,0,0:0:0:0:
191,113,47639,1,8,0:0:0:0:
188,69,47811,1,0,0:0:0:0:
188,69,47896,1,0,0:0:0:0:
188,69,47982,1,0,0:0:0:0:
164,82,48154,1,0,0:0:0:0:
164,83,48325,1,8,0:0:0:0:
197,66,48496,1,0,0:0:0:0:
198,63,48582,1,0,0:0:0:0:
197,66,48668,1,8,0:0:0:0:
198,63,48754,1,0,0:0:0:0:
199,63,48839,1,0,0:0:0:0:
198,63,48925,1,0,0:0:0:0:
197,66,49011,1,8,0:0:0:0:
205,140,49096,1,8,0:0:0:0:
206,91,49182,1,0,0:0:0:0:
206,91,49268,1,8,0:0:0:0:
208,86,49354,1,0,0:0:0:0:
179,107,49439,1,8,0:0:0:0:
176,106,49525,1,0,0:0:0:0:
179,107,49611,1,8,0:0:0:0:
176,106,49696,1,8,0:0:0:0:
194,89,49782,1,0,0:0:0:0:
173,76,49868,1,0,0:0:0:0:
194,89,49954,1,0,0:0:0:0:
173,76,50039,1,8,0:0:0:0:
194,89,50125,1,8,0:0:0:0:
173,76,50211,1,8,0:0:0:0:
189,86,50296,1,0,0:0:0:0:
194,103,50382,1,8,0:0:0:0:
151,72,50554,1,8,0:0:0:0:
151,73,50725,1,0,0:0:0:0:
171,145,50896,1,0,0:0:0:0:
171,145,51068,1,8,0:0:0:0:
164,170,51239,1,0,0:0:0:0:
164,169,51325,1,0,0:0:0:0:
164,170,51411,1,0,0:0:0:0:
164,173,51496,1,0,0:0:0:0:
164,170,51582,1,0,0:0:0:0:
164,173,51668,1,0,0:0:0:0:
164,170,51754,1,8,0:0:0:0:
199,122,51925,1,0,0:0:0:0:
176,164,52011,1,0,0:0:0:0:
199,122,52096,1,0,0:0:0:0:
176,164,52268,1,0,0:0:0:0:
175,166,52439,1,8,0:0:0:0:
207,199,52611,1,0,0:0:0:0:
196,173,52696,1,8,0:0:0:0:
207,199,52782,1,8,0:0:0:0:
207,199,52868,1,0,0:0:0:0:
207,199,52954,1,0,0:0:0:0:
207,199,53039,1,0,0:0:0:0:
207,199,53125,1,8,0:0:0:0:
148,101,53296,1,0,0:0:0:0:
177,112,53382,1,0,0:0:0:0:
148,101,53468,1,0,0:0:0:0:
177,112,53639,1,0,0:0:0:0:
178,114,53811,1,8,0:0:0:0:
170,126,53982,1,0,0:0:0:0:
170,124,54068,1,0,0:0:0:0:
170,126,54154,1,8,0:0:0:0:
170,124,54239,1,0,0:0:0:0:
171,124,54325,1,0,0:0:0:0:
170,124,54411,1,0,0:0:0:0:
171,124,54496,1,8,0:0:0:0:
177,78,54582,1,8,0:0:0:0:
187,73,54668,1,0,0:0:0:0:
177,78,54754,1,8,0:0:0:0:
187,73,54839,1,0,0:0:0:0:
181,36,54925,1,8,0:0:0:0:
181,40,55011,1,0,0:0:0:0:
181,36,55096,1,8,0:0:0:0:
181,40,55182,1,8,0:0:0:0:
208,61,55268,1,0,0:0:0:0:
204,59,55354,1,0,0:0:0:0:
208,61,55439,1,0,0:0:0:0:
205,61,55525,1,8,0:0:0:0:
213,65,55696,1,0,0:0:0:0:
206,68,55868,1,8,0:0:0:0:
270,195,55925,1,0,0:0:0:0:
270,195,55982,1,8,0:0:0:0:
270,195,56039,1,0,0:0:0:0:
270,195,56096,1,8,0:0:0:0:
270,195,56154,1,0,0:0:0:0:
270,195,56211,1,12,0:0:0:0:
234,182,56382,1,0,0:0:0:0:
234,182,56554,1,8,0:0:0:0:
213,227,56725,1,0,0:0:0:0:
213,227,56811,1,8,0:0:0:0:
213,227,56896,1,0,0:0:0:0:
180,259,56982,1,8,0:0:0:0:
180,259,57068,1,0,0:0:0:0:
180,259,57154,1,0,0:0:0:0:
180,259,57239,1,8,0:0:0:0:
198,168,57325,1,0,0:0:0:0:
198,168,57368,1,0,0:0:0:0:
198,168,57411,1,0,0:0:0:0:
198,168,57496,1,8,0:0:0:0:
198,168,57582,1,0,0:0:0:0:
138,178,57754,1,0,0:0:0:0:
138,178,57925,1,8,0:0:0:0:
170,113,58096,1,0,0:0:0:0:
170,113,58182,1,8,0:0:0:0:
191,56,58268,1,8,0:0:0:0:
169,105,58354,1,8,0:0:0:0:
170,113,58439,1,0,0:0:0:0:
154,164,58525,1,0,0:0:0:0:
154,165,58611,1,8,0:0:0:0:
196,156,58782,1,0,0:0:0:0:
196,156,58868,1,8,0:0:0:0:
196,156,58911,1,8,0:0:0:0:
196,156,58954,1,0,0:0:0:0:
158,113,59125,1,0,0:0:0:0:
158,113,59296,1,8,0:0:0:0:
169,100,59468,1,0,0:0:0:0:
170,104,59554,1,8,0:0:0:0:
169,100,59639,1,8,0:0:0:0:
170,104,59725,1,8,0:0:0:0:
169,100,59811,1,0,0:0:0:0:
158,64,59896,1,0,0:0:0:0:
158,64,59982,1,8,0:0:0:0:
204,59,60068,1,0,0:0:0:0:
181,70,60111,1,0,0:0:0:0:
198,62,60154,1,0,0:0:0:0:
204,59,60239,1,8,0:0:0:0:
204,59,60325,1,0,0:0:0:0:
189,88,60411,1,8,0:0:0:0:
192,87,60496,1,0,0:0:0:0:
187,89,60582,1,8,0:0:0:0:
185,92,60668,1,8,0:0:0:0:
194,44,60754,1,0,0:0:0:0:
211,34,60839,1,0,0:0:0:0:
205,36,60925,1,0,0:0:0:0:
194,44,61011,1,8,0:0:0:0:
183,59,61096,1,8,0:0:0:0:
181,58,61182,1,8,0:0:0:0:
184,59,61268,1,0,0:0:0:0:
181,59,61354,1,8,0:0:0:0:
226,88,61525,1,8,0:0:0:0:
223,87,61568,1,8,0:0:0:0:
223,87,61611,1,8,0:0:0:0:
226,88,61654,1,8,0:0:0:0:
226,88,61696,1,0,0:0:0:0:
147,160,61868,1,0,0:0:0:0:
226,88,61954,1,0,0:0:0:0:
147,160,62039,1,8,0:0:0:0:
198,99,62211,1,0,0:0:0:0:
201,98,62296,1,8,0:0:0:0:
198,99,62382,1,0,0:0:0:0:
201,98,62468,1,8,0:0:0:0:
198,99,62554,1,0,0:0:0:0:
211,105,62596,1,0,0:0:0:0:
211,105,62639,1,0,0:0:0:0:
198,99,62725,1,8,0:0:0:0:
220,138,62896,1,0,0:0:0:0:
220,138,62982,1,0,0:0:0:0:
220,138,63068,1,0,0:0:0:0:
171,93,63239,1,0,0:0:0:0:
171,93,63411,1,8,0:0:0:0:
193,139,63582,1,0,0:0:0:0:
202,142,63668,1,8,0:0:0:0:
193,139,63754,1,0,0:0:0:0:
202,142,63839,1,8,0:0:0:0:
193,139,63925,1,0,0:0:0:0:
202,142,64011,1,0,0:0:0:0:
193,139,64096,1,8,0:0:0:0:
193,139,64182,1,0,0:0:0:0:
193,139,64225,1,0,0:0:0:0:
193,139,64268,1,0,0:0:0:0:
193,139,64354,1,8,0:0:0:0:
193,139,64439,1,0,0:0:0:0:
196,150,64611,1,0,0:0:0:0:
196,150,64782,1,8,0:0:0:0:
198,144,64954,1,0,0:0:0:0:
208,122,65039,1,8,0:0:0:0:
198,144,65125,1,8,0:0:0:0:
207,123,65211,1,8,0:0:0:0:
198,144,65296,1,0,0:0:0:0:
207,123,65382,1,0,0:0:0:0:
198,144,65468,1,8,0:0:0:0:
175,80,65554,1,8,0:0:0:0:
150,58,65639,1,0,0:0:0:0:
150,58,65725,1,8,0:0:0:0:
149,57,65811,1,0,0:0:0:0:
168,68,65896,1,8,0:0:0:0:
168,68,65982,1,0,0:0:0:0:
168,68,66068,1,8,0:0:0:0:
168,68,66154,1,8,0:0:0:0:
169,68,66239,1,0,0:0:0:0:
169,68,66325,1,0,0:0:0:0:
169,68,66411,1,0,0:0:0:0:
169,68,66496,1,8,0:0:0:0:
187,94,66668,1,0,0:0:0:0:
183,96,66839,1,8,0:0:0:0:
166,203,66896,1,0,0:0:0:0:
166,203,66954,1,8,0:0:0:0:
166,203,67011,1,0,0:0:0:0:
149,134,67068,1,8,0:0:0:0:
149,134,67125,1,0,0:0:0:0:
149,134,67182,1,12,0:0:0:0:
236,179,78154,5,0,0:0:0:0:
157,177,78839,5,8,0:0:0:0:
164,168,80211,1,8,0:0:0:0:
164,168,81582,1,8,0:0:0:0:
168,163,82954,1,8,0:0:0:0:
175,159,84325,1,8,0:0:0:0:
175,160,85696,1,8,0:0:0:0:
175,160,87068,1,8,0:0:0:0:
175,160,88439,1,8,0:0:0:0:
194,166,89125,1,0,0:0:0:0:
210,97,89211,1,8,0:0:0:0:
210,97,89296,1,8,0:0:0:0:
194,166,89382,1,0,0:0:0:0:
164,118,89468,1,8,0:0:0:0:
194,166,89554,1,0,0:0:0:0:
164,118,89639,1,0,0:0:0:0:
231,105,89725,1,0,0:0:0:0:
194,166,89811,1,8,0:0:0:0:
175,72,89896,1,0,0:0:0:0:
175,72,89982,1,0,0:0:0:0:
194,166,90068,1,8,0:0:0:0:
175,72,90154,1,0,0:0:0:0:
194,166,90239,1,8,0:0:0:0:
175,72,90325,1,8,0:0:0:0:
175,72,90411,1,0,0:0:0:0:
194,166,90496,1,0,0:0:0:0:
175,72,90582,1,8,0:0:0:0:
175,72,90668,1,8,0:0:0:0:
194,166,90754,1,0,0:0:0:0:
179,110,90839,1,8,0:0:0:0:
194,166,90925,1,0,0:0:0:0:
179,110,91011,1,0,0:0:0:0:
179,110,91096,1,0,0:0:0:0:
194,166,91182,1,8,0:0:0:0:
179,110,91268,1,0,0:0:0:0:
180,97,91354,1,0,0:0:0:0:
194,166,91439,1,8,0:0:0:0:
180,97,91525,1,0,0:0:0:0:
194,166,91611,1,8,0:0:0:0:
180,97,91696,1,8,0:0:0:0:
181,96,91782,1,0,0:0:0:0:
194,166,91868,1,0,0:0:0:0:
226,134,91954,1,8,0:0:0:0:
226,134,92039,1,8,0:0:0:0:
194,166,92125,1,0,0:0:0:0:
226,134,92211,1,8,0:0:0:0:
194,166,92296,1,0,0:0:0:0:
226,134,92382,1,0,0:0:0:0:
226,134,92468,1,0,0:0:0:0:
194,166,92554,1,8,0:0:0:0:
221,99,92639,1,0,0:0:0:0:
221,99,92725,1,0,0:0:0:0:
194,166,92811,1,8,0:0:0:0:
221,99,92896,1,0,0:0:0:0:
194,166,92982,1,8,0:0:0:0:
221,99,93068,1,8,0:0:0:0:
221,99,93154,1,0,0:0:0:0:
194,166,93239,1,0,0:0:0:0:
222,110,93325,1,8,0:0:0:0:
196,88,93411,1,8,0:0:0:0:
194,166,93496,1,0,0:0:0:0:
198,100,93582,1,8,0:0:0:0:
194,166,93668,1,8,0:0:0:0:
198,103,93754,1,8,0:0:0:0:
193,73,93839,1,0,0:0:0:0:
194,166,93925,1,8,0:0:0:0:
196,82,94011,1,8,0:0:0:0:
196,82,94096,1,0,0:0:0:0:
194,166,94182,1,0,0:0:0:0:
201,76,94268,1,8,0:0:0:0:
194,166,94354,1,8,0:0:0:0:
201,76,94439,1,0,0:0:0:0:
183,68,94525,1,8,0:0:0:0:
194,166,94611,1,0,0:0:0:0:
210,97,94696,1,8,0:0:0:0:
210,97,94782,1,8,0:0:0:0:
194,166,94868,1,0,0:0:0:0:
164,118,94954,1,8,0:0:0:0:
194,166,95039,1,0,0:0:0:0:
164,118,95125,1,0,0:0:0:0:
231,105,95211,1,0,0:0:0:0:
194,166,95296,1,8,0:0:0:0:
175,72,95382,1,8,0:0:0:0:
175,72,95468,1,0,0:0:0:0:
194,166,95554,1,8,0:0:0:0:
175,72,95639,1,0,0:0:0:0:
194,166,95725,1,8,0:0:0:0:
175,72,95811,1,8,0:0:0:0:
175,72,95896,1,0,0:0:0:0:
194,166,95982,1,0,0:0:0:0:
175,72,96068,1,8,0:0:0:0:
175,72,96154,1,8,0:0:0:0:
194,166,96239,1,0,0:0:0:0:
179,110,96325,1,8,0:0:0:0:
194,166,96411,1,0,0:0:0:0:
179,110,96496,1,0,0:0:0:0:
179,110,96582,1,0,0:0:0:0:
194,166,96668,1,8,0:0:0:0:
179,110,96754,1,8,0:0:0:0:
180,97,96839,1,0,0:0:0:0:
194,166,96925,1,8,0:0:0:0:
180,97,97011,1,0,0:0:0:0:
194,166,97096,1,8,0:0:0:0:
180,97,97182,1,8,0:0:0:0:
181,96,97268,1,0,0:0:0:0:
194,166,97354,1,0,0:0:0:0:
226,134,97439,1,8,0:0:0:0:
226,134,97525,1,8,0:0:0:0:
194,166,97611,1,0,0:0:0:0:
226,134,97696,1,8,0:0:0:0:
194,166,97782,1,0,0:0:0:0:
226,134,97868,1,0,0:0:0:0:
226,134,97954,1,0,0:0:0:0:
194,166,98039,1,8,0:0:0:0:
221,99,98125,1,8,0:0:0:0:
221,99,98211,1,0,0:0:0:0:
194,166,98296,1,8,0:0:0:0:
221,99,98382,1,0,0:0:0:0:
194,166,98468,1,8,0:0:0:0:
221,99,98554,1,8,0:0:0:0:
221,99,98639,1,0,0:0:0:0:
194,166,98725,1,0,0:0:0:0:
222,110,98811,1,8,0:0:0:0:
196,88,98896,1,8,0:0:0:0:
194,166,98982,1,0,0:0:0:0:
198,100,99068,1,8,0:0:0:0:
194,166,99154,1,8,0:0:0:0:
198,103,99239,1,8,0:0:0:0:
193,73,99325,1,0,0:0:0:0:
194,166,99411,1,8,0:0:0:0:
196,82,99496,1,8,0:0:0:0:
196,82,99582,1,0,0:0:0:0:
194,166,99668,1,0,0:0:0:0:
201,76,99754,1,8,0:0:0:0:
194,166,99839,1,8,0:0:0:0:
201,76,99925,1,8,0:0:0:0:
183,68,100011,1,8,0:0:0:0:
194,166,100096,1,0,0:0:0:0:
210,97,100182,1,8,0:0:0:0:
210,97,100268,1,8,0:0:0:0:
194,166,100354,1,0,0:0:0:0:
164,118,100439,1,8,0:0:0:0:
194,166,100525,1,0,0:0:0:0:
164,118,100611,1,8,0:0:0:0:
231,105,100696,1,8,0:0:0:0:
194,166,100782,1,8,0:0:0:0:
175,72,100868,1,8,0:0:0:0:
175,72,100954,1,0,0:0:0:0:
194,166,101039,1,8,0:0:0:0:
175,72,101125,1,0,0:0:0:0:
194,166,101211,1,8,0:0:0:0:
175,72,101296,1,8,0:0:0:0:
175,72,101382,1,0,0:0:0:0:
194,166,101468,1,0,0:0:0:0:
175,72,101554,1,8,0:0:0:0:
175,72,101639,1,8,0:0:0:0:
194,166,101725,1,0,0:0:0:0:
179,110,101811,1,8,0:0:0:0:
194,166,101896,1,0,0:0:0:0:
179,110,101982,1,0,0:0:0:0:
179,110,102068,1,0,0:0:0:0:
194,166,102154,1,8,0:0:0:0:
179,110,102239,1,8,0:0:0:0:
180,97,102325,1,0,0:0:0:0:
194,166,102411,1,8,0:0:0:0:
180,97,102496,1,0,0:0:0:0:
194,166,102582,1,8,0:0:0:0:
180,97,102668,1,8,0:0:0:0:
181,96,102754,1,0,0:0:0:0:
194,166,102839,1,0,0:0:0:0:
226,134,102925,1,8,0:0:0:0:
226,134,103011,1,8,0:0:0:0:
194,166,103096,1,0,0:0:0:0:
226,134,103182,1,8,0:0:0:0:
194,166,103268,1,0,0:0:0:0:
226,134,103354,1,8,0:0:0:0:
226,134,103439,1,8,0:0:0:0:
194,166,103525,1,8,0:0:0:0:
221,99,103611,1,8,0:0:0:0:
221,99,103696,1,0,0:0:0:0:
194,166,103782,1,8,0:0:0:0:
221,99,103868,1,0,0:0:0:0:
194,166,103954,1,8,0:0:0:0:
221,99,104039,1,8,0:0:0:0:
221,99,104125,1,0,0:0:0:0:
194,166,104211,1,0,0:0:0:0:
222,110,104296,1,8,0:0:0:0:
196,88,104382,1,8,0:0:0:0:
194,166,104468,1,0,0:0:0:0:
198,100,104554,1,8,0:0:0:0:
194,166,104639,1,8,0:0:0:0:
198,103,104725,1,8,0:0:0:0:
193,73,104811,1,0,0:0:0:0:
194,166,104896,1,8,0:0:0:0:
196,82,104982,1,8,0:0:0:0:
196,82,105068,1,0,0:0:0:0:
194,166,105154,1,8,0:0:0:0:
201,76,105239,1,0,0:0:0:0:
194,166,105325,1,8,0:0:0:0:
201,76,105411,1,8,0:0:0:0:
183,68,105496,1,8,0:0:0:0:
194,166,105582,1,0,0:0:0:0:
210,97,105668,1,8,0:0:0:0:
210,97,105754,1,8,0:0:0:0:
194,166,105839,1,0,0:0:0:0:
164,118,105925,1,8,0:0:0:0:
194,166,106011,1,0,0:0:0:0:
164,118,106096,1,0,0:0:0:0:
231,105,106182,1,0,0:0:0:0:
194,166,106268,1,8,0:0:0:0:
175,72,106354,1,8,0:0:0:0:
175,72,106439,1,0,0:0:0:0:
194,166,106525,1,8,0:0:0:0:
175,72,106611,1,0,0:0:0:0:
194,166,106696,1,8,0:0:0:0:
175,72,106782,1,8,0:0:0:0:
175,72,106868,1,0,0:0:0:0:
194,166,106954,1,0,0:0:0:0:
175,72,107039,1,8,0:0:0:0:
175,72,107125,1,8,0:0:0:0:
194,166,107211,1,0,0:0:0:0:
179,110,107296,1,8,0:0:0:0:
194,166,107382,1,0,0:0:0:0:
179,110,107468,1,0,0:0:0:0:
179,110,107554,1,0,0:0:0:0:
194,166,107639,1,8,0:0:0:0:
179,110,107725,1,8,0:0:0:0:
180,97,107811,1,0,0:0:0:0:
194,166,107896,1,8,0:0:0:0:
180,97,107982,1,0,0:0:0:0:
194,166,108068,1,8,0:0:0:0:
180,97,108154,1,8,0:0:0:0:
181,96,108239,1,0,0:0:0:0:
194,166,108325,1,0,0:0:0:0:
226,134,108411,1,8,0:0:0:0:
226,134,108496,1,8,0:0:0:0:
194,166,108582,1,0,0:0:0:0:
226,134,108668,1,8,0:0:0:0:
194,166,108754,1,0,0:0:0:0:
226,134,108839,1,8,0:0:0:0:
226,134,108925,1,0,0:0:0:0:
194,166,109011,1,8,0:0:0:0:
221,99,109096,1,8,0:0:0:0:
221,99,109182,1,0,0:0:0:0:
194,166,109268,1,8,0:0:0:0:
221,99,109354,1,0,0:0:0:0:
194,166,109439,1,8,0:0:0:0:
221,99,109525,1,8,0:0:0:0:
221,99,109611,1,0,0:0:0:0:
194,166,109696,1,8,0:0:0:0:
222,110,109782,1,8,0:0:0:0:
196,88,109868,1,0,0:0:0:0:
194,166,109954,1,8,0:0:0:0:
198,100,110039,1,0,0:0:0:0:
194,166,110125,1,8,0:0:0:0:
198,103,110211,1,0,0:0:0:0:
193,73,110296,1,0,0:0:0:0:
194,166,110382,1,8,0:0:0:0:
196,82,110468,1,0,0:0:0:0:
196,82,110554,1,0,0:0:0:0:
194,166,110639,1,8,0:0:0:0:
201,76,110725,1,8,0:0:0:0:
194,166,110811,1,0,0:0:0:0:
201,76,110896,1,8,0:0:0:0:
183,68,110982,1,8,0:0:0:0:
183,68,111068,1,4,0:0:0:0:
186,150,111325,1,0,0:0:0:0:
186,150,111582,1,0,0:0:0:0:
186,150,111696,1,0,0:0:0:0:
186,150,111811,1,0,0:0:0:0:
183,106,112096,1,0,0:0:0:0:
183,106,112439,1,0,0:0:0:0:
183,106,112696,1,0,0:0:0:0:
224,198,112868,1,0,0:0:0:0:
183,44,113039,1,0,0:0:0:0:
171,116,113211,1,0,0:0:0:0:
164,104,113382,1,0,0:0:0:0:
181,126,113554,1,0,0:0:0:0:
181,126,113811,1,8,0:0:0:0:
292,82,113925,1,8,0:0:0:0:
194,50,114068,1,0,0:0:0:0:
204,63,114154,1,8,0:0:0:0:
221,71,114239,1,0,0:0:0:0:
215,68,114496,1,8,0:0:0:0:
193,127,114611,1,8,0:0:0:0:
168,90,114725,1,8,0:0:0:0:
168,90,114839,1,8,0:0:0:0:
212,86,114925,1,0,0:0:0:0:
222,119,115068,1,8,0:0:0:0:
170,68,115182,1,0,0:0:0:0:
238,161,115382,1,8,0:0:0:0:
238,161,115439,1,0,0:0:0:0:
168,90,115611,1,0,0:0:0:0:
172,104,115868,1,8,0:0:0:0:
144,116,116068,1,8,0:0:0:0:
149,126,116125,1,0,0:0:0:0:
158,120,116211,1,8,0:0:0:0:
159,118,116296,1,0,0:0:0:0:
228,163,116439,1,8,0:0:0:0:
159,119,116554,1,0,0:0:0:0:
194,132,116668,1,8,0:0:0:0:
187,39,116811,1,0,0:0:0:0:
176,68,116896,1,8,0:0:0:0:
176,68,116982,1,0,0:0:0:0:
233,53,117239,1,8,0:0:0:0:
200,82,117354,1,8,0:0:0:0:
159,119,117468,1,8,0:0:0:0:
159,119,117582,1,8,0:0:0:0:
167,41,117668,1,0,0:0:0:0:
165,124,117811,1,8,0:0:0:0:
165,124,117925,1,0,0:0:0:0:
190,108,118125,1,8,0:0:0:0:
191,106,118182,1,0,0:0:0:0:
184,76,118354,1,0,0:0:0:0:
173,87,118611,1,8,0:0:0:0:
174,87,118811,1,8,0:0:0:0:
170,89,118868,1,0,0:0:0:0:
171,87,118954,1,8,0:0:0:0:
175,40,119039,1,0,0:0:0:0:
175,62,119296,1,0,0:0:0:0:
206,170,119354,1,8,0:0:0:0:
189,81,119468,1,8,0:0:0:0:
170,74,119554,1,0,0:0:0:0:
162,67,119668,1,8,0:0:0:0:
175,40,119725,1,0,0:0:0:0:
163,71,119811,1,8,0:0:0:0:
163,77,119982,1,8,0:0:0:0:
166,88,120154,1,8,0:0:0:0:
175,83,120239,1,0,0:0:0:0:
180,94,120354,1,8,0:0:0:0:
153,109,120411,1,0,0:0:0:0:
155,107,120582,1,8,0:0:0:0:
157,107,120668,1,0,0:0:0:0:
170,88,120925,1,0,0:0:0:0:
164,68,121096,1,0,0:0:0:0:
163,79,121182,1,8,0:0:0:0:
163,91,121354,1,8,0:0:0:0:
170,93,121439,1,8,0:0:0:0:
191,116,121611,1,0,0:0:0:0:
195,141,121696,1,8,0:0:0:0:
194,139,121782,1,8,0:0:0:0:
198,129,121868,1,0,0:0:0:0:
198,128,121954,1,8,0:0:0:0:
232,155,122039,1,0,0:0:0:0:
215,190,122125,1,8,0:0:0:0:
215,190,122211,1,8,0:0:0:0:
192,112,122296,1,0,0:0:0:0:
215,190,122382,1,8,0:0:0:0:
215,60,122468,1,0,0:0:0:0:
217,70,122554,1,0,0:0:0:0:
217,70,122639,1,0,0:0:0:0:
220,73,122725,1,8,0:0:0:0:
225,100,122811,1,0,0:0:0:0:
225,100,122896,1,0,0:0:0:0:
185,88,122982,1,8,0:0:0:0:
225,100,123068,1,0,0:0:0:0:
184,89,123154,1,8,0:0:0:0:
191,89,123196,1,8,0:0:0:0:
191,90,123239,1,8,0:0:0:0:
164,86,123325,1,8,0:0:0:0:
164,86,123411,1,0,0:0:0:0:
185,124,123496,1,8,0:0:0:0:
185,124,123582,1,8,0:0:0:0:
177,82,123668,1,0,0:0:0:0:
177,83,123754,1,8,0:0:0:0:
203,76,123839,1,0,0:0:0:0:
202,77,123925,1,0,0:0:0:0:
201,78,124011,1,0,0:0:0:0:
201,78,124096,1,8,0:0:0:0:
211,154,124182,1,0,0:0:0:0:
211,154,124268,1,0,0:0:0:0:
182,175,124354,1,8,0:0:0:0:
189,177,124439,1,0,0:0:0:0:
189,177,124525,1,8,0:0:0:0:
189,79,124611,1,8,0:0:0:0:
188,177,124696,1,8,0:0:0:0:
204,120,124782,1,0,0:0:0:0:
212,140,124868,1,8,0:0:0:0:
212,140,124954,1,8,0:0:0:0:
235,168,125039,1,0,0:0:0:0:
212,140,125125,1,8,0:0:0:0:
235,168,125211,1,0,0:0:0:0:
212,140,125296,1,0,0:0:0:0:
212,140,125382,1,0,0:0:0:0:
228,172,125468,1,8,0:0:0:0:
212,140,125554,1,0,0:0:0:0:
212,140,125639,1,0,0:0:0:0:
228,172,125725,1,8,0:0:0:0:
212,140,125811,1,0,0:0:0:0:
227,172,125896,1,8,0:0:0:0:
234,142,125939,1,8,0:0:0:0:
234,142,125982,1,8,0:0:0:0:
212,141,126068,1,8,0:0:0:0:
212,140,126154,1,0,0:0:0:0:
191,75,126239,1,8,0:0:0:0:
191,75,126325,1,8,0:0:0:0:
219,88,126411,1,0,0:0:0:0:
191,75,126496,1,8,0:0:0:0:
219,88,126582,1,0,0:0:0:0:
194,122,126668,1,0,0:0:0:0:
193,122,126754,1,0,0:0:0:0:
219,88,126839,1,8,0:0:0:0:
187,123,126925,1,0,0:0:0:0:
187,122,127011,1,0,0:0:0:0:
219,88,127096,1,8,0:0:0:0:
187,122,127182,1,0,0:0:0:0:
219,88,127268,1,8,0:0:0:0:
221,65,127354,1,8,0:0:0:0:
221,65,127439,1,8,0:0:0:0:
223,100,127525,1,0,0:0:0:0:
213,155,127611,1,8,0:0:0:0:
213,155,127696,1,8,0:0:0:0:
210,136,127782,1,0,0:0:0:0:
193,116,127868,1,8,0:0:0:0:
210,136,127954,1,0,0:0:0:0:
210,69,128039,1,0,0:0:0:0:
210,69,128125,1,0,0:0:0:0:
210,136,128211,1,8,0:0:0:0:
244,132,128296,1,0,0:0:0:0:
244,132,128382,1,0,0:0:0:0:
242,132,128425,1,0,0:0:0:0:
210,136,128468,1,8,0:0:0:0:
226,123,128554,1,0,0:0:0:0:
210,136,128639,1,8,0:0:0:0:
218,124,128725,1,8,0:0:0:0:
218,124,128811,1,8,0:0:0:0:
210,136,128896,1,0,0:0:0:0:
219,154,128982,1,8,0:0:0:0:
218,154,129068,1,8,0:0:0:0:
224,129,129154,1,0,0:0:0:0:
217,155,129239,1,8,0:0:0:0:
224,129,129325,1,0,0:0:0:0:
217,156,129411,1,0,0:0:0:0:
217,156,129496,1,0,0:0:0:0:
224,135,129582,1,8,0:0:0:0:
216,156,129668,1,0,0:0:0:0:
215,156,129754,1,0,0:0:0:0:
223,136,129839,1,8,0:0:0:0:
215,156,129925,1,0,0:0:0:0:
223,136,130011,1,0,0:0:0:0:
278,133,130054,1,0,0:0:0:0:
278,133,130096,1,8,0:0:0:0:
278,133,130182,1,8,0:0:0:0:
199,117,130268,1,0,0:0:0:0:
219,150,130354,1,8,0:0:0:0:
217,156,130439,1,8,0:0:0:0:
187,133,130525,1,0,0:0:0:0:
217,151,130611,1,8,0:0:0:0:
187,133,130696,1,0,0:0:0:0:
215,156,130782,1,0,0:0:0:0:
210,158,130868,1,0,0:0:0:0:
187,135,130954,1,8,0:0:0:0:
210,158,131039,1,0,0:0:0:0:
210,158,131125,1,0,0:0:0:0:
187,135,131211,1,8,0:0:0:0:
210,158,131296,1,0,0:0:0:0:
187,133,131382,1,8,0:0:0:0:
217,156,131468,1,8,0:0:0:0:
157,163,131554,1,8,0:0:0:0:
215,145,131639,1,0,0:0:0:0:
200,200,131725,1,8,0:0:0:0:
200,200,131811,1,8,0:0:0:0:
215,145,131896,1,0,0:0:0:0:
200,200,131982,1,8,0:0:0:0:
215,145,132068,1,0,0:0:0:0:
200,200,132154,1,0,0:0:0:0:
193,203,132239,1,0,0:0:0:0:
215,145,132325,1,8,0:0:0:0:
193,209,132411,1,0,0:0:0:0:
193,209,132496,1,0,0:0:0:0:
215,145,132582,1,8,0:0:0:0:
239,156,132668,1,0,0:0:0:0:
215,145,132725,1,8,0:0:0:0:
192,91,132782,1,0,0:0:0:0:
192,91,132839,1,8,0:0:0:0:
192,91,132896,1,0,0:0:0:0:
192,91,132954,1,8,0:0:0:0:
