osu file format v14

[General]
AudioFilename: audio.ogg
AudioLeadIn: 0
PreviewTime: 52830
Countdown: 0
SampleSet: Soft
StackLeniency: 0.7
Mode: 3
LetterboxInBreaks: 0
SpecialStyle: 0
WidescreenStoryboard: 1

[Editor]
DistanceSpacing: 1
BeatDivisor: 4
GridSize: 32
TimelineZoom: 2.2

[Metadata]
Title:Ruoska
TitleUnicode:Ruoska
Artist:Kaarija x Erika Vikman
ArtistUnicode:Käärijä x Erika Vikman
Creator:MocaLoca
Version:Alluminati's Hard
Source:
Tags:single finnish dance pop hip hop hip-hop rap electronic techno techno-pop whip WM warner music finland jere mikael pöyhönen poyhonen aleksi nurmi kiro johannes naukkarinen dump vocal streams tech speed jacks chordjack cj alluminati dratertd
BeatmapID:4553025
BeatmapSetID:2134791

[Difficulty]
HPDrainRate:7.5
CircleSize:4
OverallDifficulty:7.5
ApproachRate:5
SliderMultiplier:1.4
SliderTickRate:1

[Events]
//Background and Video events
0,0,"ITS CRAZY ITS PARTY.jpg",0,0
//Break Periods
//Storyboard Layer 0 (Background)
//Storyboard Layer 1 (Fail)
//Storyboard Layer 2 (Pass)
//Storyboard Layer 3 (Foreground)
//Storyboard Layer 4 (Overlay)
//Storyboard Sound Samples

[TimingPoints]
705,375,4,2,1,40,1,0
53205,-100,4,2,1,40,0,1
75705,-100,4,2,1,40,0,0
110205,-100,4,2,1,40,0,1
131205,-100,4,2,1,40,0,0
164205,-100,4,2,1,40,0,1
188205,-100,4,2,1,40,0,0

[HitObjects]
448,192,330,5,0,0:0:0:0:
448,192,517,1,0,0:0:0:0:
64,192,705,1,0,0:0:0:0:
192,192,798,1,0,0:0:0:0:
320,192,892,1,0,0:0:0:0:
192,192,1080,1,0,0:0:0:0:
192,192,1267,1,0,0:0:0:0:
448,192,1455,1,0,0:0:0:0:
320,192,1548,1,0,0:0:0:0:
192,192,1642,1,0,0:0:0:0:
64,192,1830,1,0,0:0:0:0:
320,192,2017,1,0,0:0:0:0:
448,192,2205,1,0,0:0:0:0:
448,192,2392,1,0,0:0:0:0:
64,192,2580,1,0,0:0:0:0:
64,192,2767,1,0,0:0:0:0:
192,192,2955,1,0,0:0:0:0:
320,192,3048,1,0,0:0:0:0:
448,192,3142,1,0,0:0:0:0:
192,192,3330,1,0,0:0:0:0:
192,192,3517,1,0,0:0:0:0:
448,192,3705,1,0,0:0:0:0:
64,192,3798,1,0,0:0:0:0:
320,192,3892,1,0,0:0:0:0:
192,192,4080,1,0,0:0:0:0:
192,192,4267,1,0,0:0:0:0:
64,192,4455,1,0,0:0:0:0:
448,192,4548,1,0,0:0:0:0:
192,192,4642,1,0,0:0:0:0:
320,192,4830,1,0,0:0:0:0:
64,192,5017,1,0,0:0:0:0:
448,192,5205,1,0,0:0:0:0:
448,192,5392,1,0,0:0:0:0:
192,192,5580,1,0,0:0:0:0:
192,192,5767,1,0,0:0:0:0:
448,192,5955,1,0,0:0:0:0:
320,192,6048,1,0,0:0:0:0:
192,192,6142,1,0,0:0:0:0:
64,192,6330,1,0,0:0:0:0:
64,192,6517,1,0,0:0:0:0:
320,192,6705,1,0,0:0:0:0:
192,192,6798,1,0,0:0:0:0:
448,192,6892,1,0,0:0:0:0:
64,192,7080,1,0,0:0:0:0:
192,192,7173,1,0,0:0:0:0:
320,192,7267,1,0,0:0:0:0:
448,192,7361,1,0,0:0:0:0:
192,192,7455,1,0,0:0:0:0:
64,192,7642,1,0,0:0:0:0:
448,192,7830,1,0,0:0:0:0:
448,192,8017,1,0,0:0:0:0:
192,192,8205,1,0,0:0:0:0:
320,192,8298,1,0,0:0:0:0:
64,192,8392,1,0,0:0:0:0:
448,192,8580,1,0,0:0:0:0:
320,192,8673,1,0,0:0:0:0:
192,192,8767,1,0,0:0:0:0:
448,192,8861,1,0,0:0:0:0:
64,192,8955,1,0,0:0:0:0:
320,192,9142,1,0,0:0:0:0:
448,192,9330,1,0,0:0:0:0:
192,192,9517,1,0,0:0:0:0:
320,192,9705,1,0,0:0:0:0:
64,192,9892,1,0,0:0:0:0:
192,192,10080,1,0,0:0:0:0:
192,192,10267,1,0,0:0:0:0:
320,192,10455,1,0,0:0:0:0:
64,192,10548,1,0,0:0:0:0:
192,192,10642,1,0,0:0:0:0:
448,192,10830,1,0,0:0:0:0:
192,192,11017,1,0,0:0:0:0:
64,192,11205,1,0,0:0:0:0:
192,192,11298,1,0,0:0:0:0:
320,192,11392,1,0,0:0:0:0:
448,192,11486,1,0,0:0:0:0:
64,192,11580,1,0,0:0:0:0:
320,192,11673,1,0,0:0:0:0:
192,192,11767,1,0,0:0:0:0:
64,192,11861,1,0,0:0:0:0:
448,192,11955,1,0,0:0:0:0:
448,192,12142,1,0,0:0:0:0:
320,192,12330,1,0,0:0:0:0:
320,192,12517,1,0,0:0:0:0:
192,192,12705,1,0,0:0:0:0:
64,192,12705,1,0,0:0:0:0:
448,192,12705,1,0,0:0:0:0:
64,192,12892,1,0,0:0:0:0:
320,192,13080,1,0,0:0:0:0:
448,192,13080,1,0,0:0:0:0:
192,192,13080,1,0,0:0:0:0:
448,192,13267,1,0,0:0:0:0:
192,192,13455,1,0,0:0:0:0:
192,192,13642,1,0,0:0:0:0:
448,192,13830,1,0,0:0:0:0:
448,192,14017,1,0,0:0:0:0:
192,192,14205,1,0,0:0:0:0:
64,192,14205,1,0,0:0:0:0:
320,192,14205,1,0,0:0:0:0:
64,192,14392,1,0,0:0:0:0:
320,192,14580,1,0,0:0:0:0:
448,192,14580,1,0,0:0:0:0:
192,192,14580,1,0,0:0:0:0:
448,192,14767,1,0,0:0:0:0:
64,192,14955,1,0,0:0:0:0:
320,192,15142,1,0,0:0:0:0:
448,192,15142,1,0,0:0:0:0:
320,192,15330,1,0,0:0:0:0:
448,192,15330,1,0,0:0:0:0:
320,192,15517,1,0,0:0:0:0:
448,192,15517,1,0,0:0:0:0:
192,192,15705,1,0,0:0:0:0:
64,192,15705,1,0,0:0:0:0:
320,192,15705,1,0,0:0:0:0:
192,192,15892,1,0,0:0:0:0:
64,192,16080,1,0,0:0:0:0:
448,192,16080,1,0,0:0:0:0:
320,192,16267,1,0,0:0:0:0:
448,192,16455,1,0,0:0:0:0:
192,192,16455,1,0,0:0:0:0:
448,192,16642,1,0,0:0:0:0:
64,192,16830,1,0,0:0:0:0:
192,192,16830,1,0,0:0:0:0:
192,192,17017,1,0,0:0:0:0:
448,192,17205,1,0,0:0:0:0:
64,192,17205,1,0,0:0:0:0:
448,192,17392,1,0,0:0:0:0:
64,192,17580,1,0,0:0:0:0:
192,192,17580,1,0,0:0:0:0:
192,192,17767,1,0,0:0:0:0:
448,192,17955,1,0,0:0:0:0:
64,192,17955,1,0,0:0:0:0:
320,192,18142,1,0,0:0:0:0:
448,192,18330,1,0,0:0:0:0:
64,192,18330,1,0,0:0:0:0:
192,192,18330,1,0,0:0:0:0:
320,192,18517,1,0,0:0:0:0:
64,192,18705,1,0,0:0:0:0:
192,192,18705,1,0,0:0:0:0:
64,192,18892,1,0,0:0:0:0:
192,192,19080,1,0,0:0:0:0:
320,192,19080,1,0,0:0:0:0:
448,192,19267,1,0,0:0:0:0:
64,192,19455,1,0,0:0:0:0:
192,192,19455,1,0,0:0:0:0:
64,192,19642,1,0,0:0:0:0:
320,192,19830,1,0,0:0:0:0:
192,192,19830,1,0,0:0:0:0:
320,192,20017,1,0,0:0:0:0:
192,192,20205,1,0,0:0:0:0:
64,192,20205,1,0,0:0:0:0:
64,192,20392,1,0,0:0:0:0:
192,192,20580,1,0,0:0:0:0:
320,192,20580,1,0,0:0:0:0:
320,192,20767,1,0,0:0:0:0:
64,192,20955,1,0,0:0:0:0:
192,192,20955,1,0,0:0:0:0:
448,192,21142,1,0,0:0:0:0:
320,192,21330,1,0,0:0:0:0:
64,192,21330,1,0,0:0:0:0:
192,192,21517,1,0,0:0:0:0:
64,192,21705,1,0,0:0:0:0:
448,192,21705,1,0,0:0:0:0:
320,192,21705,1,0,0:0:0:0:
448,192,21892,1,0,0:0:0:0:
64,192,22080,1,0,0:0:0:0:
192,192,22080,1,0,0:0:0:0:
320,192,22267,1,0,0:0:0:0:
64,192,22455,1,0,0:0:0:0:
448,192,22455,1,0,0:0:0:0:
448,192,22642,1,0,0:0:0:0:
192,192,22830,1,0,0:0:0:0:
64,192,22830,1,0,0:0:0:0:
192,192,23017,1,0,0:0:0:0:
64,192,23205,1,0,0:0:0:0:
448,192,23205,1,0,0:0:0:0:
448,192,23392,1,0,0:0:0:0:
64,192,23580,1,0,0:0:0:0:
192,192,23580,1,0,0:0:0:0:
192,192,23767,1,0,0:0:0:0:
448,192,23955,1,0,0:0:0:0:
64,192,23955,1,0,0:0:0:0:
320,192,24142,1,0,0:0:0:0:
64,192,24330,1,0,0:0:0:0:
192,192,24330,1,0,0:0:0:0:
448,192,24330,1,0,0:0:0:0:
320,192,24517,1,0,0:0:0:0:
192,192,24705,1,0,0:0:0:0:
64,192,24705,1,0,0:0:0:0:
192,192,24892,1,0,0:0:0:0:
64,192,25080,1,0,0:0:0:0:
320,192,25080,1,0,0:0:0:0:
448,192,25267,1,0,0:0:0:0:
320,192,25455,1,0,0:0:0:0:
192,192,25455,1,0,0:0:0:0:
320,192,25642,1,0,0:0:0:0:
448,192,25830,1,0,0:0:0:0:
64,192,25830,1,0,0:0:0:0:
64,192,26017,1,0,0:0:0:0:
320,192,26205,1,0,0:0:0:0:
320,192,26392,1,0,0:0:0:0:
192,192,26580,1,0,0:0:0:0:
64,192,26580,1,0,0:0:0:0:
64,192,26767,1,0,0:0:0:0:
448,192,26955,1,0,0:0:0:0:
192,192,27705,1,0,0:0:0:0:
320,192,28080,1,0,0:0:0:0:
320,192,28267,1,0,0:0:0:0:
64,192,28455,1,0,0:0:0:0:
64,192,28642,1,0,0:0:0:0:
448,192,28830,1,0,0:0:0:0:
320,192,28923,1,0,0:0:0:0:
192,192,29017,1,0,0:0:0:0:
448,192,29205,1,0,0:0:0:0:
448,192,29392,1,0,0:0:0:0:
64,192,29580,1,0,0:0:0:0:
64,192,29767,1,0,0:0:0:0:
320,192,29955,1,0,0:0:0:0:
320,192,30142,1,0,0:0:0:0:
192,192,30330,1,0,0:0:0:0:
192,192,30517,1,0,0:0:0:0:
448,192,30705,1,0,0:0:0:0:
64,192,30892,1,0,0:0:0:0:
320,192,31080,1,0,0:0:0:0:
320,192,31267,1,0,0:0:0:0:
448,192,31455,1,0,0:0:0:0:
448,192,31642,1,0,0:0:0:0:
192,192,31830,1,0,0:0:0:0:
192,192,32017,1,0,0:0:0:0:
320,192,32205,1,0,0:0:0:0:
448,192,32205,1,0,0:0:0:0:
64,192,32205,1,0,0:0:0:0:
192,192,32580,1,0,0:0:0:0:
64,192,32580,1,0,0:0:0:0:
448,192,32580,1,0,0:0:0:0:
320,192,32767,1,0,0:0:0:0:
448,192,32861,1,0,0:0:0:0:
192,192,32955,1,0,0:0:0:0:
192,192,33142,1,0,0:0:0:0:
64,192,33330,1,0,0:0:0:0:
320,192,33423,1,0,0:0:0:0:
64,192,33517,1,0,0:0:0:0:
448,192,33705,1,0,0:0:0:0:
192,192,33892,1,0,0:0:0:0:
320,192,34080,1,0,0:0:0:0:
320,192,34267,1,0,0:0:0:0:
64,192,34455,1,0,0:0:0:0:
64,192,34642,1,0,0:0:0:0:
448,192,34830,1,0,0:0:0:0:
448,192,35017,1,0,0:0:0:0:
192,192,35205,1,0,0:0:0:0:
192,192,35392,1,0,0:0:0:0:
64,192,35580,1,0,0:0:0:0:
64,192,35767,1,0,0:0:0:0:
320,192,35955,1,0,0:0:0:0:
192,192,36142,1,0,0:0:0:0:
448,192,36330,1,0,0:0:0:0:
448,192,36517,1,0,0:0:0:0:
192,192,36705,1,0,0:0:0:0:
192,192,36892,1,0,0:0:0:0:
320,192,37080,1,0,0:0:0:0:
448,192,37455,1,0,0:0:0:0:
448,192,37642,1,0,0:0:0:0:
192,192,37830,1,0,0:0:0:0:
192,192,38017,1,0,0:0:0:0:
448,192,38205,1,0,0:0:0:0:
64,192,38205,1,0,0:0:0:0:
320,192,38205,1,0,0:0:0:0:
192,192,38580,1,0,0:0:0:0:
64,192,38580,1,0,0:0:0:0:
448,192,38580,1,0,0:0:0:0:
448,192,38955,1,0,0:0:0:0:
192,192,39048,1,0,0:0:0:0:
448,192,39142,1,0,0:0:0:0:
64,192,39330,1,0,0:0:0:0:
192,192,39330,1,0,0:0:0:0:
320,192,39423,1,0,0:0:0:0:
64,192,39517,1,0,0:0:0:0:
320,192,39892,1,0,0:0:0:0:
192,192,40080,1,0,0:0:0:0:
64,192,40080,1,0,0:0:0:0:
192,192,40267,1,0,0:0:0:0:
448,192,40455,1,0,0:0:0:0:
448,192,40642,1,0,0:0:0:0:
64,192,40830,1,0,0:0:0:0:
320,192,40830,1,0,0:0:0:0:
64,192,41017,1,0,0:0:0:0:
192,192,41205,1,0,0:0:0:0:
192,192,41392,1,0,0:0:0:0:
448,192,41580,1,0,0:0:0:0:
64,192,41580,1,0,0:0:0:0:
448,192,41767,1,0,0:0:0:0:
320,192,41955,1,0,0:0:0:0:
320,192,42236,1,0,0:0:0:0:
192,192,42330,1,0,0:0:0:0:
64,192,42330,1,0,0:0:0:0:
448,192,42517,1,0,0:0:0:0:
64,192,42705,1,0,0:0:0:0:
64,192,42892,1,0,0:0:0:0:
192,192,43080,1,0,0:0:0:0:
320,192,43080,1,0,0:0:0:0:
320,192,43267,1,0,0:0:0:0:
192,192,43455,1,0,0:0:0:0:
192,192,43642,1,0,0:0:0:0:
448,192,43830,1,0,0:0:0:0:
64,192,43830,1,0,0:0:0:0:
448,192,44017,1,0,0:0:0:0:
320,192,44205,1,0,0:0:0:0:
320,192,44392,1,0,0:0:0:0:
64,192,44580,1,0,0:0:0:0:
448,192,44580,1,0,0:0:0:0:
64,192,44767,1,0,0:0:0:0:
320,192,44955,1,0,0:0:0:0:
320,192,45236,1,0,0:0:0:0:
448,192,45330,1,0,0:0:0:0:
64,192,45330,1,0,0:0:0:0:
192,192,45517,1,0,0:0:0:0:
448,192,45705,1,0,0:0:0:0:
320,192,45798,1,0,0:0:0:0:
192,192,45892,1,0,0:0:0:0:
320,192,45986,1,0,0:0:0:0:
448,192,46080,1,0,0:0:0:0:
64,192,46080,1,0,0:0:0:0:
192,192,46173,1,0,0:0:0:0:
320,192,46267,1,0,0:0:0:0:
64,192,46361,1,0,0:0:0:0:
448,192,46455,1,0,0:0:0:0:
192,192,46548,1,0,0:0:0:0:
320,192,46642,1,0,0:0:0:0:
64,192,46736,1,0,0:0:0:0:
192,192,46830,1,0,0:0:0:0:
448,192,46830,1,0,0:0:0:0:
320,192,46923,1,0,0:0:0:0:
64,192,47017,1,0,0:0:0:0:
192,192,47111,1,0,0:0:0:0:
448,192,47205,1,0,0:0:0:0:
64,192,47298,1,0,0:0:0:0:
320,192,47392,1,0,0:0:0:0:
448,192,47486,1,0,0:0:0:0:
192,192,47580,1,0,0:0:0:0:
64,192,47580,1,0,0:0:0:0:
320,192,47673,1,0,0:0:0:0:
448,192,47767,1,0,0:0:0:0:
64,192,47861,1,0,0:0:0:0:
320,192,47955,1,0,0:0:0:0:
192,192,48048,1,0,0:0:0:0:
64,192,48142,1,0,0:0:0:0:
448,192,48236,1,0,0:0:0:0:
320,192,48330,1,0,0:0:0:0:
192,192,48330,1,0,0:0:0:0:
64,192,48423,1,0,0:0:0:0:
448,192,48517,1,0,0:0:0:0:
320,192,48611,1,0,0:0:0:0:
64,192,48705,1,0,0:0:0:0:
192,192,48798,1,0,0:0:0:0:
320,192,48892,1,0,0:0:0:0:
448,192,48986,1,0,0:0:0:0:
192,192,49080,1,0,0:0:0:0:
64,192,49080,1,0,0:0:0:0:
320,192,49173,1,0,0:0:0:0:
448,192,49267,1,0,0:0:0:0:
192,192,49361,1,0,0:0:0:0:
320,192,49455,1,0,0:0:0:0:
64,192,49548,1,0,0:0:0:0:
192,192,49642,1,0,0:0:0:0:
448,192,49736,1,0,0:0:0:0:
320,192,49830,1,0,0:0:0:0:
64,192,49830,1,0,0:0:0:0:
192,192,49923,1,0,0:0:0:0:
320,192,50017,1,0,0:0:0:0:
448,192,50111,1,0,0:0:0:0:
64,192,50205,1,0,0:0:0:0:
320,192,50298,1,0,0:0:0:0:
192,192,50392,1,0,0:0:0:0:
64,192,50486,1,0,0:0:0:0:
320,192,50580,1,0,0:0:0:0:
448,192,50580,1,0,0:0:0:0:
192,192,50673,1,0,0:0:0:0:
64,192,50767,1,0,0:0:0:0:
448,192,50861,1,0,0:0:0:0:
192,192,50955,1,0,0:0:0:0:
64,192,51048,1,0,0:0:0:0:
448,192,51142,1,0,0:0:0:0:
320,192,51236,1,0,0:0:0:0:
192,192,51330,1,0,0:0:0:0:
64,192,51330,1,0,0:0:0:0:
448,192,51423,1,0,0:0:0:0:
320,192,51517,1,0,0:0:0:0:
192,192,51611,1,0,0:0:0:0:
64,192,51705,1,0,0:0:0:0:
320,192,51798,1,0,0:0:0:0:
192,192,51892,1,0,0:0:0:0:
448,192,51986,1,0,0:0:0:0:
320,192,52080,1,0,0:0:0:0:
192,192,52173,1,0,0:0:0:0:
64,192,52267,1,0,0:0:0:0:
320,192,52361,1,0,0:0:0:0:
448,192,52455,1,0,0:0:0:0:
192,192,52455,1,0,0:0:0:0:
64,192,52455,1,0,0:0:0:0:
192,192,52830,1,0,0:0:0:0:
192,192,53017,1,0,0:0:0:0:
320,192,53205,1,0,0:0:0:0:
448,192,53205,1,0,0:0:0:0:
64,192,53205,1,0,0:0:0:0:
192,192,53298,1,0,0:0:0:0:
64,192,53392,1,0,0:0:0:0:
448,192,53580,1,0,0:0:0:0:
320,192,53580,1,0,0:0:0:0:
448,192,53767,1,0,0:0:0:0:
320,192,53955,1,0,0:0:0:0:
64,192,53955,1,0,0:0:0:0:
192,192,54048,1,0,0:0:0:0:
64,192,54142,1,0,0:0:0:0:
320,192,54330,1,0,0:0:0:0:
448,192,54330,1,0,0:0:0:0:
64,192,54517,1,0,0:0:0:0:
448,192,54705,1,0,0:0:0:0:
192,192,54705,1,0,0:0:0:0:
192,192,54892,1,0,0:0:0:0:
320,192,55080,1,0,0:0:0:0:
448,192,55080,1,0,0:0:0:0:
320,192,55267,1,0,0:0:0:0:
448,192,55455,1,0,0:0:0:0:
64,192,55455,1,0,0:0:0:0:
320,192,55548,1,0,0:0:0:0:
192,192,55642,1,0,0:0:0:0:
448,192,55830,1,0,0:0:0:0:
320,192,55830,1,0,0:0:0:0:
320,192,56017,1,0,0:0:0:0:
64,192,56205,1,0,0:0:0:0:
192,192,56205,1,0,0:0:0:0:
320,192,56298,1,0,0:0:0:0:
448,192,56392,1,0,0:0:0:0:
320,192,56580,1,0,0:0:0:0:
64,192,56580,1,0,0:0:0:0:
64,192,56767,1,0,0:0:0:0:
448,192,56955,1,0,0:0:0:0:
320,192,56955,1,0,0:0:0:0:
64,192,57048,1,0,0:0:0:0:
192,192,57142,1,0,0:0:0:0:
448,192,57330,1,0,0:0:0:0:
64,192,57330,1,0,0:0:0:0:
320,192,57517,1,0,0:0:0:0:
192,192,57705,1,0,0:0:0:0:
448,192,57705,1,0,0:0:0:0:
192,192,57892,1,0,0:0:0:0:
320,192,58080,1,0,0:0:0:0:
64,192,58080,1,0,0:0:0:0:
320,192,58267,1,0,0:0:0:0:
448,192,58455,1,0,0:0:0:0:
64,192,58455,1,0,0:0:0:0:
320,192,58548,1,0,0:0:0:0:
192,192,58642,1,0,0:0:0:0:
448,192,58830,1,0,0:0:0:0:
320,192,58830,1,0,0:0:0:0:
448,192,59017,1,0,0:0:0:0:
320,192,59205,1,0,0:0:0:0:
64,192,59205,1,0,0:0:0:0:
448,192,59298,1,0,0:0:0:0:
192,192,59392,1,0,0:0:0:0:
448,192,59580,1,0,0:0:0:0:
64,192,59580,1,0,0:0:0:0:
192,192,59673,1,0,0:0:0:0:
320,192,59767,1,0,0:0:0:0:
192,192,59861,1,0,0:0:0:0:
64,192,59955,1,0,0:0:0:0:
448,192,59955,1,0,0:0:0:0:
320,192,59955,1,0,0:0:0:0:
192,192,60142,1,0,0:0:0:0:
448,192,60330,1,0,0:0:0:0:
320,192,60330,1,0,0:0:0:0:
320,192,60517,1,0,0:0:0:0:
448,192,60705,1,0,0:0:0:0:
192,192,60705,1,0,0:0:0:0:
64,192,60798,1,0,0:0:0:0:
320,192,60892,1,0,0:0:0:0:
192,192,61080,1,0,0:0:0:0:
64,192,61080,1,0,0:0:0:0:
320,192,61173,1,0,0:0:0:0:
448,192,61267,1,0,0:0:0:0:
192,192,61361,1,0,0:0:0:0:
320,192,61455,1,0,0:0:0:0:
64,192,61455,1,0,0:0:0:0:
448,192,61455,1,0,0:0:0:0:
192,192,61642,1,0,0:0:0:0:
64,192,61830,1,0,0:0:0:0:
448,192,61830,1,0,0:0:0:0:
320,192,62017,1,0,0:0:0:0:
448,192,62205,1,0,0:0:0:0:
192,192,62205,1,0,0:0:0:0:
64,192,62392,1,0,0:0:0:0:
320,192,62580,1,0,0:0:0:0:
448,192,62580,1,0,0:0:0:0:
320,192,62767,1,0,0:0:0:0:
448,192,62955,1,0,0:0:0:0:
64,192,62955,1,0,0:0:0:0:
320,192,63048,1,0,0:0:0:0:
192,192,63142,1,0,0:0:0:0:
448,192,63330,1,0,0:0:0:0:
64,192,63330,1,0,0:0:0:0:
320,192,63517,1,0,0:0:0:0:
192,192,63705,1,0,0:0:0:0:
64,192,63705,1,0,0:0:0:0:
320,192,63798,1,0,0:0:0:0:
448,192,63892,1,0,0:0:0:0:
192,192,63986,1,0,0:0:0:0:
320,192,64080,1,0,0:0:0:0:
64,192,64080,1,0,0:0:0:0:
448,192,64173,1,0,0:0:0:0:
64,192,64267,1,0,0:0:0:0:
192,192,64361,1,0,0:0:0:0:
320,192,64455,1,0,0:0:0:0:
448,192,64455,1,0,0:0:0:0:
192,192,64548,1,0,0:0:0:0:
64,192,64642,1,0,0:0:0:0:
448,192,64830,1,0,0:0:0:0:
320,192,64830,1,0,0:0:0:0:
320,192,65017,1,0,0:0:0:0:
448,192,65017,1,0,0:0:0:0:
192,192,65205,1,0,0:0:0:0:
64,192,65205,1,0,0:0:0:0:
320,192,65205,1,0,0:0:0:0:
448,192,65298,1,0,0:0:0:0:
64,192,65392,1,0,0:0:0:0:
192,192,65580,1,0,0:0:0:0:
320,192,65580,1,0,0:0:0:0:
192,192,65767,1,0,0:0:0:0:
448,192,65955,1,0,0:0:0:0:
320,192,65955,1,0,0:0:0:0:
192,192,66048,1,0,0:0:0:0:
64,192,66142,1,0,0:0:0:0:
448,192,66330,1,0,0:0:0:0:
192,192,66330,1,0,0:0:0:0:
192,192,66517,1,0,0:0:0:0:
320,192,66705,1,0,0:0:0:0:
448,192,66705,1,0,0:0:0:0:
320,192,66892,1,0,0:0:0:0:
448,192,67080,1,0,0:0:0:0:
64,192,67080,1,0,0:0:0:0:
448,192,67267,1,0,0:0:0:0:
192,192,67455,1,0,0:0:0:0:
64,192,67455,1,0,0:0:0:0:
448,192,67548,1,0,0:0:0:0:
320,192,67642,1,0,0:0:0:0:
448,192,67830,1,0,0:0:0:0:
64,192,67830,1,0,0:0:0:0:
448,192,68017,1,0,0:0:0:0:
192,192,68205,1,0,0:0:0:0:
64,192,68205,1,0,0:0:0:0:
320,192,68298,1,0,0:0:0:0:
448,192,68392,1,0,0:0:0:0:
64,192,68580,1,0,0:0:0:0:
320,192,68580,1,0,0:0:0:0:
64,192,68767,1,0,0:0:0:0:
192,192,68955,1,0,0:0:0:0:
320,192,68955,1,0,0:0:0:0:
320,192,69142,1,0,0:0:0:0:
448,192,69330,1,0,0:0:0:0:
192,192,69330,1,0,0:0:0:0:
192,192,69517,1,0,0:0:0:0:
320,192,69705,1,0,0:0:0:0:
448,192,69705,1,0,0:0:0:0:
192,192,69798,1,0,0:0:0:0:
64,192,69892,1,0,0:0:0:0:
448,192,70080,1,0,0:0:0:0:
320,192,70080,1,0,0:0:0:0:
64,192,70173,1,0,0:0:0:0:
192,192,70267,1,0,0:0:0:0:
448,192,70455,1,0,0:0:0:0:
64,192,70455,1,0,0:0:0:0:
192,192,70548,1,0,0:0:0:0:
320,192,70642,1,0,0:0:0:0:
192,192,70830,1,0,0:0:0:0:
64,192,70830,1,0,0:0:0:0:
192,192,71017,1,0,0:0:0:0:
448,192,71205,1,0,0:0:0:0:
64,192,71205,1,0,0:0:0:0:
192,192,71298,1,0,0:0:0:0:
320,192,71392,1,0,0:0:0:0:
192,192,71580,1,0,0:0:0:0:
64,192,71580,1,0,0:0:0:0:
448,192,71673,1,0,0:0:0:0:
320,192,71767,1,0,0:0:0:0:
192,192,71861,1,0,0:0:0:0:
448,192,71955,1,0,0:0:0:0:
64,192,71955,1,0,0:0:0:0:
320,192,71955,1,0,0:0:0:0:
192,192,72142,1,0,0:0:0:0:
64,192,72330,1,0,0:0:0:0:
448,192,72330,1,0,0:0:0:0:
448,192,72517,1,0,0:0:0:0:
320,192,72705,1,0,0:0:0:0:
192,192,72705,1,0,0:0:0:0:
448,192,72798,1,0,0:0:0:0:
64,192,72892,1,0,0:0:0:0:
448,192,73080,1,0,0:0:0:0:
192,192,73080,1,0,0:0:0:0:
64,192,73173,1,0,0:0:0:0:
448,192,73267,1,0,0:0:0:0:
320,192,73361,1,0,0:0:0:0:
192,192,73455,1,0,0:0:0:0:
64,192,73455,1,0,0:0:0:0:
448,192,73455,1,0,0:0:0:0:
320,192,73642,1,0,0:0:0:0:
448,192,73830,1,0,0:0:0:0:
64,192,73830,1,0,0:0:0:0:
192,192,74017,1,0,0:0:0:0:
448,192,74205,1,0,0:0:0:0:
320,192,74392,1,0,0:0:0:0:
192,192,74580,1,0,0:0:0:0:
448,192,74580,1,0,0:0:0:0:
192,192,74767,1,0,0:0:0:0:
320,192,74955,1,0,0:0:0:0:
192,192,75048,1,0,0:0:0:0:
64,192,75142,1,0,0:0:0:0:
448,192,75330,1,0,0:0:0:0:
320,192,75330,1,0,0:0:0:0:
192,192,75517,1,0,0:0:0:0:
448,192,75705,1,0,0:0:0:0:
64,192,75798,1,0,0:0:0:0:
192,192,75892,1,0,0:0:0:0:
320,192,75986,1,0,0:0:0:0:
448,192,76080,1,0,0:0:0:0:
448,192,76267,1,0,0:0:0:0:
64,192,76455,1,0,0:0:0:0:
64,192,76642,1,0,0:0:0:0:
448,192,76830,1,0,0:0:0:0:
320,192,76830,1,0,0:0:0:0:
448,192,77017,1,0,0:0:0:0:
320,192,77017,1,0,0:0:0:0:
320,192,77205,1,0,0:0:0:0:
64,192,77205,1,0,0:0:0:0:
192,192,77205,1,0,0:0:0:0:
192,192,77392,1,0,0:0:0:0:
448,192,77580,1,0,0:0:0:0:
64,192,77580,1,0,0:0:0:0:
320,192,77767,1,0,0:0:0:0:
192,192,77955,1,0,0:0:0:0:
448,192,77955,1,0,0:0:0:0:
448,192,78142,1,0,0:0:0:0:
320,192,78330,1,0,0:0:0:0:
64,192,78330,1,0,0:0:0:0:
64,192,78517,1,0,0:0:0:0:
448,192,78705,1,0,0:0:0:0:
192,192,78705,1,0,0:0:0:0:
448,192,78892,1,0,0:0:0:0:
320,192,79080,1,0,0:0:0:0:
64,192,79080,1,0,0:0:0:0:
64,192,79267,1,0,0:0:0:0:
448,192,79455,1,0,0:0:0:0:
192,192,79455,1,0,0:0:0:0:
320,192,79642,1,0,0:0:0:0:
448,192,79830,1,0,0:0:0:0:
64,192,79830,1,0,0:0:0:0:
192,192,79830,1,0,0:0:0:0:
320,192,80017,1,0,0:0:0:0:
64,192,80205,1,0,0:0:0:0:
192,192,80205,1,0,0:0:0:0:
192,192,80392,1,0,0:0:0:0:
448,192,80580,1,0,0:0:0:0:
64,192,80580,1,0,0:0:0:0:
320,192,80767,1,0,0:0:0:0:
64,192,80955,1,0,0:0:0:0:
448,192,80955,1,0,0:0:0:0:
448,192,81142,1,0,0:0:0:0:
320,192,81330,1,0,0:0:0:0:
192,192,81330,1,0,0:0:0:0:
192,192,81517,1,0,0:0:0:0:
448,192,81705,1,0,0:0:0:0:
448,192,81892,1,0,0:0:0:0:
192,192,82080,1,0,0:0:0:0:
320,192,82080,1,0,0:0:0:0:
192,192,82267,1,0,0:0:0:0:
320,192,82455,1,0,0:0:0:0:
64,192,82455,1,0,0:0:0:0:
448,192,82455,1,0,0:0:0:0:
192,192,82830,1,0,0:0:0:0:
64,192,83205,1,0,0:0:0:0:
192,192,83392,1,0,0:0:0:0:
448,192,83580,1,0,0:0:0:0:
448,192,83767,1,0,0:0:0:0:
320,192,83955,1,0,0:0:0:0:
320,192,84142,1,0,0:0:0:0:
192,192,84330,1,0,0:0:0:0:
192,192,84517,1,0,0:0:0:0:
448,192,84705,1,0,0:0:0:0:
448,192,84892,1,0,0:0:0:0:
64,192,85080,1,0,0:0:0:0:
64,192,85267,1,0,0:0:0:0:
320,192,85455,1,0,0:0:0:0:
192,192,85548,1,0,0:0:0:0:
64,192,85642,1,0,0:0:0:0:
448,192,85830,1,0,0:0:0:0:
448,192,86017,1,0,0:0:0:0:
64,192,86205,1,0,0:0:0:0:
320,192,86392,1,0,0:0:0:0:
192,192,86580,1,0,0:0:0:0:
192,192,86767,1,0,0:0:0:0:
448,192,86955,1,0,0:0:0:0:
448,192,87142,1,0,0:0:0:0:
64,192,87330,1,0,0:0:0:0:
64,192,87517,1,0,0:0:0:0:
448,192,87705,1,0,0:0:0:0:
320,192,87705,1,0,0:0:0:0:
192,192,87705,1,0,0:0:0:0:
320,192,88080,1,0,0:0:0:0:
192,192,88080,1,0,0:0:0:0:
64,192,88080,1,0,0:0:0:0:
448,192,88267,1,0,0:0:0:0:
192,192,88455,1,0,0:0:0:0:
320,192,88548,1,0,0:0:0:0:
192,192,88642,1,0,0:0:0:0:
320,192,88830,1,0,0:0:0:0:
64,192,88923,1,0,0:0:0:0:
320,192,89017,1,0,0:0:0:0:
64,192,89205,1,0,0:0:0:0:
448,192,89392,1,0,0:0:0:0:
320,192,89580,1,0,0:0:0:0:
320,192,89767,1,0,0:0:0:0:
64,192,89955,1,0,0:0:0:0:
64,192,90142,1,0,0:0:0:0:
192,192,90330,1,0,0:0:0:0:
192,192,90517,1,0,0:0:0:0:
448,192,90705,1,0,0:0:0:0:
448,192,90892,1,0,0:0:0:0:
64,192,91080,1,0,0:0:0:0:
64,192,91267,1,0,0:0:0:0:
320,192,91455,1,0,0:0:0:0:
320,192,91736,1,0,0:0:0:0:
192,192,91830,1,0,0:0:0:0:
64,192,92017,1,0,0:0:0:0:
192,192,92111,1,0,0:0:0:0:
448,192,92205,1,0,0:0:0:0:
64,192,92205,1,0,0:0:0:0:
320,192,92205,1,0,0:0:0:0:
192,192,92392,1,0,0:0:0:0:
320,192,92580,1,0,0:0:0:0:
320,192,92767,1,0,0:0:0:0:
448,192,92955,1,0,0:0:0:0:
448,192,93142,1,0,0:0:0:0:
64,192,93330,1,0,0:0:0:0:
64,192,93517,1,0,0:0:0:0:
320,192,93705,1,0,0:0:0:0:
320,192,93892,1,0,0:0:0:0:
192,192,94080,1,0,0:0:0:0:
192,192,94267,1,0,0:0:0:0:
448,192,94455,1,0,0:0:0:0:
448,192,94736,1,0,0:0:0:0:
64,192,94830,1,0,0:0:0:0:
320,192,95017,1,0,0:0:0:0:
192,192,95205,1,0,0:0:0:0:
64,192,95205,1,0,0:0:0:0:
448,192,95392,1,0,0:0:0:0:
320,192,95486,1,0,0:0:0:0:
64,192,95580,1,0,0:0:0:0:
192,192,95580,1,0,0:0:0:0:
192,192,95767,1,0,0:0:0:0:
448,192,95955,1,0,0:0:0:0:
448,192,96142,1,0,0:0:0:0:
320,192,96330,1,0,0:0:0:0:
192,192,96330,1,0,0:0:0:0:
320,192,96517,1,0,0:0:0:0:
64,192,96705,1,0,0:0:0:0:
320,192,96986,1,0,0:0:0:0:
448,192,97080,1,0,0:0:0:0:
192,192,97080,1,0,0:0:0:0:
64,192,97267,1,0,0:0:0:0:
320,192,97455,1,0,0:0:0:0:
192,192,97736,1,0,0:0:0:0:
448,192,97830,1,0,0:0:0:0:
64,192,97830,1,0,0:0:0:0:
320,192,98017,1,0,0:0:0:0:
192,192,98205,1,0,0:0:0:0:
448,192,98392,1,0,0:0:0:0:
64,192,98486,1,0,0:0:0:0:
320,192,98580,1,0,0:0:0:0:
192,192,98580,1,0,0:0:0:0:
320,192,98767,1,0,0:0:0:0:
64,192,98955,1,0,0:0:0:0:
64,192,99142,1,0,0:0:0:0:
448,192,99330,1,0,0:0:0:0:
192,192,99330,1,0,0:0:0:0:
448,192,99517,1,0,0:0:0:0:
320,192,99705,1,0,0:0:0:0:
320,192,99892,1,0,0:0:0:0:
64,192,100080,1,0,0:0:0:0:
192,192,100080,1,0,0:0:0:0:
64,192,100267,1,0,0:0:0:0:
448,192,100455,1,0,0:0:0:0:
448,192,100736,1,0,0:0:0:0:
192,192,100830,1,0,0:0:0:0:
64,192,100830,1,0,0:0:0:0:
320,192,101017,1,0,0:0:0:0:
64,192,101205,1,0,0:0:0:0:
448,192,101392,1,0,0:0:0:0:
320,192,101486,1,0,0:0:0:0:
192,192,101580,1,0,0:0:0:0:
64,192,101580,1,0,0:0:0:0:
192,192,101767,1,0,0:0:0:0:
320,192,101955,1,0,0:0:0:0:
320,192,102142,1,0,0:0:0:0:
448,192,102330,1,0,0:0:0:0:
64,192,102330,1,0,0:0:0:0:
448,192,102517,1,0,0:0:0:0:
320,192,102705,1,0,0:0:0:0:
320,192,102892,1,0,0:0:0:0:
448,192,103080,1,0,0:0:0:0:
64,192,103080,1,0,0:0:0:0:
64,192,103267,1,0,0:0:0:0:
192,192,103455,1,0,0:0:0:0:
192,192,103736,1,0,0:0:0:0:
320,192,103830,1,0,0:0:0:0:
448,192,103830,1,0,0:0:0:0:
64,192,104017,1,0,0:0:0:0:
448,192,104205,1,0,0:0:0:0:
192,192,104298,1,0,0:0:0:0:
320,192,104392,1,0,0:0:0:0:
448,192,104486,1,0,0:0:0:0:
192,192,104580,1,0,0:0:0:0:
64,192,104580,1,0,0:0:0:0:
320,192,104673,1,0,0:0:0:0:
448,192,104767,1,0,0:0:0:0:
192,192,104861,1,0,0:0:0:0:
64,192,104955,1,0,0:0:0:0:
320,192,105048,1,0,0:0:0:0:
192,192,105142,1,0,0:0:0:0:
320,192,105236,1,0,0:0:0:0:
448,192,105330,1,0,0:0:0:0:
64,192,105330,1,0,0:0:0:0:
192,192,105423,1,0,0:0:0:0:
320,192,105517,1,0,0:0:0:0:
448,192,105611,1,0,0:0:0:0:
64,192,105705,1,0,0:0:0:0:
192,192,105798,1,0,0:0:0:0:
320,192,105892,1,0,0:0:0:0:
448,192,105986,1,0,0:0:0:0:
64,192,106080,1,0,0:0:0:0:
192,192,106080,1,0,0:0:0:0:
320,192,106173,1,0,0:0:0:0:
448,192,106267,1,0,0:0:0:0:
64,192,106361,1,0,0:0:0:0:
192,192,106455,1,0,0:0:0:0:
320,192,106548,1,0,0:0:0:0:
64,192,106642,1,0,0:0:0:0:
192,192,106736,1,0,0:0:0:0:
448,192,106830,1,0,0:0:0:0:
320,192,106830,1,0,0:0:0:0:
192,192,106923,1,0,0:0:0:0:
64,192,107017,1,0,0:0:0:0:
448,192,107111,1,0,0:0:0:0:
192,192,107205,1,0,0:0:0:0:
64,192,107298,1,0,0:0:0:0:
320,192,107392,1,0,0:0:0:0:
192,192,107486,1,0,0:0:0:0:
448,192,107580,1,0,0:0:0:0:
320,192,107673,1,0,0:0:0:0:
192,192,107767,1,0,0:0:0:0:
64,192,107861,1,0,0:0:0:0:
448,192,107955,1,0,0:0:0:0:
320,192,108048,1,0,0:0:0:0:
192,192,108142,1,0,0:0:0:0:
320,192,108236,1,0,0:0:0:0:
64,192,108330,1,0,0:0:0:0:
192,192,108423,1,0,0:0:0:0:
448,192,108517,1,0,0:0:0:0:
320,192,108611,1,0,0:0:0:0:
64,192,108705,1,0,0:0:0:0:
448,192,108798,1,0,0:0:0:0:
64,192,108892,1,0,0:0:0:0:
320,192,108986,1,0,0:0:0:0:
192,192,109080,1,0,0:0:0:0:
320,192,109173,1,0,0:0:0:0:
448,192,109267,1,0,0:0:0:0:
64,192,109361,1,0,0:0:0:0:
192,192,109455,1,0,0:0:0:0:
448,192,109455,1,0,0:0:0:0:
320,192,109455,1,0,0:0:0:0:
320,192,109830,1,0,0:0:0:0:
320,192,110017,1,0,0:0:0:0:
192,192,110205,1,0,0:0:0:0:
64,192,110205,1,0,0:0:0:0:
448,192,110205,1,0,0:0:0:0:
320,192,110298,1,0,0:0:0:0:
448,192,110392,1,0,0:0:0:0:
192,192,110580,1,0,0:0:0:0:
64,192,110580,1,0,0:0:0:0:
192,192,110767,1,0,0:0:0:0:
448,192,110955,1,0,0:0:0:0:
64,192,110955,1,0,0:0:0:0:
192,192,111048,1,0,0:0:0:0:
320,192,111142,1,0,0:0:0:0:
192,192,111330,1,0,0:0:0:0:
64,192,111330,1,0,0:0:0:0:
320,192,111517,1,0,0:0:0:0:
448,192,111705,1,0,0:0:0:0:
64,192,111705,1,0,0:0:0:0:
448,192,111892,1,0,0:0:0:0:
320,192,112080,1,0,0:0:0:0:
192,192,112080,1,0,0:0:0:0:
192,192,112267,1,0,0:0:0:0:
320,192,112455,1,0,0:0:0:0:
448,192,112455,1,0,0:0:0:0:
192,192,112548,1,0,0:0:0:0:
64,192,112642,1,0,0:0:0:0:
448,192,112830,1,0,0:0:0:0:
192,192,112830,1,0,0:0:0:0:
192,192,113017,1,0,0:0:0:0:
320,192,113205,1,0,0:0:0:0:
448,192,113205,1,0,0:0:0:0:
192,192,113298,1,0,0:0:0:0:
64,192,113392,1,0,0:0:0:0:
448,192,113580,1,0,0:0:0:0:
192,192,113580,1,0,0:0:0:0:
448,192,113767,1,0,0:0:0:0:
320,192,113955,1,0,0:0:0:0:
192,192,113955,1,0,0:0:0:0:
448,192,114048,1,0,0:0:0:0:
64,192,114142,1,0,0:0:0:0:
320,192,114330,1,0,0:0:0:0:
448,192,114330,1,0,0:0:0:0:
192,192,114517,1,0,0:0:0:0:
320,192,114705,1,0,0:0:0:0:
64,192,114705,1,0,0:0:0:0:
320,192,114892,1,0,0:0:0:0:
64,192,115080,1,0,0:0:0:0:
192,192,115080,1,0,0:0:0:0:
192,192,115267,1,0,0:0:0:0:
448,192,115455,1,0,0:0:0:0:
64,192,115455,1,0,0:0:0:0:
192,192,115548,1,0,0:0:0:0:
320,192,115642,1,0,0:0:0:0:
192,192,115830,1,0,0:0:0:0:
64,192,115830,1,0,0:0:0:0:
64,192,116017,1,0,0:0:0:0:
448,192,116205,1,0,0:0:0:0:
320,192,116205,1,0,0:0:0:0:
64,192,116298,1,0,0:0:0:0:
192,192,116392,1,0,0:0:0:0:
320,192,116580,1,0,0:0:0:0:
64,192,116580,1,0,0:0:0:0:
192,192,116673,1,0,0:0:0:0:
448,192,116767,1,0,0:0:0:0:
320,192,116861,1,0,0:0:0:0:
192,192,116955,1,0,0:0:0:0:
64,192,116955,1,0,0:0:0:0:
448,192,116955,1,0,0:0:0:0:
320,192,117142,1,0,0:0:0:0:
192,192,117330,1,0,0:0:0:0:
64,192,117330,1,0,0:0:0:0:
192,192,117517,1,0,0:0:0:0:
320,192,117705,1,0,0:0:0:0:
448,192,117705,1,0,0:0:0:0:
192,192,117798,1,0,0:0:0:0:
64,192,117892,1,0,0:0:0:0:
192,192,118080,1,0,0:0:0:0:
320,192,118080,1,0,0:0:0:0:
64,192,118173,1,0,0:0:0:0:
448,192,118267,1,0,0:0:0:0:
320,192,118361,1,0,0:0:0:0:
64,192,118455,1,0,0:0:0:0:
192,192,118455,1,0,0:0:0:0:
448,192,118455,1,0,0:0:0:0:
320,192,118642,1,0,0:0:0:0:
192,192,118830,1,0,0:0:0:0:
64,192,118830,1,0,0:0:0:0:
320,192,119017,1,0,0:0:0:0:
448,192,119205,1,0,0:0:0:0:
64,192,119205,1,0,0:0:0:0:
192,192,119392,1,0,0:0:0:0:
320,192,119580,1,0,0:0:0:0:
448,192,119580,1,0,0:0:0:0:
320,192,119767,1,0,0:0:0:0:
64,192,119955,1,0,0:0:0:0:
448,192,119955,1,0,0:0:0:0:
320,192,120048,1,0,0:0:0:0:
192,192,120142,1,0,0:0:0:0:
320,192,120330,1,0,0:0:0:0:
448,192,120330,1,0,0:0:0:0:
192,192,120517,1,0,0:0:0:0:
448,192,120705,1,0,0:0:0:0:
64,192,120705,1,0,0:0:0:0:
192,192,120798,1,0,0:0:0:0:
320,192,120892,1,0,0:0:0:0:
448,192,120986,1,0,0:0:0:0:
192,192,121080,1,0,0:0:0:0:
64,192,121080,1,0,0:0:0:0:
192,192,121267,1,0,0:0:0:0:
64,192,121267,1,0,0:0:0:0:
320,192,121455,1,0,0:0:0:0:
448,192,121455,1,0,0:0:0:0:
320,192,121642,1,0,0:0:0:0:
448,192,121642,1,0,0:0:0:0:
64,192,121830,1,0,0:0:0:0:
448,192,121830,1,0,0:0:0:0:
64,192,122017,1,0,0:0:0:0:
448,192,122017,1,0,0:0:0:0:
320,192,122205,1,0,0:0:0:0:
192,192,122205,1,0,0:0:0:0:
64,192,122205,1,0,0:0:0:0:
448,192,122298,1,0,0:0:0:0:
192,192,122392,1,0,0:0:0:0:
64,192,122580,1,0,0:0:0:0:
320,192,122580,1,0,0:0:0:0:
64,192,122767,1,0,0:0:0:0:
320,192,122955,1,0,0:0:0:0:
448,192,122955,1,0,0:0:0:0:
192,192,123048,1,0,0:0:0:0:
64,192,123142,1,0,0:0:0:0:
192,192,123330,1,0,0:0:0:0:
448,192,123330,1,0,0:0:0:0:
192,192,123517,1,0,0:0:0:0:
320,192,123705,1,0,0:0:0:0:
448,192,123705,1,0,0:0:0:0:
320,192,123892,1,0,0:0:0:0:
448,192,124080,1,0,0:0:0:0:
64,192,124080,1,0,0:0:0:0:
448,192,124267,1,0,0:0:0:0:
192,192,124455,1,0,0:0:0:0:
64,192,124455,1,0,0:0:0:0:
448,192,124548,1,0,0:0:0:0:
320,192,124642,1,0,0:0:0:0:
448,192,124830,1,0,0:0:0:0:
64,192,124830,1,0,0:0:0:0:
64,192,125017,1,0,0:0:0:0:
448,192,125205,1,0,0:0:0:0:
320,192,125205,1,0,0:0:0:0:
64,192,125298,1,0,0:0:0:0:
192,192,125392,1,0,0:0:0:0:
448,192,125580,1,0,0:0:0:0:
64,192,125580,1,0,0:0:0:0:
448,192,125767,1,0,0:0:0:0:
320,192,125955,1,0,0:0:0:0:
192,192,125955,1,0,0:0:0:0:
320,192,126142,1,0,0:0:0:0:
448,192,126330,1,0,0:0:0:0:
192,192,126330,1,0,0:0:0:0:
192,192,126517,1,0,0:0:0:0:
448,192,126705,1,0,0:0:0:0:
64,192,126705,1,0,0:0:0:0:
192,192,126798,1,0,0:0:0:0:
320,192,126892,1,0,0:0:0:0:
192,192,127080,1,0,0:0:0:0:
64,192,127080,1,0,0:0:0:0:
448,192,127173,1,0,0:0:0:0:
320,192,127267,1,0,0:0:0:0:
448,192,127455,1,0,0:0:0:0:
64,192,127455,1,0,0:0:0:0:
320,192,127548,1,0,0:0:0:0:
192,192,127642,1,0,0:0:0:0:
320,192,127830,1,0,0:0:0:0:
448,192,127830,1,0,0:0:0:0:
320,192,128017,1,0,0:0:0:0:
448,192,128205,1,0,0:0:0:0:
64,192,128205,1,0,0:0:0:0:
320,192,128298,1,0,0:0:0:0:
192,192,128392,1,0,0:0:0:0:
448,192,128580,1,0,0:0:0:0:
64,192,128580,1,0,0:0:0:0:
192,192,128673,1,0,0:0:0:0:
320,192,128767,1,0,0:0:0:0:
448,192,128861,1,0,0:0:0:0:
192,192,128955,1,0,0:0:0:0:
64,192,128955,1,0,0:0:0:0:
320,192,128955,1,0,0:0:0:0:
448,192,129142,1,0,0:0:0:0:
192,192,129330,1,0,0:0:0:0:
64,192,129330,1,0,0:0:0:0:
192,192,129517,1,0,0:0:0:0:
448,192,129705,1,0,0:0:0:0:
64,192,129705,1,0,0:0:0:0:
192,192,129798,1,0,0:0:0:0:
320,192,129892,1,0,0:0:0:0:
448,192,130080,1,0,0:0:0:0:
192,192,130080,1,0,0:0:0:0:
320,192,130173,1,0,0:0:0:0:
64,192,130267,1,0,0:0:0:0:
192,192,130361,1,0,0:0:0:0:
320,192,130455,1,0,0:0:0:0:
448,192,130455,1,0,0:0:0:0:
64,192,130455,1,0,0:0:0:0:
192,192,130642,1,0,0:0:0:0:
448,192,130830,1,0,0:0:0:0:
320,192,130830,1,0,0:0:0:0:
64,192,131017,1,0,0:0:0:0:
192,192,131205,1,0,0:0:0:0:
320,192,131392,1,0,0:0:0:0:
64,192,131580,1,0,0:0:0:0:
64,192,131767,1,0,0:0:0:0:
448,192,131955,1,0,0:0:0:0:
192,192,132048,1,0,0:0:0:0:
64,192,132142,1,0,0:0:0:0:
320,192,132330,1,0,0:0:0:0:
448,192,132517,1,0,0:0:0:0:
192,192,132705,1,0,0:0:0:0:
320,192,132798,1,0,0:0:0:0:
192,192,132892,1,0,0:0:0:0:
192,192,133080,1,0,0:0:0:0:
192,192,133267,1,0,0:0:0:0:
192,192,133455,1,0,0:0:0:0:
192,192,133642,1,0,0:0:0:0:
192,192,133830,1,0,0:0:0:0:
192,192,134017,1,0,0:0:0:0:
448,192,134205,1,0,0:0:0:0:
448,192,134392,1,0,0:0:0:0:
64,192,134580,1,0,0:0:0:0:
64,192,134767,1,0,0:0:0:0:
320,192,134955,1,0,0:0:0:0:
320,192,135142,1,0,0:0:0:0:
192,192,135330,1,0,0:0:0:0:
192,192,135517,1,0,0:0:0:0:
448,192,135705,1,0,0:0:0:0:
64,192,135705,1,0,0:0:0:0:
192,192,135798,1,0,0:0:0:0:
320,192,135892,1,0,0:0:0:0:
64,192,135986,1,0,0:0:0:0:
448,192,136080,1,0,0:0:0:0:
192,192,136080,1,0,0:0:0:0:
320,192,136173,1,0,0:0:0:0:
448,192,136267,1,0,0:0:0:0:
64,192,136361,1,0,0:0:0:0:
320,192,136455,1,0,0:0:0:0:
192,192,136548,1,0,0:0:0:0:
448,192,136642,1,0,0:0:0:0:
320,192,136736,1,0,0:0:0:0:
192,192,136830,1,0,0:0:0:0:
64,192,136923,1,0,0:0:0:0:
320,192,137017,1,0,0:0:0:0:
192,192,137111,1,0,0:0:0:0:
320,192,137205,1,0,0:0:0:0:
448,192,137205,1,0,0:0:0:0:
64,192,137298,1,0,0:0:0:0:
192,192,137392,1,0,0:0:0:0:
320,192,137486,1,0,0:0:0:0:
64,192,137580,1,0,0:0:0:0:
448,192,137580,1,0,0:0:0:0:
192,192,137673,1,0,0:0:0:0:
320,192,137767,1,0,0:0:0:0:
448,192,137861,1,0,0:0:0:0:
192,192,137955,1,0,0:0:0:0:
320,192,138048,1,0,0:0:0:0:
192,192,138142,1,0,0:0:0:0:
192,192,138330,1,0,0:0:0:0:
192,192,138517,1,0,0:0:0:0:
448,192,138705,1,0,0:0:0:0:
64,192,138705,1,0,0:0:0:0:
320,192,138705,1,0,0:0:0:0:
320,192,138892,1,0,0:0:0:0:
192,192,139080,1,0,0:0:0:0:
64,192,139267,1,0,0:0:0:0:
448,192,139455,1,0,0:0:0:0:
192,192,139455,1,0,0:0:0:0:
448,192,139642,1,0,0:0:0:0:
448,192,139830,1,0,0:0:0:0:
448,192,140017,1,0,0:0:0:0:
64,192,140017,1,0,0:0:0:0:
448,192,140205,1,0,0:0:0:0:
192,192,140298,1,0,0:0:0:0:
320,192,140392,1,0,0:0:0:0:
320,192,140580,1,0,0:0:0:0:
64,192,140580,1,0,0:0:0:0:
320,192,140767,1,0,0:0:0:0:
320,192,140955,1,0,0:0:0:0:
192,192,140955,1,0,0:0:0:0:
320,192,141142,1,0,0:0:0:0:
64,192,141330,1,0,0:0:0:0:
192,192,141423,1,0,0:0:0:0:
320,192,141517,1,0,0:0:0:0:
192,192,141705,1,0,0:0:0:0:
64,192,141705,1,0,0:0:0:0:
448,192,141705,1,0,0:0:0:0:
192,192,141892,1,0,0:0:0:0:
320,192,142080,1,0,0:0:0:0:
448,192,142267,1,0,0:0:0:0:
320,192,142455,1,0,0:0:0:0:
64,192,142455,1,0,0:0:0:0:
64,192,142642,1,0,0:0:0:0:
64,192,142830,1,0,0:0:0:0:
64,192,143017,1,0,0:0:0:0:
448,192,143017,1,0,0:0:0:0:
64,192,143205,1,0,0:0:0:0:
320,192,143298,1,0,0:0:0:0:
192,192,143392,1,0,0:0:0:0:
192,192,143580,1,0,0:0:0:0:
448,192,143580,1,0,0:0:0:0:
192,192,143767,1,0,0:0:0:0:
448,192,143767,1,0,0:0:0:0:
320,192,143955,1,0,0:0:0:0:
448,192,143955,1,0,0:0:0:0:
192,192,144048,1,0,0:0:0:0:
64,192,144142,1,0,0:0:0:0:
448,192,144236,1,0,0:0:0:0:
320,192,144330,1,0,0:0:0:0:
192,192,144423,1,0,0:0:0:0:
64,192,144517,1,0,0:0:0:0:
320,192,144611,1,0,0:0:0:0:
448,192,144705,1,0,0:0:0:0:
192,192,144705,1,0,0:0:0:0:
64,192,144705,1,0,0:0:0:0:
448,192,144892,1,0,0:0:0:0:
64,192,145080,1,0,0:0:0:0:
320,192,145267,1,0,0:0:0:0:
192,192,145455,1,0,0:0:0:0:
64,192,145455,1,0,0:0:0:0:
448,192,145548,1,0,0:0:0:0:
320,192,145642,1,0,0:0:0:0:
192,192,145736,1,0,0:0:0:0:
64,192,145830,1,0,0:0:0:0:
448,192,145923,1,0,0:0:0:0:
320,192,146017,1,0,0:0:0:0:
192,192,146111,1,0,0:0:0:0:
448,192,146205,1,0,0:0:0:0:
64,192,146298,1,0,0:0:0:0:
192,192,146392,1,0,0:0:0:0:
320,192,146486,1,0,0:0:0:0:
448,192,146580,1,0,0:0:0:0:
64,192,146673,1,0,0:0:0:0:
192,192,146767,1,0,0:0:0:0:
320,192,146861,1,0,0:0:0:0:
64,192,146955,1,0,0:0:0:0:
448,192,146955,1,0,0:0:0:0:
320,192,147142,1,0,0:0:0:0:
192,192,147330,1,0,0:0:0:0:
320,192,147423,1,0,0:0:0:0:
448,192,147517,1,0,0:0:0:0:
320,192,147705,1,0,0:0:0:0:
64,192,147705,1,0,0:0:0:0:
192,192,147705,1,0,0:0:0:0:
64,192,147892,1,0,0:0:0:0:
448,192,148080,1,0,0:0:0:0:
192,192,148267,1,0,0:0:0:0:
320,192,148455,1,0,0:0:0:0:
448,192,148455,1,0,0:0:0:0:
64,192,148548,1,0,0:0:0:0:
192,192,148642,1,0,0:0:0:0:
320,192,148736,1,0,0:0:0:0:
64,192,148830,1,0,0:0:0:0:
192,192,148923,1,0,0:0:0:0:
320,192,149017,1,0,0:0:0:0:
448,192,149111,1,0,0:0:0:0:
64,192,149205,1,0,0:0:0:0:
320,192,149298,1,0,0:0:0:0:
192,192,149392,1,0,0:0:0:0:
64,192,149486,1,0,0:0:0:0:
320,192,149580,1,0,0:0:0:0:
448,192,149580,1,0,0:0:0:0:
192,192,149673,1,0,0:0:0:0:
64,192,149767,1,0,0:0:0:0:
448,192,149861,1,0,0:0:0:0:
192,192,149955,1,0,0:0:0:0:
64,192,149955,1,0,0:0:0:0:
320,192,149955,1,0,0:0:0:0:
320,192,150330,1,0,0:0:0:0:
320,192,150517,1,0,0:0:0:0:
64,192,150705,1,0,0:0:0:0:
192,192,150798,1,0,0:0:0:0:
320,192,150892,1,0,0:0:0:0:
448,192,151080,1,0,0:0:0:0:
192,192,151080,1,0,0:0:0:0:
448,192,151267,1,0,0:0:0:0:
320,192,151455,1,0,0:0:0:0:
64,192,151548,1,0,0:0:0:0:
448,192,151642,1,0,0:0:0:0:
192,192,151830,1,0,0:0:0:0:
64,192,151830,1,0,0:0:0:0:
320,192,152017,1,0,0:0:0:0:
64,192,152205,1,0,0:0:0:0:
64,192,152392,1,0,0:0:0:0:
192,192,152580,1,0,0:0:0:0:
320,192,152580,1,0,0:0:0:0:
320,192,152767,1,0,0:0:0:0:
192,192,152955,1,0,0:0:0:0:
448,192,153048,1,0,0:0:0:0:
320,192,153142,1,0,0:0:0:0:
448,192,153330,1,0,0:0:0:0:
64,192,153330,1,0,0:0:0:0:
448,192,153517,1,0,0:0:0:0:
192,192,153705,1,0,0:0:0:0:
320,192,153798,1,0,0:0:0:0:
448,192,153892,1,0,0:0:0:0:
320,192,154080,1,0,0:0:0:0:
64,192,154080,1,0,0:0:0:0:
320,192,154267,1,0,0:0:0:0:
192,192,154455,1,0,0:0:0:0:
448,192,154548,1,0,0:0:0:0:
320,192,154642,1,0,0:0:0:0:
64,192,154830,1,0,0:0:0:0:
448,192,154830,1,0,0:0:0:0:
192,192,155017,1,0,0:0:0:0:
320,192,155205,1,0,0:0:0:0:
320,192,155392,1,0,0:0:0:0:
192,192,155580,1,0,0:0:0:0:
64,192,155580,1,0,0:0:0:0:
192,192,155767,1,0,0:0:0:0:
64,192,155955,1,0,0:0:0:0:
448,192,156048,1,0,0:0:0:0:
320,192,156142,1,0,0:0:0:0:
448,192,156330,1,0,0:0:0:0:
192,192,156330,1,0,0:0:0:0:
448,192,156517,1,0,0:0:0:0:
320,192,156705,1,0,0:0:0:0:
192,192,156798,1,0,0:0:0:0:
448,192,156892,1,0,0:0:0:0:
192,192,157080,1,0,0:0:0:0:
64,192,157080,1,0,0:0:0:0:
320,192,157173,1,0,0:0:0:0:
64,192,157267,1,0,0:0:0:0:
192,192,157361,1,0,0:0:0:0:
320,192,157455,1,0,0:0:0:0:
192,192,157642,1,0,0:0:0:0:
448,192,157830,1,0,0:0:0:0:
64,192,157830,1,0,0:0:0:0:
448,192,158017,1,0,0:0:0:0:
192,192,158205,1,0,0:0:0:0:
320,192,158298,1,0,0:0:0:0:
64,192,158392,1,0,0:0:0:0:
320,192,158580,1,0,0:0:0:0:
448,192,158580,1,0,0:0:0:0:
192,192,158673,1,0,0:0:0:0:
320,192,158767,1,0,0:0:0:0:
448,192,158861,1,0,0:0:0:0:
64,192,158955,1,0,0:0:0:0:
192,192,159142,1,0,0:0:0:0:
448,192,159330,1,0,0:0:0:0:
320,192,159330,1,0,0:0:0:0:
64,192,159517,1,0,0:0:0:0:
192,192,159705,1,0,0:0:0:0:
64,192,159892,1,0,0:0:0:0:
320,192,160080,1,0,0:0:0:0:
448,192,160080,1,0,0:0:0:0:
320,192,160267,1,0,0:0:0:0:
192,192,160455,1,0,0:0:0:0:
320,192,160548,1,0,0:0:0:0:
448,192,160642,1,0,0:0:0:0:
64,192,160830,1,0,0:0:0:0:
192,192,161017,1,0,0:0:0:0:
64,192,161205,1,0,0:0:0:0:
448,192,161298,1,0,0:0:0:0:
320,192,161392,1,0,0:0:0:0:
192,192,161486,1,0,0:0:0:0:
64,192,161580,1,0,0:0:0:0:
448,192,161673,1,0,0:0:0:0:
320,192,161767,1,0,0:0:0:0:
192,192,161861,1,0,0:0:0:0:
64,192,161955,1,0,0:0:0:0:
64,192,162142,1,0,0:0:0:0:
320,192,162330,1,0,0:0:0:0:
320,192,162517,1,0,0:0:0:0:
448,192,162705,1,0,0:0:0:0:
192,192,162798,1,0,0:0:0:0:
448,192,162892,1,0,0:0:0:0:
192,192,162986,1,0,0:0:0:0:
448,192,163080,1,0,0:0:0:0:
64,192,163173,1,0,0:0:0:0:
448,192,163267,1,0,0:0:0:0:
64,192,163361,1,0,0:0:0:0:
320,192,163455,1,0,0:0:0:0:
64,192,163548,1,0,0:0:0:0:
320,192,163642,1,0,0:0:0:0:
64,192,163736,1,0,0:0:0:0:
448,192,163830,1,0,0:0:0:0:
448,192,164017,1,0,0:0:0:0:
64,192,164205,1,0,0:0:0:0:
192,192,164205,1,0,0:0:0:0:
320,192,164205,1,0,0:0:0:0:
448,192,164298,1,0,0:0:0:0:
192,192,164392,1,0,0:0:0:0:
320,192,164580,1,0,0:0:0:0:
192,192,164580,1,0,0:0:0:0:
64,192,164580,1,0,0:0:0:0:
320,192,164767,1,0,0:0:0:0:
64,192,164955,1,0,0:0:0:0:
448,192,164955,1,0,0:0:0:0:
320,192,165048,1,0,0:0:0:0:
192,192,165142,1,0,0:0:0:0:
448,192,165330,1,0,0:0:0:0:
320,192,165330,1,0,0:0:0:0:
64,192,165330,1,0,0:0:0:0:
192,192,165517,1,0,0:0:0:0:
320,192,165705,1,0,0:0:0:0:
448,192,165705,1,0,0:0:0:0:
320,192,165892,1,0,0:0:0:0:
192,192,166080,1,0,0:0:0:0:
64,192,166080,1,0,0:0:0:0:
448,192,166080,1,0,0:0:0:0:
192,192,166267,1,0,0:0:0:0:
320,192,166455,1,0,0:0:0:0:
448,192,166455,1,0,0:0:0:0:
192,192,166548,1,0,0:0:0:0:
64,192,166642,1,0,0:0:0:0:
192,192,166830,1,0,0:0:0:0:
320,192,166830,1,0,0:0:0:0:
448,192,166830,1,0,0:0:0:0:
320,192,167017,1,0,0:0:0:0:
64,192,167205,1,0,0:0:0:0:
448,192,167205,1,0,0:0:0:0:
192,192,167298,1,0,0:0:0:0:
320,192,167392,1,0,0:0:0:0:
192,192,167580,1,0,0:0:0:0:
64,192,167580,1,0,0:0:0:0:
448,192,167580,1,0,0:0:0:0:
192,192,167767,1,0,0:0:0:0:
320,192,167955,1,0,0:0:0:0:
448,192,167955,1,0,0:0:0:0:
192,192,168048,1,0,0:0:0:0:
64,192,168142,1,0,0:0:0:0:
192,192,168330,1,0,0:0:0:0:
448,192,168330,1,0,0:0:0:0:
320,192,168330,1,0,0:0:0:0:
320,192,168517,1,0,0:0:0:0:
192,192,168705,1,0,0:0:0:0:
448,192,168705,1,0,0:0:0:0:
448,192,168892,1,0,0:0:0:0:
192,192,169080,1,0,0:0:0:0:
64,192,169080,1,0,0:0:0:0:
320,192,169080,1,0,0:0:0:0:
320,192,169267,1,0,0:0:0:0:
192,192,169455,1,0,0:0:0:0:
64,192,169455,1,0,0:0:0:0:
320,192,169548,1,0,0:0:0:0:
448,192,169642,1,0,0:0:0:0:
320,192,169830,1,0,0:0:0:0:
64,192,169830,1,0,0:0:0:0:
192,192,169830,1,0,0:0:0:0:
64,192,170017,1,0,0:0:0:0:
320,192,170205,1,0,0:0:0:0:
448,192,170205,1,0,0:0:0:0:
64,192,170298,1,0,0:0:0:0:
192,192,170392,1,0,0:0:0:0:
64,192,170580,1,0,0:0:0:0:
320,192,170580,1,0,0:0:0:0:
448,192,170580,1,0,0:0:0:0:
192,192,170673,1,0,0:0:0:0:
320,192,170767,1,0,0:0:0:0:
192,192,170861,1,0,0:0:0:0:
448,192,170955,1,0,0:0:0:0:
64,192,170955,1,0,0:0:0:0:
320,192,170955,1,0,0:0:0:0:
320,192,171142,1,0,0:0:0:0:
192,192,171330,1,0,0:0:0:0:
64,192,171330,1,0,0:0:0:0:
448,192,171330,1,0,0:0:0:0:
192,192,171517,1,0,0:0:0:0:
320,192,171705,1,0,0:0:0:0:
448,192,171705,1,0,0:0:0:0:
192,192,171798,1,0,0:0:0:0:
64,192,171892,1,0,0:0:0:0:
192,192,172080,1,0,0:0:0:0:
320,192,172080,1,0,0:0:0:0:
448,192,172080,1,0,0:0:0:0:
64,192,172173,1,0,0:0:0:0:
448,192,172267,1,0,0:0:0:0:
64,192,172361,1,0,0:0:0:0:
192,192,172455,1,0,0:0:0:0:
320,192,172455,1,0,0:0:0:0:
448,192,172455,1,0,0:0:0:0:
192,192,172642,1,0,0:0:0:0:
320,192,172830,1,0,0:0:0:0:
64,192,172830,1,0,0:0:0:0:
448,192,172830,1,0,0:0:0:0:
192,192,173017,1,0,0:0:0:0:
64,192,173205,1,0,0:0:0:0:
448,192,173205,1,0,0:0:0:0:
320,192,173392,1,0,0:0:0:0:
192,192,173580,1,0,0:0:0:0:
64,192,173580,1,0,0:0:0:0:
448,192,173580,1,0,0:0:0:0:
192,192,173767,1,0,0:0:0:0:
448,192,173955,1,0,0:0:0:0:
320,192,173955,1,0,0:0:0:0:
192,192,174048,1,0,0:0:0:0:
64,192,174142,1,0,0:0:0:0:
192,192,174330,1,0,0:0:0:0:
320,192,174330,1,0,0:0:0:0:
448,192,174330,1,0,0:0:0:0:
64,192,174517,1,0,0:0:0:0:
320,192,174705,1,0,0:0:0:0:
448,192,174705,1,0,0:0:0:0:
192,192,174798,1,0,0:0:0:0:
64,192,174892,1,0,0:0:0:0:
192,192,174986,1,0,0:0:0:0:
320,192,175080,1,0,0:0:0:0:
448,192,175080,1,0,0:0:0:0:
320,192,175267,1,0,0:0:0:0:
448,192,175267,1,0,0:0:0:0:
448,192,175455,1,0,0:0:0:0:
64,192,175455,1,0,0:0:0:0:
192,192,175642,1,0,0:0:0:0:
320,192,175642,1,0,0:0:0:0:
64,192,175830,1,0,0:0:0:0:
192,192,175830,1,0,0:0:0:0:
192,192,176017,1,0,0:0:0:0:
64,192,176017,1,0,0:0:0:0:
320,192,176205,1,0,0:0:0:0:
448,192,176205,1,0,0:0:0:0:
64,192,176205,1,0,0:0:0:0:
192,192,176298,1,0,0:0:0:0:
448,192,176392,1,0,0:0:0:0:
64,192,176580,1,0,0:0:0:0:
320,192,176580,1,0,0:0:0:0:
192,192,176580,1,0,0:0:0:0:
320,192,176767,1,0,0:0:0:0:
192,192,176955,1,0,0:0:0:0:
64,192,176955,1,0,0:0:0:0:
320,192,177048,1,0,0:0:0:0:
448,192,177142,1,0,0:0:0:0:
320,192,177330,1,0,0:0:0:0:
64,192,177330,1,0,0:0:0:0:
192,192,177330,1,0,0:0:0:0:
320,192,177517,1,0,0:0:0:0:
64,192,177705,1,0,0:0:0:0:
192,192,177705,1,0,0:0:0:0:
192,192,177892,1,0,0:0:0:0:
64,192,178080,1,0,0:0:0:0:
320,192,178080,1,0,0:0:0:0:
448,192,178080,1,0,0:0:0:0:
64,192,178267,1,0,0:0:0:0:
320,192,178455,1,0,0:0:0:0:
448,192,178455,1,0,0:0:0:0:
64,192,178548,1,0,0:0:0:0:
192,192,178642,1,0,0:0:0:0:
320,192,178830,1,0,0:0:0:0:
64,192,178830,1,0,0:0:0:0:
448,192,178830,1,0,0:0:0:0:
320,192,179017,1,0,0:0:0:0:
192,192,179205,1,0,0:0:0:0:
64,192,179205,1,0,0:0:0:0:
320,192,179298,1,0,0:0:0:0:
448,192,179392,1,0,0:0:0:0:
64,192,179580,1,0,0:0:0:0:
320,192,179580,1,0,0:0:0:0:
192,192,179580,1,0,0:0:0:0:
64,192,179767,1,0,0:0:0:0:
320,192,179955,1,0,0:0:0:0:
448,192,179955,1,0,0:0:0:0:
448,192,180142,1,0,0:0:0:0:
64,192,180330,1,0,0:0:0:0:
192,192,180330,1,0,0:0:0:0:
320,192,180330,1,0,0:0:0:0:
192,192,180517,1,0,0:0:0:0:
320,192,180705,1,0,0:0:0:0:
448,192,180705,1,0,0:0:0:0:
192,192,180798,1,0,0:0:0:0:
64,192,180892,1,0,0:0:0:0:
192,192,181080,1,0,0:0:0:0:
320,192,181080,1,0,0:0:0:0:
448,192,181080,1,0,0:0:0:0:
64,192,181173,1,0,0:0:0:0:
320,192,181267,1,0,0:0:0:0:
192,192,181455,1,0,0:0:0:0:
448,192,181455,1,0,0:0:0:0:
64,192,181548,1,0,0:0:0:0:
320,192,181642,1,0,0:0:0:0:
192,192,181830,1,0,0:0:0:0:
64,192,181830,1,0,0:0:0:0:
448,192,181830,1,0,0:0:0:0:
192,192,182017,1,0,0:0:0:0:
448,192,182205,1,0,0:0:0:0:
320,192,182205,1,0,0:0:0:0:
192,192,182298,1,0,0:0:0:0:
64,192,182392,1,0,0:0:0:0:
192,192,182580,1,0,0:0:0:0:
320,192,182580,1,0,0:0:0:0:
448,192,182580,1,0,0:0:0:0:
64,192,182673,1,0,0:0:0:0:
320,192,182767,1,0,0:0:0:0:
64,192,182861,1,0,0:0:0:0:
192,192,182955,1,0,0:0:0:0:
320,192,182955,1,0,0:0:0:0:
448,192,182955,1,0,0:0:0:0:
448,192,183142,1,0,0:0:0:0:
320,192,183330,1,0,0:0:0:0:
192,192,183330,1,0,0:0:0:0:
64,192,183330,1,0,0:0:0:0:
320,192,183517,1,0,0:0:0:0:
192,192,183705,1,0,0:0:0:0:
64,192,183705,1,0,0:0:0:0:
448,192,183798,1,0,0:0:0:0:
320,192,183892,1,0,0:0:0:0:
192,192,184080,1,0,0:0:0:0:
64,192,184080,1,0,0:0:0:0:
448,192,184080,1,0,0:0:0:0:
320,192,184173,1,0,0:0:0:0:
192,192,184267,1,0,0:0:0:0:
320,192,184361,1,0,0:0:0:0:
192,192,184455,1,0,0:0:0:0:
64,192,184455,1,0,0:0:0:0:
448,192,184455,1,0,0:0:0:0:
64,192,184642,1,0,0:0:0:0:
192,192,184830,1,0,0:0:0:0:
320,192,184830,1,0,0:0:0:0:
448,192,184830,1,0,0:0:0:0:
64,192,185017,1,0,0:0:0:0:
320,192,185205,1,0,0:0:0:0:
448,192,185205,1,0,0:0:0:0:
192,192,185392,1,0,0:0:0:0:
320,192,185580,1,0,0:0:0:0:
448,192,185580,1,0,0:0:0:0:
64,192,185580,1,0,0:0:0:0:
448,192,185767,1,0,0:0:0:0:
320,192,185767,1,0,0:0:0:0:
192,192,185955,1,0,0:0:0:0:
64,192,185955,1,0,0:0:0:0:
320,192,186048,1,0,0:0:0:0:
448,192,186142,1,0,0:0:0:0:
320,192,186330,1,0,0:0:0:0:
192,192,186330,1,0,0:0:0:0:
64,192,186330,1,0,0:0:0:0:
448,192,186517,1,0,0:0:0:0:
64,192,186705,1,0,0:0:0:0:
192,192,186705,1,0,0:0:0:0:
320,192,186705,1,0,0:0:0:0:
448,192,186798,1,0,0:0:0:0:
64,192,186892,1,0,0:0:0:0:
192,192,186986,1,0,0:0:0:0:
64,192,187080,1,0,0:0:0:0:
448,192,187080,1,0,0:0:0:0:
320,192,187080,1,0,0:0:0:0:
320,192,187267,1,0,0:0:0:0:
192,192,187455,1,0,0:0:0:0:
64,192,187455,1,0,0:0:0:0:
448,192,187455,1,0,0:0:0:0:
64,192,187642,1,0,0:0:0:0:
320,192,187830,1,0,0:0:0:0:
448,192,187830,1,0,0:0:0:0:
320,192,188017,1,0,0:0:0:0:
448,192,188017,1,0,0:0:0:0:
320,192,188205,1,0,0:0:0:0:
64,192,188205,1,0,0:0:0:0:
192,192,188205,1,0,0:0:0:0:
192,192,188392,1,0,0:0:0:0:
64,192,188580,1,0,0:0:0:0:
320,192,188580,1,0,0:0:0:0:
448,192,188580,1,0,0:0:0:0:
192,192,188767,1,0,0:0:0:0:
320,192,188955,1,0,0:0:0:0:
448,192,188955,1,0,0:0:0:0:
448,192,189142,1,0,0:0:0:0:
320,192,189330,1,0,0:0:0:0:
192,192,189330,1,0,0:0:0:0:
64,192,189330,1,0,0:0:0:0:
64,192,189517,1,0,0:0:0:0:
320,192,189705,1,0,0:0:0:0:
448,192,189705,1,0,0:0:0:0:
448,192,189892,1,0,0:0:0:0:
192,192,190080,1,0,0:0:0:0:
64,192,190080,1,0,0:0:0:0:
320,192,190080,1,0,0:0:0:0:
64,192,190267,1,0,0:0:0:0:
320,192,190455,1,0,0:0:0:0:
448,192,190455,1,0,0:0:0:0:
192,192,190642,1,0,0:0:0:0:
64,192,190830,1,0,0:0:0:0:
320,192,190830,1,0,0:0:0:0:
448,192,190830,1,0,0:0:0:0:
192,192,191017,1,0,0:0:0:0:
320,192,191205,1,0,0:0:0:0:
448,192,191205,1,0,0:0:0:0:
448,192,191392,1,0,0:0:0:0:
320,192,191580,1,0,0:0:0:0:
192,192,191580,1,0,0:0:0:0:
64,192,191580,1,0,0:0:0:0:
448,192,191767,1,0,0:0:0:0:
192,192,191955,1,0,0:0:0:0:
64,192,191955,1,0,0:0:0:0:
192,192,192142,1,0,0:0:0:0:
64,192,192330,1,0,0:0:0:0:
320,192,192330,1,0,0:0:0:0:
448,192,192330,1,0,0:0:0:0:
320,192,192517,1,0,0:0:0:0:
192,192,192705,1,0,0:0:0:0:
192,192,192892,1,0,0:0:0:0:
64,192,193080,1,0,0:0:0:0:
320,192,193080,1,0,0:0:0:0:
448,192,193080,1,0,0:0:0:0:
320,192,193267,1,0,0:0:0:0:
448,192,193455,1,0,0:0:0:0:
192,192,193455,1,0,0:0:0:0:
64,192,193455,1,0,0:0:0:0:
