osu file format v14

[General]
AudioFilename: audio.mp3
AudioLeadIn: 0
PreviewTime: 31481
Countdown: 0
SampleSet: Soft
StackLeniency: 0.7
Mode: 2
LetterboxInBreaks: 0
WidescreenStoryboard: 0

[Editor]
Bookmarks: 18783,31170,43557,55944,68332,80719,93106,105493,117880,130267,145751,161235
DistanceSpacing: 1.6
BeatDivisor: 4
GridSize: 32
TimelineZoom: 1.4

[Metadata]
Title:Cha Cha Cha
TitleUnicode:Cha Cha Cha
Artist:Kaarija
ArtistUnicode:Käärijä
Creator:Ash Ketchum
Version:Cha Cha Cha
Source:Eurovision Song Contest 2023
Tags:hip-hop hip hop rap hyperpop industrial metal finnish suomi male vocals uuden musiikin kilpailu umk23 esc euroviisut finland rinkiha m0ru moru multi-genre n4cc finals dt2
BeatmapID:4205732
BeatmapSetID:2019557

[Difficulty]
HPDrainRate:5
CircleSize:4
OverallDifficulty:8.8
ApproachRate:8.8
SliderMultiplier:1.9
SliderTickRate:2

[Events]
//Background and Video events
0,0,"kaarija.jpg",0,0
//Break Periods
//Storyboard Layer 0 (Background)
//Storyboard Layer 1 (Fail)
//Storyboard Layer 2 (Pass)
//Storyboard Layer 3 (Foreground)
//Storyboard Layer 4 (Overlay)
//Storyboard Sound Samples

[TimingPoints]
127,387.096774193548,4,2,2,50,1,0
18707,-100,4,2,3,50,0,0
31094,-100,4,2,2,50,0,0
34191,-100,4,2,2,50,0,1
52772,-100,4,2,2,50,0,0
55868,-100,4,2,3,50,0,0
68256,-100,4,2,2,50,0,0
83739,-100,4,2,2,50,0,1
98062,-100,4,2,2,50,0,1
99417,-100,4,2,2,50,0,1
102320,-100,4,2,2,50,0,0
105417,-100,4,2,4,50,0,1
117804,-100,4,2,3,50,0,0
130191,-100,4,2,3,50,0,0
145675,-100,4,2,4,50,0,1
170449,-100,4,2,4,50,0,0

[Colours]
Combo1 : 255,255,128
Combo2 : 0,255,64
Combo3 : 255,255,0
Combo4 : 0,128,0

[HitObjects]
326,242,127,5,0,0:0:0:0:
326,242,320,1,0,0:0:0:0:
326,242,514,1,0,0:0:0:0:
231,162,707,1,0,0:0:0:0:
326,123,901,2,0,L|435:123,1,95
278,83,1288,2,0,L|165:83,1,95
326,205,1675,5,0,0:0:0:0:
326,205,1868,1,0,0:0:0:0:
326,205,2062,1,0,0:0:0:0:
421,142,2256,1,0,0:0:0:0:
326,72,2449,2,0,L|208:72,1,95
88,129,2836,2,0,L|88:239,1,95
231,206,3223,5,0,0:0:0:0:
231,206,3417,1,0,0:0:0:0:
231,206,3610,1,0,0:0:0:0:
326,234,3804,1,0,0:0:0:0:
231,142,3997,2,0,L|117:142,1,95
280,76,4385,2,0,L|381:76,1,95
232,174,4772,5,0,0:0:0:0:
232,174,4965,1,0,0:0:0:0:
232,174,5159,1,0,0:0:0:0:
137,118,5352,1,0,0:0:0:0:
232,174,5546,2,0,L|330:174,1,95
470,207,5933,2,0,L|470:99,1,95
184,39,6320,5,2,0:0:0:0:
376,100,6707,2,0,L|376:215,1,95,2|0,0:0|0:0,0:0:0:0:
281,176,7094,2,0,L|167:176,1,95,2|0,0:0|0:0,0:0:0:0:
281,56,7481,2,0,L|399:56,1,95,2|0,0:0|0:0,0:0:0:0:
281,115,7868,5,2,0:0:0:0:
186,110,8062,1,0,0:0:0:0:
91,138,8256,1,2,0:0:0:0:
186,110,8449,1,0,0:0:0:0:
291,164,8643,1,2,0:0:0:0:
386,93,8836,1,0,0:0:0:0:
481,159,9030,1,2,0:0:0:0:
386,93,9223,1,0,0:0:0:0:
100,226,9417,5,2,0:0:0:0:
100,226,9804,1,0,0:0:0:0:
100,226,9997,1,0,0:0:0:0:
291,193,10385,2,0,L|387:193,2,95,0|2|0,0:0|0:0|0:0,0:0:0:0:
149,96,10965,6,0,L|149:209,1,95,2|0,0:0|0:0,0:0:0:0:
244,203,11352,2,0,L|244:84,1,95,2|0,0:0|0:0,0:0:0:0:
339,210,11739,2,0,L|339:104,1,95,2|0,0:0|0:0,0:0:0:0:
244,154,12126,2,0,L|149:154,1,95,2|0,0:0|0:0,0:0:0:0:
436,266,12514,5,2,0:0:0:0:
246,257,12901,2,0,L|146:257,1,95,2|0,0:0|0:0,0:0:0:0:
246,153,13288,2,0,L|341:153,2,95,2|0|2,0:0|0:0|0:0,0:0:0:0:
151,67,13868,1,0,0:0:0:0:
294,199,14062,5,2,0:0:0:0:
199,171,14256,2,0,L|102:171,2,95,0|2|0,0:0|0:0|0:0,0:0:0:0:
294,81,14836,1,2,0:0:0:0:
151,117,15030,1,0,0:0:0:0:
246,170,15223,1,2,0:0:0:0:
151,117,15417,1,0,0:0:0:0:
435,207,15610,5,2,0:0:0:0:
435,207,15997,1,0,0:0:0:0:
435,207,16191,1,0,0:0:0:0:
245,225,16578,2,0,L|123:225,2,95,0|2|0,0:0|0:0|0:0,0:0:0:0:
340,238,17159,6,0,L|340:124,1,95,2|0,0:0|0:0,0:0:0:0:
245,100,17546,2,0,L|245:223,1,95,2|0,0:0|0:0,0:0:0:0:
150,115,17933,2,0,L|150:219,1,95,2|0,0:0|0:0,0:0:0:0:
293,228,18320,2,0,L|399:228,1,95,4|0,0:0|0:0,0:0:0:0:
102,63,18707,5,2,0:0:0:0:
216,117,18901,2,0,L|313:116,2,95,0|8|0,0:0|0:0|0:0,0:0:0:0:
102,176,19481,2,0,L|103:73,1,95,2|0,0:0|0:0,0:0:0:0:
218,160,19868,2,0,L|333:158,1,95,8|0,0:0|0:0,0:0:0:0:
122,260,20256,5,2,0:0:0:0:
217,251,20449,1,0,0:0:0:0:
122,260,20643,2,0,L|11:260,1,95,8|0,0:0|0:0,0:0:0:0:
141,125,21030,1,2,0:0:0:0:
255,173,21223,1,0,0:0:0:0:
369,161,21417,1,8,0:0:0:0:
483,139,21610,1,0,0:0:0:0:
197,64,21804,5,2,0:0:0:0:
197,64,22191,1,0,0:0:0:0:
197,64,22385,1,0,0:0:0:0:
387,79,22772,2,0,L|485:79,2,95,0|8|0,0:0|0:0|0:0,0:0:0:0:
273,216,23352,6,0,L|156:216,1,95,2|0,0:0|0:0,0:0:0:0:
292,129,23739,2,0,L|399:129,1,95,8|8,0:0|0:0,0:0:0:0:
273,145,24126,1,2,0:0:0:0:
273,145,24320,1,8,0:0:0:0:
463,180,24514,1,8,0:0:0:0:
349,192,24707,1,2,0:0:0:0:
63,89,24901,5,2,0:0:0:0:
177,125,25094,2,0,L|79:125,2,95,0|8|0,0:0|0:0|0:0,0:0:0:0:
291,164,25675,2,0,L|394:164,1,95,2|0,0:0|0:0,0:0:0:0:
271,204,26062,2,0,L|157:204,1,95,8|0,0:0|0:0,0:0:0:0:
366,82,26449,5,2,0:0:0:0:
271,123,26643,1,0,0:0:0:0:
385,163,26836,2,0,L|484:163,1,95,8|0,0:0|0:0,0:0:0:0:
290,218,27223,1,2,0:0:0:0:
385,261,27417,1,0,0:0:0:0:
196,252,27610,2,0,L|98:252,1,95,8|0,0:0|0:0,0:0:0:0:
387,192,27997,5,0,0:0:0:0:
387,192,28385,1,0,0:0:0:0:
387,192,28578,1,0,0:0:0:0:
102,90,28965,1,0,0:0:0:0:
216,89,29158,1,0,0:0:0:0:
330,95,29352,1,0,0:0:0:0:
140,188,29546,6,0,L|140:81,1,95
330,164,29933,2,0,L|330:63,1,95
140,170,30320,1,0,0:0:0:0:
254,172,30514,1,0,0:0:0:0:
396,173,30707,1,0,0:0:0:0:
396,173,30901,1,0,0:0:0:0:
112,151,31094,5,4,0:0:0:0:
397,249,31481,2,0,L|397:142,1,95
302,194,31868,2,0,L|189:194,1,95
303,45,32256,2,0,L|406:44,1,95
208,119,32643,5,0,0:0:0:0:
94,124,32836,1,0,0:0:0:0:
351,263,33030,2,0,P|450:260|464:167,1,190
320,112,33610,1,0,0:0:0:0:
472,99,33804,1,8,0:0:0:0:
472,99,33997,1,0,0:0:0:0:
125,202,34191,6,0,L|26:202,2,95,4|0|8,0:0|0:0|0:0,0:0:0:0:
277,132,34772,2,0,L|379:132,1,95,0|2,0:0|0:0,0:0:0:0:
220,218,35159,2,0,L|115:218,1,95,0|8,0:0|0:0,0:0:0:0:
315,105,35546,1,0,0:0:0:0:
40,75,35739,6,0,L|39:186,1,95,2|0,0:0|0:0,0:0:0:0:
294,170,36126,2,0,L|393:170,1,95,8|0,0:0|0:0,0:0:0:0:
72,212,36514,1,2,0:0:0:0:
186,214,36707,1,0,0:0:0:0:
300,197,36901,1,8,0:0:0:0:
414,148,37094,1,0,0:0:0:0:
128,92,37288,5,4,0:0:0:0:
242,100,37481,2,0,L|345:100,2,95,0|2|0,0:0|0:0|0:0,0:0:0:0:
90,180,38062,2,0,L|91:68,1,95,2|0,0:0|0:0,0:0:0:0:
243,208,38449,2,0,L|370:208,1,95,8|0,0:0|0:0,0:0:0:0:
186,118,38836,6,0,L|71:118,1,95,2|0,0:0|0:0,0:0:0:0:
344,275,39223,2,0,P|416:268|479:171,1,190,2|2,0:0|0:0,0:0:0:0:
326,97,39804,1,0,0:0:0:0:
478,66,39997,1,8,0:0:0:0:
478,66,40191,1,0,0:0:0:0:
192,124,40385,6,0,L|98:124,2,95,2|0|8,0:0|0:0|0:0,0:0:0:0:
344,202,40965,2,2,L|448:202,1,95,0|2,0:0|0:0,0:0:0:0:
287,133,41352,2,0,L|167:133,1,95,0|2,0:0|0:0,0:0:0:0:
344,202,41739,1,0,0:0:0:0:
58,110,41933,5,2,0:0:0:0:
200,78,42126,1,8,0:0:0:0:
476,192,42320,1,2,0:0:0:0:
343,115,42514,1,2,0:0:0:0:
87,164,42707,1,0,0:0:0:0:
87,164,42901,1,0,0:0:0:0:
343,46,43094,1,0,0:0:0:0:
457,86,43288,1,0,0:0:0:0:
125,147,43481,5,4,0:0:0:0:
268,122,43675,1,0,0:0:0:0:
316,131,43772,1,0,0:0:0:0:
268,122,43868,1,8,0:0:0:0:
125,238,44062,1,0,0:0:0:0:
289,247,44256,2,0,L|413:247,1,95,2|0,0:0|0:0,0:0:0:0:
232,151,44643,2,0,L|129:152,1,95,8|0,0:0|0:0,0:0:0:0:
289,176,45030,6,0,L|405:176,1,95,2|0,0:0|0:0,0:0:0:0:
131,280,45417,2,0,P|69:253|47:128,1,190,8|2,0:0|0:0,0:0:0:0:
193,112,45997,1,0,0:0:0:0:
41,71,46191,1,2,0:0:0:0:
41,71,46385,1,0,0:0:0:0:
325,190,46578,6,0,L|426:190,2,95,4|0|8,0:0|0:0|0:0,0:0:0:0:
173,130,47159,2,0,L|69:130,1,95,0|2,0:0|0:0,0:0:0:0:
230,180,47546,2,0,L|327:180,1,95,0|8,0:0|0:0,0:0:0:0:
173,258,47933,1,0,0:0:0:0:
457,271,48126,6,0,L|457:166,1,95,2|0,0:0|0:0,0:0:0:0:
199,322,48514,2,0,L|83:322,1,95,8|0,0:0|0:0,0:0:0:0:
390,139,48901,1,2,0:0:0:0:
276,143,49094,1,0,0:0:0:0:
162,164,49288,1,8,0:0:0:0:
48,89,49481,1,0,0:0:0:0:
334,246,49675,5,4,0:0:0:0:
192,197,49868,1,0,0:0:0:0:
144,174,49965,1,0,0:0:0:0:
192,197,50062,1,8,0:0:0:0:
349,122,50256,5,0,0:0:0:0:
207,125,50449,2,0,L|80:125,1,95,2|0,0:0|0:0,0:0:0:0:
264,215,50836,1,8,0:0:0:0:
360,211,51030,1,0,0:0:0:0:
407,207,51126,1,0,0:0:0:0:
208,52,51223,6,0,L|113:52,1,95,2|0,0:0|0:0,0:0:0:0:
366,129,51610,2,0,P|440:150|484:256,1,190,8|2,0:0|0:0,0:0:0:0:
228,180,52191,1,0,0:0:0:0:
396,218,52385,1,8,0:0:0:0:
396,218,52578,1,0,0:0:0:0:
143,136,52772,5,0,0:0:0:0:
143,136,53159,1,0,0:0:0:0:
143,136,53352,1,0,0:0:0:0:
446,126,53739,1,0,0:0:0:0:
446,126,53933,1,0,0:0:0:0:
446,126,54126,1,0,0:0:0:0:
240,236,54514,5,0,0:0:0:0:
240,236,54610,1,0,0:0:0:0:
240,236,54707,1,0,0:0:0:0:
240,236,54804,1,0,0:0:0:0:
240,236,54901,5,0,0:0:0:0:
316,216,54997,1,0,0:0:0:0:
392,222,55094,1,0,0:0:0:0:
440,215,55191,1,0,0:0:0:0:
392,222,55288,1,8,0:0:0:0:
108,149,55481,1,0,0:0:0:0:
108,149,55675,1,2,0:0:0:0:
392,49,55868,5,2,0:0:0:0:
278,65,56062,2,0,L|164:65,2,95,0|8|0,0:0|0:0|0:0,0:0:0:0:
392,163,56643,2,0,L|392:54,1,95,2|0,0:0|0:0,0:0:0:0:
278,227,57030,2,0,L|166:227,2,95,8|0|2,0:0|0:0|0:0,0:0:0:0:
392,193,57610,5,0,0:0:0:0:
240,131,57804,1,8,0:0:0:0:
392,63,57997,2,0,L|392:161,1,95,0|2,0:0|0:0,0:0:0:0:
277,107,58385,1,0,0:0:0:0:
163,102,58578,1,8,0:0:0:0:
49,86,58772,1,0,0:0:0:0:
333,231,58965,5,2,0:0:0:0:
333,231,59352,1,10,0:0:0:0:
333,231,59546,1,2,0:0:0:0:
143,199,59933,2,0,L|36:199,2,95,0|8|0,0:0|0:0|0:0,0:0:0:0:
257,161,60514,6,0,L|375:161,1,95,2|0,0:0|0:0,0:0:0:0:
238,78,60901,2,0,L|114:78,1,95,8|0,0:0|0:0,0:0:0:0:
257,166,61288,2,0,L|363:166,1,95,2|0,0:0|0:0,0:0:0:0:
209,220,61675,1,10,0:0:0:0:
95,123,61868,1,0,0:0:0:0:
381,252,62062,5,2,0:0:0:0:
190,183,62449,2,0,L|82:183,1,95,8|0,0:0|0:0,0:0:0:0:
209,235,62836,2,0,L|306:235,1,95,2|0,0:0|0:0,0:0:0:0:
190,139,63223,2,0,L|189:35,1,95,8|0,0:0|0:0,0:0:0:0:
304,152,63610,5,2,0:0:0:0:
419,164,63804,1,0,0:0:0:0:
267,176,63997,1,8,0:0:0:0:
419,261,64191,2,0,L|322:261,1,95,0|2,0:0|0:0,0:0:0:0:
209,115,64578,1,0,0:0:0:0:
323,167,64772,1,8,0:0:0:0:
437,207,64965,1,0,0:0:0:0:
151,64,65159,5,2,0:0:0:0:
151,64,65546,1,8,0:0:0:0:
151,64,65739,1,0,0:0:0:0:
379,108,66126,1,0,0:0:0:0:
265,153,66320,1,8,0:0:0:0:
151,148,66514,1,0,0:0:0:0:
303,231,66707,6,0,L|410:232,1,95,2|0,0:0|0:0,0:0:0:0:
122,234,67094,2,0,L|122:121,1,95,8|0,0:0|0:0,0:0:0:0:
398,107,67481,2,0,L|492:107,1,95,2|8,0:0|0:0,0:0:0:0:
207,117,67868,2,0,L|100:116,1,95,4|8,0:0|0:0,0:0:0:0:
399,150,68256,5,2,0:0:0:0:
247,183,68449,2,0,L|127:183,2,95,0|8|0,0:0|0:0|0:0,0:0:0:0:
361,257,69030,2,0,L|457:256,1,95,2|0,0:0|0:0,0:0:0:0:
342,126,69417,1,8,0:0:0:0:
228,235,69610,2,0,L|124:236,1,95,0|2,0:0|0:0,0:0:0:0:
285,126,69997,5,0,0:0:0:0:
133,144,70191,2,0,L|13:144,1,95,8|0,0:0|0:0,0:0:0:0:
152,206,70578,1,2,0:0:0:0:
305,251,70772,2,0,L|406:251,2,95,0|8|0,0:0|0:0|0:0,0:0:0:0:
53,243,71352,5,2,0:0:0:0:
205,141,71546,2,0,L|332:140,2,95,0|8|0,0:0|0:0|0:0,0:0:0:0:
91,70,72126,2,0,L|91:181,1,95,2|0,0:0|0:0,0:0:0:0:
206,176,72514,1,8,0:0:0:0:
320,182,72707,2,0,L|435:182,1,95,0|2,0:0|0:0,0:0:0:0:
263,65,73094,5,0,0:0:0:0:
415,112,73288,2,0,L|523:112,1,95,8|0,0:0|0:0,0:0:0:0:
396,184,73675,1,2,0:0:0:0:
244,202,73868,2,0,L|142:202,1,95,0|8,0:0|0:0,0:0:0:0:
283,111,74256,1,0,0:0:0:0:
23,68,74449,5,2,0:0:0:0:
175,81,74643,2,0,L|277:81,2,95,0|8|0,0:0|0:0|0:0,0:0:0:0:
61,159,75223,2,0,L|61:283,1,95,2|0,0:0|0:0,0:0:0:0:
175,250,75610,1,8,0:0:0:0:
289,218,75804,2,0,L|385:218,2,95,0|2|0,0:0|0:0|0:0,0:0:0:0:
137,117,76385,5,8,0:0:0:0:
289,131,76578,2,0,L|404:131,1,95,0|2,0:0|0:0,0:0:0:0:
232,203,76965,1,0,0:0:0:0:
384,266,77159,2,0,L|499:266,1,95,8|0,0:0|0:0,0:0:0:0:
193,115,77546,5,4,0:0:0:0:
256,192,77739,12,0,80256,0:0:0:0:
369,248,80643,5,2,0:0:0:0:
142,210,81030,2,0,L|18:210,1,95
142,129,81417,2,0,L|253:128,1,95
142,129,81804,2,0,L|142:237,1,95
332,253,82191,5,0,0:0:0:0:
446,216,82385,1,0,0:0:0:0:
194,153,82578,2,0,P|100:172|57:266,1,190
210,246,83159,1,0,0:0:0:0:
58,106,83352,1,8,0:0:0:0:
58,106,83546,1,0,0:0:0:0:
342,110,83739,6,0,L|446:110,2,95,4|0|8,0:0|0:0|0:0,0:0:0:0:
190,181,84320,2,0,L|70:181,1,95,0|2,0:0|0:0,0:0:0:0:
247,256,84707,2,0,L|356:256,1,95,0|8,0:0|0:0,0:0:0:0:
190,154,85094,1,0,0:0:0:0:
464,148,85288,6,0,L|464:254,1,95,2|0,0:0|0:0,0:0:0:0:
211,209,85675,2,0,L|96:209,1,95,8|0,0:0|0:0,0:0:0:0:
369,254,86062,1,2,0:0:0:0:
483,285,86256,1,0,0:0:0:0:
483,285,86449,1,8,0:0:0:0:
369,254,86643,1,0,0:0:0:0:
85,72,86836,5,4,0:0:0:0:
199,112,87030,2,0,L|325:112,2,95,0|8|0,0:0|0:0|0:0,0:0:0:0:
47,197,87610,2,0,L|47:81,1,95,2|0,0:0|0:0,0:0:0:0:
199,194,87997,2,0,L|317:194,1,95,8|0,0:0|0:0,0:0:0:0:
141,108,88385,6,0,L|31:108,1,95,2|0,0:0|0:0,0:0:0:0:
299,287,88772,2,0,P|371:276|455:162,1,190,8|2,0:0|0:0,0:0:0:0:
296,109,89352,1,0,0:0:0:0:
448,215,89546,1,8,0:0:0:0:
448,215,89739,1,0,0:0:0:0:
162,200,89933,6,0,L|45:200,2,95,4|0|8,0:0|0:0|0:0,0:0:0:0:
314,145,90514,2,0,L|433:144,1,95,0|2,0:0|0:0,0:0:0:0:
257,233,90901,2,0,L|126:233,1,95,0|8,0:0|0:0,0:0:0:0:
314,282,91288,1,0,0:0:0:0:
58,298,91481,6,0,L|58:181,1,95,2|8,0:0|0:0,0:0:0:0:
330,77,91868,1,0,0:0:0:0:
425,114,92062,1,2,0:0:0:0:
172,125,92256,1,2,0:0:0:0:
77,110,92449,1,0,0:0:0:0:
348,208,92643,1,8,0:0:0:0:
348,208,92836,1,0,0:0:0:0:
62,198,93030,5,4,0:0:0:0:
214,195,93223,1,0,0:0:0:0:
262,186,93320,1,0,0:0:0:0:
214,195,93417,1,8,0:0:0:0:
62,81,93610,2,0,L|62:187,1,95,0|2,0:0|0:0,0:0:0:0:
214,117,93997,1,0,0:0:0:0:
366,221,94191,2,0,L|462:221,1,95,8|0,0:0|0:0,0:0:0:0:
309,141,94578,6,0,L|188:141,1,95,2|0,0:0|0:0,0:0:0:0:
467,267,94965,2,0,P|485:222|390:123,1,190,8|2,0:0|0:0,0:0:0:0:
253,175,95546,1,0,0:0:0:0:
101,97,95739,1,8,0:0:0:0:
101,97,95933,1,0,0:0:0:0:
378,86,96126,6,0,L|480:86,2,95,4|0|8,0:0|0:0|0:0,0:0:0:0:
226,181,96707,2,0,L|103:181,1,95,0|2,0:0|0:0,0:0:0:0:
284,237,97094,2,0,L|397:237,1,95,0|8,0:0|0:0,0:0:0:0:
198,275,97481,1,0,0:0:0:0:
474,281,97675,6,0,L|474:178,1,95,2|0,0:0|0:0,0:0:0:0:
221,165,98062,2,0,L|320:165,1,95,8|0,0:0|0:0,0:0:0:0:
35,103,98449,1,2,0:0:0:0:
35,103,98643,1,0,0:0:0:0:
311,208,98836,1,8,0:0:0:0:
425,162,99030,1,0,0:0:0:0:
141,56,99223,5,4,0:0:0:0:
293,123,99417,1,0,0:0:0:0:
245,137,99514,1,0,0:0:0:0:
197,153,99610,1,8,0:0:0:0:
350,268,99804,1,0,0:0:0:0:
198,245,99997,2,0,L|311:245,1,95,2|0,0:0|0:0,0:0:0:0:
140,166,100385,1,8,0:0:0:0:
45,92,100578,1,0,0:0:0:0:
92,134,100675,1,0,0:0:0:0:
292,78,100772,6,0,L|415:78,1,95,2|0,0:0|0:0,0:0:0:0:
134,266,101159,2,0,P|44:169|55:107,1,190,8|2,0:0|0:0,0:0:0:0:
201,101,101739,1,0,0:0:0:0:
49,56,101933,1,8,0:0:0:0:
49,56,102126,1,0,0:0:0:0:
302,213,102320,5,0,0:0:0:0:
397,193,102514,1,0,0:0:0:0:
492,131,102707,1,0,0:0:0:0:
492,131,102901,1,0,0:0:0:0:
122,260,103094,1,0,0:0:0:0:
28,159,103288,1,0,0:0:0:0:
28,159,103481,1,0,0:0:0:0:
18,253,103675,1,0,0:0:0:0:
302,150,103868,5,0,0:0:0:0:
397,202,104062,2,0,L|495:202,2,95
111,164,104643,1,0,0:0:0:0:
111,164,104836,1,0,0:0:0:0:
111,164,105030,1,0,0:0:0:0:
301,269,105417,6,0,L|490:269,2,190,4|8|2,0:0|0:0|0:0,0:0:0:0:
111,79,106578,2,0,L|111:189,1,95,8|0,0:0|0:0,0:0:0:0:
387,159,106965,6,0,L|492:159,1,95,2|0,0:0|0:0,0:0:0:0:
315,241,107352,2,0,L|197:241,1,95,8|0,0:0|0:0,0:0:0:0:
387,261,107739,2,0,L|387:146,1,95,2|0,0:0|0:0,0:0:0:0:
206,184,108126,1,8,0:0:0:0:
111,138,108320,1,0,0:0:0:0:
387,123,108514,6,0,P|466:142|486:269,2,190,2|8|2,0:0|0:0|0:0,0:0:0:0:
197,199,109675,2,0,L|98:199,1,95,8|0,0:0|0:0,0:0:0:0:
378,260,110062,6,0,L|185:260,2,190,2|8|2,0:0|0:0|0:0,0:0:0:0:
93,181,111223,1,8,0:0:0:0:
380,92,111610,6,0,L|166:92,2,190,4|8|2,0:0|0:0|0:0,0:0:0:0:
190,218,112772,2,0,L|294:217,1,95,8|0,0:0|0:0,0:0:0:0:
28,60,113159,6,0,L|28:156,1,95,2|0,0:0|0:0,0:0:0:0:
195,131,113546,2,0,L|306:131,1,95,8|0,0:0|0:0,0:0:0:0:
124,229,113933,2,0,L|123:107,1,95,2|0,0:0|0:0,0:0:0:0:
304,187,114320,1,8,0:0:0:0:
399,196,114514,1,0,0:0:0:0:
125,123,114707,6,0,P|46:142|26:269,2,190,2|8|2,0:0|0:0|0:0,0:0:0:0:
314,99,115868,2,0,L|420:98,1,95,8|0,0:0|0:0,0:0:0:0:
131,187,116256,6,0,L|339:186,2,190,2|8|2,0:0|0:0|0:0,0:0:0:0:
320,70,117417,1,0,0:0:0:0:
93,80,117804,5,2,0:0:0:0:
93,80,117997,1,0,0:0:0:0:
93,80,118191,1,2,0:0:0:0:
93,80,118385,1,0,0:0:0:0:
226,194,118578,1,2,0:0:0:0:
226,194,118772,1,0,0:0:0:0:
226,194,118965,1,2,0:0:0:0:
226,194,119159,1,0,0:0:0:0:
93,108,119352,6,0,L|94:219,1,95,2|0,0:0|0:0,0:0:0:0:
189,214,119739,2,0,L|189:92,1,95,2|0,0:0|0:0,0:0:0:0:
303,263,120126,2,0,L|303:134,1,95,2|0,0:0|0:0,0:0:0:0:
418,266,120514,2,0,L|418:131,1,95,2|0,0:0|0:0,0:0:0:0:
228,90,120901,5,2,0:0:0:0:
455,81,121288,1,2,0:0:0:0:
455,81,121481,1,0,0:0:0:0:
350,97,121675,1,2,0:0:0:0:
426,192,121868,1,0,0:0:0:0:
426,192,122062,1,2,0:0:0:0:
350,97,122256,1,0,0:0:0:0:
227,160,122449,6,0,L|227:274,1,95,2|0,0:0|0:0,0:0:0:0:
341,281,122836,2,0,L|341:167,1,95,2|0,0:0|0:0,0:0:0:0:
227,251,123223,2,2,L|32:251,2,190,0|0|0,0:0|0:0|0:0,0:0:0:0:
417,176,124385,5,2,0:0:0:0:
417,176,124578,1,0,0:0:0:0:
417,176,124772,1,2,0:0:0:0:
303,187,124965,1,0,0:0:0:0:
303,187,125159,1,2,0:0:0:0:
303,187,125352,1,0,0:0:0:0:
189,165,125546,6,0,L|189:281,1,95,2|0,0:0|0:0,0:0:0:0:
303,283,125933,2,0,L|304:150,1,95,2|0,0:0|0:0,0:0:0:0:
418,275,126320,2,0,L|418:172,1,95,2|0,0:0|0:0,0:0:0:0:
304,163,126707,2,0,L|180:163,1,95,2|0,0:0|0:0,0:0:0:0:
361,167,127094,6,0,L|362:50,1,95,2|0,0:0|0:0,0:0:0:0:
248,246,127481,2,0,L|138:246,1,95,2|0,0:0|0:0,0:0:0:0:
267,178,127868,2,0,P|328:156|331:38,1,190,2|2,0:0|0:0,0:0:0:0:
203,108,128449,1,0,0:0:0:0:
336,245,128643,6,2,L|102:245,2,190
108,94,129804,1,2,0:0:0:0:
374,82,130191,5,4,0:0:0:0:
374,82,130385,1,0,0:0:0:0:
260,145,130578,1,8,0:0:0:0:
260,145,130772,1,0,0:0:0:0:
146,202,130965,1,2,0:0:0:0:
146,202,131159,1,0,0:0:0:0:
32,205,131352,1,8,0:0:0:0:
32,205,131546,1,0,0:0:0:0:
146,279,131739,5,2,0:0:0:0:
260,251,131933,1,0,0:0:0:0:
374,207,132126,1,8,0:0:0:0:
374,207,132320,1,0,0:0:0:0:
260,149,132514,1,2,0:0:0:0:
146,99,132707,1,0,0:0:0:0:
32,203,132901,1,8,0:0:0:0:
146,99,133094,1,0,0:0:0:0:
422,83,133288,5,2,0:0:0:0:
194,236,133675,1,8,0:0:0:0:
194,236,133868,1,0,0:0:0:0:
308,147,134062,1,2,0:0:0:0:
308,147,134256,1,0,0:0:0:0:
194,236,134449,1,8,0:0:0:0:
194,236,134643,1,0,0:0:0:0:
308,232,134836,5,2,0:0:0:0:
422,183,135030,1,0,0:0:0:0:
422,183,135223,1,8,0:0:0:0:
308,232,135417,1,0,0:0:0:0:
193,142,135610,2,0,L|-5:142,2,190,2|8|2,0:0|0:0|0:0,0:0:0:0:
421,208,136772,5,2,0:0:0:0:
156,199,137159,1,2,0:0:0:0:
421,192,137546,1,2,0:0:0:0:
156,207,137933,5,2,0:0:0:0:
156,207,138320,1,2,0:0:0:0:
156,207,138707,1,2,0:0:0:0:
270,203,138901,2,0,L|364:203,2,95,0|2|0,0:0|0:0|0:0,0:0:0:0:
137,103,139481,5,2,0:0:0:0:
137,103,139675,1,0,0:0:0:0:
252,108,139868,1,8,0:0:0:0:
252,108,140062,1,0,0:0:0:0:
137,103,140256,1,2,0:0:0:0:
23,111,140449,1,0,0:0:0:0:
175,85,140643,1,8,0:0:0:0:
289,76,140836,1,0,0:0:0:0:
32,167,141030,5,2,0:0:0:0:
32,167,141223,1,0,0:0:0:0:
146,197,141417,1,8,0:0:0:0:
374,180,141804,2,0,L|374:84,1,95,2|0,0:0|0:0,0:0:0:0:
241,127,142191,2,0,L|123:127,1,95,8|0,0:0|0:0,0:0:0:0:
441,257,142578,5,4,0:0:0:0:
256,192,142772,12,0,145288,0:0:0:0:
198,153,145675,6,0,L|1:152,2,190,4|8|2,0:0|0:0|0:0,0:0:0:0:
389,256,146836,2,0,L|491:256,1,95,8|0,0:0|0:0,0:0:0:0:
208,228,147223,6,0,L|91:228,1,95,2|0,0:0|0:0,0:0:0:0:
280,259,147610,2,0,L|391:258,1,95,8|0,0:0|0:0,0:0:0:0:
208,91,147997,2,0,L|208:194,1,95,2|0,0:0|0:0,0:0:0:0:
390,146,148385,1,8,0:0:0:0:
485,123,148578,1,0,0:0:0:0:
199,290,148772,6,0,P|120:267|50:142,2,190,2|8|2,0:0|0:0|0:0,0:0:0:0:
389,173,149933,2,0,L|490:173,1,95,8|0,0:0|0:0,0:0:0:0:
208,154,150320,6,2,L|5:154,2,190,2|8|2,0:0|0:0|0:0,0:0:0:0:
18,251,151481,1,8,0:0:0:0:
303,203,151868,6,2,L|505:203,2,190,4|8|2,0:0|0:0|0:0,0:0:0:0:
112,89,153030,2,0,L|11:89,1,95,8|0,0:0|0:0,0:0:0:0:
293,122,153417,6,0,L|390:122,1,95,2|0,0:0|0:0,0:0:0:0:
221,201,153804,2,0,L|105:201,1,95,8|0,0:0|0:0,0:0:0:0:
293,259,154191,2,0,L|293:126,1,95,2|0,0:0|0:0,0:0:0:0:
112,117,154578,1,8,0:0:0:0:
17,58,154772,1,0,0:0:0:0:
301,265,154965,6,0,P|380:242|450:117,2,190,2|8|2,0:0|0:0|0:0,0:0:0:0:
111,143,156126,2,0,L|-18:143,1,95,8|0,0:0|0:0,0:0:0:0:
294,148,156514,6,0,L|512:148,2,190,2|8|2,0:0|0:0|0:0,0:0:0:0:
484,243,157675,1,8,0:0:0:0:
200,86,158062,6,0,L|-13:87,2,190,4|8|2,0:0|0:0|0:0,0:0:0:0:
390,173,159223,2,0,L|491:173,1,95,8|0,0:0|0:0,0:0:0:0:
209,237,159610,6,0,L|96:237,1,95,2|0,0:0|0:0,0:0:0:0:
281,263,159997,2,0,L|386:263,1,95,8|0,0:0|0:0,0:0:0:0:
208,160,160385,2,0,L|85:160,1,95,2|0,0:0|0:0,0:0:0:0:
294,190,160772,1,8,0:0:0:0:
408,182,160965,1,0,0:0:0:0:
122,77,161159,6,0,L|5:77,2,95,4|0|8,0:0|0:0|0:0,0:0:0:0:
274,163,161739,2,0,L|382:163,1,95,0|2,0:0|0:0,0:0:0:0:
217,230,162126,2,0,L|97:230,1,95,0|8,0:0|0:0,0:0:0:0:
304,279,162514,1,0,0:0:0:0:
29,291,162707,6,0,L|30:174,1,95,2|0,0:0|0:0,0:0:0:0:
287,188,163094,2,0,L|407:187,1,95,8|0,0:0|0:0,0:0:0:0:
125,129,163481,2,0,L|19:129,1,95,2|0,0:0|0:0,0:0:0:0:
316,108,163868,2,0,L|427:108,1,95,8|0,0:0|0:0,0:0:0:0:
133,238,164256,6,8,L|330:237,2,190,4|8|2,0:0|0:0|0:0,0:0:0:0:
322,290,165417,2,0,L|418:290,1,95,8|0,0:0|0:0,0:0:0:0:
141,128,165804,6,0,L|141:227,1,95,2|0,0:0|0:0,0:0:0:0:
308,204,166191,2,0,L|309:74,1,95,8|0,0:0|0:0,0:0:0:0:
141,128,166578,2,0,L|27:128,1,95,8|0,0:0|0:0,0:0:0:0:
227,71,166965,1,2,0:0:0:0:
113,208,167159,1,0,0:0:0:0:
388,109,167352,6,0,L|491:109,2,95,4|0|8,0:0|0:0|0:0,0:0:0:0:
236,186,167933,2,0,L|139:186,1,95,0|2,0:0|0:0,0:0:0:0:
293,250,168320,2,0,L|413:250,1,95,0|8,0:0|0:0,0:0:0:0:
207,235,168707,1,0,0:0:0:0:
484,318,168901,6,0,L|484:193,1,95,2|0,0:0|0:0,0:0:0:0:
227,143,169288,2,0,L|105:143,1,95,8|0,0:0|0:0,0:0:0:0:
399,54,169675,2,0,L|400:151,1,95,2|0,0:0|0:0,0:0:0:0:
233,110,170062,2,0,L|101:110,1,95,8|0,0:0|0:0,0:0:0:0:
467,217,170449,5,2,0:0:0:0:
277,179,170836,1,0,0:0:0:0:
277,179,171030,1,2,0:0:0:0:
467,199,171417,1,2,0:0:0:0:
277,179,171804,1,2,0:0:0:0:
277,179,171997,5,2,0:0:0:0:
467,199,172385,1,2,0:0:0:0:
163,219,172772,1,2,0:0:0:0:
