osu file format v14

[General]
AudioFilename: audio.mp3
AudioLeadIn: 0
PreviewTime: 104038
Countdown: 0
SampleSet: Soft
StackLeniency: 0.7
Mode: 0
LetterboxInBreaks: 0
EpilepsyWarning: 1
WidescreenStoryboard: 1

[Editor]
Bookmarks: 168783
DistanceSpacing: 0.2
BeatDivisor: 4
GridSize: 32
TimelineZoom: 1.2

[Metadata]
Title:Cha Cha Cha
TitleUnicode:Cha Cha Cha
Artist:Kaarija
ArtistUnicode:Käärijä
Creator:Aakki
Version:Extra
Source:Eurovision Song Contest 2023
Tags:[_L_u_k_a_s_] lukas seolv bokeru xandit muya- dtm9 nowa nowaie finnish bn -aku overranked bad mapper hip-hop hip hop rap hyperpop metal electronic finnish suomi suomalainen male vocals uuden musiikin kilpailu 2023 umk23 euroviisut
BeatmapID:4277896
BeatmapSetID:1956893

[Difficulty]
HPDrainRate:4.8
CircleSize:4.5
OverallDifficulty:8.2
ApproachRate:9.1
SliderMultiplier:2
SliderTickRate:1

[Events]
//Background and Video events
0,0,"bg cha.jpg",0,0
Video,54,"v4.mp4"
//Break Periods
2,28197,30320
2,118004,127094
//Storyboard Layer 0 (Background)
//Storyboard Layer 1 (Fail)
//Storyboard Layer 2 (Pass)
//Storyboard Layer 3 (Foreground)
//Storyboard Layer 4 (Overlay)
//Storyboard Sound Samples

[TimingPoints]
127,387.096774193548,4,2,0,40,1,0
6320,-166.666666666667,4,2,1,50,0,0
9417,-66.6666666666667,4,2,1,50,0,0
9610,-166.666666666667,4,2,1,50,0,0
9997,-66.6666666666667,4,2,1,50,0,0
10191,-166.666666666667,4,2,1,50,0,0
10385,-66.6666666666667,4,2,1,50,0,0
10578,-166.666666666667,4,2,1,50,0,0
10772,-66.6666666666667,4,2,1,50,0,0
10965,-66.6666666666667,4,2,1,50,0,0
12126,-166.666666666667,4,2,1,50,0,0
12514,-166.666666666667,4,2,1,50,0,0
15610,-66.6666666666667,4,2,1,50,0,0
15804,-166.666666666667,4,2,1,50,0,0
16191,-66.6666666666667,4,2,1,50,0,0
16385,-166.666666666667,4,2,1,50,0,0
16578,-66.6666666666667,4,2,1,50,0,0
16772,-166.666666666667,4,2,1,50,0,0
16965,-66.6666666666667,4,2,1,50,0,0
17159,-66.6666666666667,4,2,1,50,0,0
18320,-55.5555555555556,4,2,1,50,0,0
18707,-133.333333333333,4,2,2,60,0,0
18901,-133.333333333333,4,2,1,60,0,0
19094,-133.333333333333,4,2,3,60,0,0
19288,-133.333333333333,4,2,1,60,0,0
19481,-133.333333333333,4,2,3,60,0,0
19675,-133.333333333333,4,2,1,60,0,0
19868,-133.333333333333,4,2,3,60,0,0
20062,-133.333333333333,4,2,1,60,0,0
20643,-133.333333333333,4,2,3,60,0,0
20836,-133.333333333333,4,2,1,60,0,0
21417,-133.333333333333,4,2,3,60,0,0
21610,-133.333333333333,4,2,1,60,0,0
21804,-62.5,4,2,3,60,0,0
21997,-133.333333333333,4,2,3,60,0,0
22385,-62.5,4,2,1,60,0,0
22578,-133.333333333333,4,2,1,60,0,0
22772,-62.5,4,2,1,60,0,0
22965,-133.333333333333,4,2,2,60,0,0
23159,-62.5,4,2,1,60,0,0
23352,-62.5,4,2,3,60,0,0
24320,-50,4,2,4,60,0,0
24514,-133.333333333333,4,2,4,60,0,0
24707,-45.4545454545455,4,2,2,60,0,0
24901,-133.333333333333,4,2,1,60,0,0
25288,-133.333333333333,4,2,3,60,0,0
25481,-133.333333333333,4,2,1,60,0,0
25675,-133.333333333333,4,2,3,60,0,0
25868,-133.333333333333,4,2,1,60,0,0
26062,-133.333333333333,4,2,3,60,0,0
26256,-133.333333333333,4,2,1,60,0,0
26836,-133.333333333333,4,2,3,60,0,0
27030,-133.333333333333,4,2,1,60,0,0
27610,-133.333333333333,4,2,3,60,0,0
27804,-133.333333333333,4,2,1,60,0,0
27997,-181.818181818181,4,2,1,40,0,0
31094,-33.3333333333333,4,2,1,50,0,0
31481,-500,4,2,1,50,0,0
33804,-43.4782608695652,4,2,5,50,0,0
34191,-55.5555555555556,4,2,6,80,0,0
34385,-83.3333333333333,4,2,6,80,0,0
34578,-83.3333333333333,4,2,7,80,0,0
34772,-55.5555555555556,4,2,8,80,0,0
34966,-83.3333333333333,4,2,3,80,0,0
35062,-83.3333333333333,4,2,8,80,0,0
35159,-55.5555555555556,4,2,8,80,0,0
35353,-83.3333333333333,4,2,7,80,0,0
35546,-55.5555555555556,4,2,8,80,0,0
35739,-55.5555555555556,4,2,9,80,0,0
36126,-55.5555555555556,4,2,6,80,0,0
36514,-43.4782608695652,4,2,10,80,0,0
36901,-50,4,2,11,80,0,0
37094,-50,4,2,2,80,0,0
37191,-50,4,2,11,80,0,0
37288,-83.3333333333333,4,2,12,80,0,0
37481,-83.3333333333333,4,2,13,80,0,0
37675,-83.3333333333333,4,2,11,80,0,0
37868,-83.3333333333333,4,2,13,80,0,0
38062,-83.3333333333333,4,2,11,80,0,0
38256,-83.3333333333333,4,2,13,80,0,0
38449,-83.3333333333333,4,2,11,80,0,0
38643,-83.3333333333333,4,2,13,80,0,0
38836,-83.3333333333333,4,2,14,80,0,0
39030,-83.3333333333333,4,2,13,80,0,0
39223,-83.3333333333333,4,2,11,80,0,0
39417,-83.3333333333333,4,2,4,80,0,0
39513,-83.3333333333333,4,2,11,80,0,0
39610,-83.3333333333333,4,2,11,80,0,0
39804,-83.3333333333333,4,2,13,80,0,0
39997,-83.3333333333333,4,2,11,80,0,0
40191,-83.3333333333333,4,2,13,80,0,0
40385,-55.5555555555556,4,2,15,80,0,0
40578,-83.3333333333333,4,2,15,80,0,0
40772,-83.3333333333333,4,2,7,80,0,0
40965,-55.5555555555556,4,2,8,80,0,0
41160,-83.3333333333333,4,2,3,80,0,0
41352,-55.5555555555556,4,2,8,80,0,0
41547,-83.3333333333333,4,2,7,80,0,0
41739,-55.5555555555556,4,2,8,80,0,0
41933,-55.5555555555556,4,2,6,80,0,0
42126,-55.5555555555556,4,2,4,80,0,0
42320,-55.5555555555556,4,2,16,80,0,0
42416,-55.5555555555556,4,2,4,80,0,0
42514,-55.5555555555556,4,2,16,80,0,0
42707,-43.4782608695652,4,2,16,80,0,0
42901,-133.333333333333,4,2,16,80,0,0
43094,-50,4,2,11,80,0,0
43288,-27.7777777777778,4,2,2,80,0,0
43482,-83.3333333333333,4,2,12,80,0,0
43675,-83.3333333333333,4,2,13,80,0,0
43868,-83.3333333333333,4,2,11,80,0,0
44062,-83.3333333333333,4,2,13,80,0,0
44256,-83.3333333333333,4,2,11,80,0,0
44449,-83.3333333333333,4,2,13,80,0,0
44643,-83.3333333333333,4,2,11,80,0,0
44836,-83.3333333333333,4,2,13,80,0,0
44933,-83.3333333333333,4,2,11,80,0,0
45030,-83.3333333333333,4,2,14,80,0,0
45223,-83.3333333333333,4,2,13,80,0,0
45417,-83.3333333333333,4,2,11,80,0,0
45610,-83.3333333333333,4,2,4,80,0,0
45707,-83.3333333333333,4,2,11,80,0,0
45804,-83.3333333333333,4,2,11,80,0,0
45997,-83.3333333333333,4,2,13,80,0,0
46191,-83.3333333333333,4,2,11,80,0,0
46385,-83.3333333333333,4,2,13,80,0,0
46578,-55.5555555555556,4,2,6,80,0,0
46772,-83.3333333333333,4,2,6,80,0,0
46965,-83.3333333333333,4,2,7,80,0,0
47159,-55.5555555555556,4,2,8,80,0,0
47353,-83.3333333333333,4,2,3,80,0,0
47449,-83.3333333333333,4,2,8,80,0,0
47546,-55.5555555555556,4,2,8,80,0,0
47740,-83.3333333333333,4,2,7,80,0,0
47933,-55.5555555555556,4,2,8,80,0,0
48126,-55.5555555555556,4,2,9,80,0,0
48514,-55.5555555555556,4,2,6,80,0,0
48901,-43.4782608695652,4,2,10,80,0,0
49288,-50,4,2,11,80,0,0
49481,-50,4,2,2,80,0,0
49578,-50,4,2,11,80,0,0
49675,-83.3333333333333,4,2,12,80,0,0
49868,-83.3333333333333,4,2,13,80,0,0
49965,-83.3333333333333,4,2,1,80,0,0
50062,-83.3333333333333,4,2,11,80,0,0
50256,-83.3333333333333,4,2,13,80,0,0
50449,-83.3333333333333,4,2,11,80,0,0
50643,-83.3333333333333,4,2,13,80,0,0
50836,-83.3333333333333,4,2,11,80,0,0
51030,-83.3333333333333,4,2,13,80,0,0
51126,-83.3333333333333,4,2,1,80,0,0
51223,-83.3333333333333,4,2,14,80,0,0
51417,-83.3333333333333,4,2,13,80,0,0
51610,-83.3333333333333,4,2,11,80,0,0
51804,-83.3333333333333,4,2,4,80,0,0
51900,-83.3333333333333,4,2,11,80,0,0
51997,-83.3333333333333,4,2,11,80,0,0
52191,-83.3333333333333,4,2,13,80,0,0
52385,-83.3333333333333,4,2,11,80,0,0
52578,-83.3333333333333,4,2,13,80,0,0
52772,-1000,4,2,5,40,0,0
54320,-200,4,2,5,40,0,0
55288,-50,4,2,5,40,0,0
55481,-333.333333333333,4,2,5,40,0,0
55675,-45.4545454545455,4,2,17,40,0,0
55868,-166.666666666667,4,2,1,55,0,0
56256,-166.666666666667,4,2,3,55,0,0
56449,-166.666666666667,4,2,1,55,0,0
56643,-166.666666666667,4,2,3,55,0,0
56836,-166.666666666667,4,2,1,55,0,0
57030,-166.666666666667,4,2,3,55,0,0
57223,-166.666666666667,4,2,1,55,0,0
57417,-166.666666666667,4,2,3,55,0,0
57901,-166.666666666667,4,2,1,55,0,0
58578,-166.666666666667,4,2,3,55,0,0
58772,-166.666666666667,4,2,1,55,0,0
58965,-66.6666666666667,4,2,3,55,0,0
59158,-166.666666666667,4,2,3,55,0,0
59545,-66.6666666666667,4,2,1,55,0,0
59739,-166.666666666667,4,2,1,55,0,0
59933,-66.6666666666667,4,2,1,55,0,0
60126,-166.666666666667,4,2,2,55,0,0
60320,-66.6666666666667,4,2,1,55,0,0
60513,-66.6666666666667,4,2,3,55,0,0
61674,-166.666666666667,4,2,2,55,0,0
62062,-166.666666666667,4,2,1,55,0,0
62449,-166.666666666667,4,2,3,55,0,0
62643,-166.666666666667,4,2,1,55,0,0
62836,-166.666666666667,4,2,3,55,0,0
63030,-166.666666666667,4,2,1,55,0,0
63223,-166.666666666667,4,2,3,55,0,0
63417,-166.666666666667,4,2,1,55,0,0
63610,-166.666666666667,4,2,3,55,0,0
63804,-166.666666666667,4,2,1,55,0,0
63997,-166.666666666667,4,2,3,55,0,0
64094,-166.666666666667,4,2,1,55,0,0
64772,-166.666666666667,4,2,3,55,0,0
64965,-166.666666666667,4,2,1,55,0,0
65158,-66.6666666666667,4,2,3,55,0,0
65352,-166.666666666667,4,2,3,55,0,0
65739,-66.6666666666667,4,2,1,55,0,0
65933,-166.666666666667,4,2,1,55,0,0
66126,-66.6666666666667,4,2,1,55,0,0
66320,-166.666666666667,4,2,3,55,0,0
66513,-66.6666666666667,4,2,1,55,0,0
66707,-66.6666666666667,4,2,3,55,0,0
67675,-66.6666666666667,4,2,18,55,0,0
67771,-66.6666666666667,4,2,3,55,0,0
67868,-55.5555555555556,4,2,18,55,0,0
68062,-33.3333333333333,4,2,2,55,0,0
68158,-33.3333333333333,4,2,18,55,0,0
68256,-90.9090909090909,4,2,3,65,0,0
68449,-90.9090909090909,4,2,13,65,0,0
68643,-90.9090909090909,4,2,1,65,0,0
68836,-90.9090909090909,4,2,13,65,0,0
69030,-90.9090909090909,4,2,1,65,0,0
69223,-90.9090909090909,4,2,13,65,0,0
69417,-90.9090909090909,4,2,1,65,0,0
69610,-90.9090909090909,4,2,13,65,0,0
69804,-90.9090909090909,4,2,1,65,0,0
69997,-90.9090909090909,4,2,13,65,0,0
70191,-90.9090909090909,4,2,1,65,0,0
70385,-90.9090909090909,4,2,13,65,0,0
70578,-90.9090909090909,4,2,1,65,0,0
70772,-90.9090909090909,4,2,13,65,0,0
70965,-90.9090909090909,4,2,1,65,0,0
71159,-90.9090909090909,4,2,13,65,0,0
71352,-90.9090909090909,4,2,1,65,0,0
71546,-90.9090909090909,4,2,13,65,0,0
71739,-90.9090909090909,4,2,1,65,0,0
71933,-90.9090909090909,4,2,13,65,0,0
72126,-90.9090909090909,4,2,1,65,0,0
72320,-90.9090909090909,4,2,13,65,0,0
72514,-90.9090909090909,4,2,1,65,0,0
72707,-90.9090909090909,4,2,13,65,0,0
72901,-90.9090909090909,4,2,1,65,0,0
73094,-90.9090909090909,4,2,13,65,0,0
73288,-90.9090909090909,4,2,1,65,0,0
73481,-90.9090909090909,4,2,13,65,0,0
73675,-90.9090909090909,4,2,1,65,0,0
73868,-66.6666666666667,4,2,13,65,0,0
74062,-58.8235294117647,4,2,1,65,0,0
74256,-40,4,2,5,65,0,0
74449,-90.9090909090909,4,2,5,65,0,0
74643,-90.9090909090909,4,2,13,65,0,0
74836,-90.9090909090909,4,2,1,65,0,0
75030,-90.9090909090909,4,2,13,65,0,0
75223,-90.9090909090909,4,2,1,65,0,0
75417,-90.9090909090909,4,2,13,65,0,0
75610,-90.9090909090909,4,2,1,65,0,0
75804,-90.9090909090909,4,2,13,65,0,0
75997,-90.9090909090909,4,2,1,65,0,0
76191,-90.9090909090909,4,2,13,65,0,0
76385,-90.9090909090909,4,2,1,65,0,0
76578,-90.9090909090909,4,2,13,65,0,0
76772,-90.9090909090909,4,2,1,65,0,0
76965,-90.9090909090909,4,2,13,65,0,0
77159,-90.9090909090909,4,2,1,65,0,0
77352,-90.9090909090909,4,2,13,65,0,0
77546,-250,4,2,5,40,0,0
80643,-33.3333333333333,4,2,1,60,0,0
81030,-500,4,2,1,50,0,0
83352,-43.4782608695652,4,2,5,50,0,0
83739,-55.5555555555556,4,2,6,80,0,0
83933,-83.3333333333333,4,2,6,80,0,0
84126,-83.3333333333333,4,2,7,80,0,0
84320,-55.5555555555556,4,2,8,80,0,0
84514,-83.3333333333333,4,2,3,80,0,0
84610,-83.3333333333333,4,2,8,80,0,0
84707,-55.5555555555556,4,2,8,80,0,0
84901,-83.3333333333333,4,2,7,80,0,0
85094,-55.5555555555556,4,2,8,80,0,0
85288,-55.5555555555556,4,2,9,80,0,0
85675,-55.5555555555556,4,2,6,80,0,0
86062,-43.4782608695652,4,2,10,80,0,0
86449,-50,4,2,11,80,0,0
86643,-50,4,2,2,80,0,0
86739,-50,4,2,11,80,0,0
86836,-83.3333333333333,4,2,12,80,0,0
87030,-83.3333333333333,4,2,13,80,0,0
87223,-83.3333333333333,4,2,11,80,0,0
87417,-83.3333333333333,4,2,13,80,0,0
87610,-83.3333333333333,4,2,11,80,0,0
87804,-83.3333333333333,4,2,13,80,0,0
87997,-83.3333333333333,4,2,11,80,0,0
88191,-83.3333333333333,4,2,13,80,0,0
88385,-83.3333333333333,4,2,14,80,0,0
88578,-83.3333333333333,4,2,13,80,0,0
88772,-83.3333333333333,4,2,11,80,0,0
88965,-83.3333333333333,4,2,4,80,0,0
89061,-83.3333333333333,4,2,11,80,0,0
89159,-83.3333333333333,4,2,11,80,0,0
89352,-83.3333333333333,4,2,13,80,0,0
89546,-83.3333333333333,4,2,11,80,0,0
89739,-83.3333333333333,4,2,13,80,0,0
89933,-55.5555555555556,4,2,15,80,0,0
90126,-83.3333333333333,4,2,15,80,0,0
90320,-83.3333333333333,4,2,7,80,0,0
90513,-55.5555555555556,4,2,8,80,0,0
90708,-83.3333333333333,4,2,3,80,0,0
90900,-55.5555555555556,4,2,8,80,0,0
91095,-83.3333333333333,4,2,7,80,0,0
91287,-55.5555555555556,4,2,8,80,0,0
91481,-55.5555555555556,4,2,6,80,0,0
91675,-55.5555555555556,4,2,4,80,0,0
91868,-55.5555555555556,4,2,16,80,0,0
91964,-55.5555555555556,4,2,4,80,0,0
92062,-55.5555555555556,4,2,16,80,0,0
92255,-43.4782608695652,4,2,16,80,0,0
92449,-133.333333333333,4,2,16,80,0,0
92643,-40,4,2,11,80,0,0
92836,-27.7777777777778,4,2,2,80,0,0
93030,-83.3333333333333,4,2,12,80,0,0
93223,-83.3333333333333,4,2,13,80,0,0
93417,-83.3333333333333,4,2,11,80,0,0
93610,-83.3333333333333,4,2,13,80,0,0
93804,-83.3333333333333,4,2,11,80,0,0
93997,-83.3333333333333,4,2,13,80,0,0
94191,-83.3333333333333,4,2,11,80,0,0
94385,-83.3333333333333,4,2,13,80,0,0
94481,-83.3333333333333,4,2,11,80,0,0
94578,-83.3333333333333,4,2,14,80,0,0
94772,-83.3333333333333,4,2,13,80,0,0
94965,-83.3333333333333,4,2,11,80,0,0
95159,-83.3333333333333,4,2,4,80,0,0
95255,-83.3333333333333,4,2,11,80,0,0
95352,-83.3333333333333,4,2,11,80,0,0
95546,-83.3333333333333,4,2,13,80,0,0
95739,-83.3333333333333,4,2,11,80,0,0
95933,-83.3333333333333,4,2,13,80,0,0
96126,-55.5555555555556,4,2,6,80,0,0
96320,-83.3333333333333,4,2,6,80,0,0
96514,-83.3333333333333,4,2,7,80,0,0
96707,-55.5555555555556,4,2,8,80,0,0
96901,-83.3333333333333,4,2,3,80,0,0
96997,-83.3333333333333,4,2,8,80,0,0
97094,-55.5555555555556,4,2,8,80,0,0
97288,-83.3333333333333,4,2,7,80,0,0
97481,-55.5555555555556,4,2,8,80,0,0
97675,-55.5555555555556,4,2,9,80,0,0
98062,-55.5555555555556,4,2,6,80,0,0
98449,-43.4782608695652,4,2,10,80,0,0
98836,-50,4,2,11,80,0,0
99030,-50,4,2,2,80,0,0
99126,-50,4,2,11,80,0,0
99223,-83.3333333333333,4,2,12,80,0,0
99417,-83.3333333333333,4,2,13,80,0,0
99514,-83.3333333333333,4,2,1,80,0,0
99610,-83.3333333333333,4,2,11,80,0,0
99804,-83.3333333333333,4,2,13,80,0,0
99997,-83.3333333333333,4,2,11,80,0,0
100191,-83.3333333333333,4,2,13,80,0,0
100385,-83.3333333333333,4,2,11,80,0,0
100578,-83.3333333333333,4,2,13,80,0,0
100675,-83.3333333333333,4,2,1,80,0,0
100772,-83.3333333333333,4,2,14,80,0,0
100965,-83.3333333333333,4,2,13,80,0,0
101159,-83.3333333333333,4,2,11,80,0,0
101352,-83.3333333333333,4,2,4,80,0,0
101448,-83.3333333333333,4,2,11,80,0,0
101546,-83.3333333333333,4,2,11,80,0,0
101739,-83.3333333333333,4,2,13,80,0,0
101933,-83.3333333333333,4,2,11,80,0,0
102126,-83.3333333333333,4,2,13,80,0,0
102320,-200,4,2,1,50,0,0
103868,-100,4,2,6,65,0,0
104062,-83.3333333333333,4,2,7,65,0,0
104256,-71.4285714285714,4,2,6,65,0,0
104449,-58.8235294117647,4,2,7,65,0,0
104643,-50,4,2,6,65,0,0
104836,-40,4,2,6,65,0,0
105030,-333.333333333333,4,2,1,65,0,0
105417,-80,4,2,19,80,0,0
105610,-80,4,2,4,80,0,0
105707,-80,4,2,19,80,0,0
105804,-80,4,2,7,80,0,0
105997,-80,4,2,4,80,0,0
106094,-80,4,2,7,80,0,0
106191,-80,4,2,11,80,0,0
106385,-80,4,2,4,80,0,0
106578,-80,4,2,11,80,0,0
106772,-80,4,2,8,80,0,0
106868,-80,4,2,8,80,0,0
106965,-76.9230769230769,4,2,20,80,0,0
107159,-76.9230769230769,4,2,4,80,0,0
107255,-76.9230769230769,4,2,20,80,0,0
107352,-66.6666666666667,4,2,11,80,0,0
107546,-66.6666666666667,4,2,4,80,0,0
107642,-66.6666666666667,4,2,11,80,0,0
107739,-58.8235294117647,4,2,11,80,0,0
107933,-58.8235294117647,4,2,4,80,0,0
108029,-58.8235294117647,4,2,11,80,0,0
108126,-80,4,2,11,80,0,0
108320,-80,4,2,9,80,0,0
108514,-80,4,2,14,80,0,0
108707,-80,4,2,4,80,0,0
108901,-80,4,2,11,80,0,0
109094,-80,4,2,4,80,0,0
109191,-80,4,2,11,80,0,0
109288,-80,4,2,11,80,0,0
109481,-80,4,2,4,80,0,0
109578,-80,4,2,11,80,0,0
109675,-80,4,2,11,80,0,0
109868,-80,4,2,8,80,0,0
110062,-80,4,2,20,80,0,0
110256,-80,4,2,4,80,0,0
110352,-80,4,2,20,80,0,0
110449,-80,4,2,11,80,0,0
110643,-80,4,2,13,80,0,0
110739,-80,4,2,1,80,0,0
110836,-80,4,2,11,80,0,0
111030,-80,4,2,4,80,0,0
111126,-80,4,2,11,80,0,0
111223,-80,4,2,11,80,0,0
111320,-80,4,2,6,80,0,0
111417,-80,4,2,4,80,0,0
111610,-80,4,2,19,80,0,0
111804,-80,4,2,4,80,0,0
111997,-80,4,2,7,80,0,0
112191,-80,4,2,4,80,0,0
112385,-80,4,2,11,80,0,0
112578,-80,4,2,4,80,0,0
112675,-80,4,2,11,80,0,0
112772,-80,4,2,11,80,0,0
112965,-80,4,2,8,80,0,0
113062,-80,4,2,8,80,0,0
113159,-76.9230769230769,4,2,20,80,0,0
113352,-76.9230769230769,4,2,4,80,0,0
113449,-76.9230769230769,4,2,20,80,0,0
113546,-66.6666666666667,4,2,11,80,0,0
113739,-66.6666666666667,4,2,4,80,0,0
113836,-66.6666666666667,4,2,11,80,0,0
113933,-58.8235294117647,4,2,11,80,0,0
114126,-58.8235294117647,4,2,4,80,0,0
114223,-58.8235294117647,4,2,11,80,0,0
114320,-80,4,2,11,80,0,0
114514,-80,4,2,9,80,0,0
114707,-80,4,2,14,80,0,0
114901,-80,4,2,4,80,0,0
114997,-80,4,2,14,80,0,0
115094,-80,4,2,11,80,0,0
115288,-80,4,2,4,80,0,0
115481,-80,4,2,11,80,0,0
115675,-80,4,2,4,80,0,0
115771,-80,4,2,11,80,0,0
115868,-80,4,2,11,80,0,0
116062,-80,4,2,8,80,0,0
116256,-133.333333333333,4,2,5,70,0,0
116643,-181.818181818181,4,2,5,60,0,0
117030,-285.714285714284,4,2,5,50,0,0
117417,-357.142857142857,4,2,5,45,0,0
117804,-500,4,2,5,40,0,0
130191,-222.222222222222,4,2,18,50,0,0
130578,-222.222222222222,4,2,2,50,0,0
130965,-222.222222222222,4,2,3,50,0,0
131352,-222.222222222222,4,2,2,50,0,0
131739,-222.222222222222,4,2,3,50,0,0
132901,-222.222222222222,4,2,2,50,0,0
133288,-222.222222222222,4,2,3,50,0,0
133868,-222.222222222222,4,2,1,50,0,0
134062,-222.222222222222,4,2,3,50,0,0
134643,-222.222222222222,4,2,1,50,0,0
134836,-222.222222222222,4,2,3,50,0,0
135417,-222.222222222222,4,2,1,50,0,0
135610,-222.222222222222,4,2,3,50,0,0
136772,-222.222222222222,4,2,2,50,0,0
137159,-222.222222222222,4,2,1,50,0,0
137546,-222.222222222222,4,2,3,50,0,0
138320,-222.222222222222,4,2,2,50,0,0
138707,-222.222222222222,4,2,1,50,0,0
139094,-222.222222222222,4,2,3,50,0,0
139288,-222.222222222222,4,2,1,50,0,0
139481,-222.222222222222,4,2,3,50,0,0
140836,-222.222222222222,4,2,1,50,0,0
141030,-222.222222222222,4,2,3,50,0,0
141997,-222.222222222222,4,2,1,50,0,0
142191,-222.222222222222,4,2,2,50,0,0
142481,-222.222222222222,4,2,3,50,0,0
142578,-200,4,2,1,50,0,0
144126,-100,4,2,6,65,0,0
144320,-83.3333333333333,4,2,7,65,0,0
144514,-71.4285714285714,4,2,6,65,0,0
144707,-58.8235294117647,4,2,7,65,0,0
144901,-50,4,2,6,65,0,0
145094,-40,4,2,6,65,0,0
145288,-333.333333333333,4,2,1,65,0,0
145675,-80,4,2,19,80,0,1
145868,-80,4,2,4,80,0,1
145965,-80,4,2,19,80,0,1
146062,-80,4,2,7,80,0,1
146256,-80,4,2,4,80,0,1
146352,-80,4,2,7,80,0,1
146449,-80,4,2,11,80,0,1
146643,-80,4,2,4,80,0,1
146836,-80,4,2,11,80,0,1
147030,-80,4,2,8,80,0,1
147126,-80,4,2,8,80,0,1
147223,-76.9230769230769,4,2,20,80,0,1
147417,-76.9230769230769,4,2,4,80,0,1
147513,-76.9230769230769,4,2,20,80,0,1
147610,-66.6666666666667,4,2,11,80,0,1
147804,-66.6666666666667,4,2,4,80,0,1
147900,-66.6666666666667,4,2,11,80,0,1
147997,-58.8235294117647,4,2,11,80,0,1
148191,-58.8235294117647,4,2,4,80,0,1
148287,-58.8235294117647,4,2,11,80,0,1
148384,-80,4,2,11,80,0,1
148578,-80,4,2,9,80,0,1
148675,-80,4,2,6,80,0,1
148772,-80,4,2,14,80,0,1
148965,-80,4,2,4,80,0,1
149159,-80,4,2,11,80,0,1
149352,-80,4,2,4,80,0,1
149449,-80,4,2,11,80,0,1
149546,-80,4,2,11,80,0,1
149739,-80,4,2,4,80,0,1
149836,-80,4,2,11,80,0,1
149933,-80,4,2,11,80,0,1
150126,-80,4,2,8,80,0,1
150320,-80,4,2,20,80,0,1
150514,-80,4,2,4,80,0,1
150610,-80,4,2,20,80,0,1
150707,-80,4,2,11,80,0,1
150901,-80,4,2,13,80,0,1
150997,-80,4,2,1,80,0,1
151094,-80,4,2,11,80,0,1
151288,-80,4,2,4,80,0,1
151384,-80,4,2,11,80,0,1
151481,-80,4,2,11,80,0,1
151578,-80,4,2,6,80,0,1
151675,-80,4,2,4,80,0,1
151868,-80,4,2,19,80,0,1
152062,-80,4,2,4,80,0,1
152256,-80,4,2,7,80,0,1
152449,-80,4,2,4,80,0,1
152643,-80,4,2,11,80,0,1
152836,-80,4,2,4,80,0,1
152933,-80,4,2,11,80,0,1
153030,-80,4,2,11,80,0,1
153223,-80,4,2,8,80,0,1
153320,-80,4,2,8,80,0,1
153417,-76.9230769230769,4,2,20,80,0,1
153610,-76.9230769230769,4,2,4,80,0,1
153707,-76.9230769230769,4,2,20,80,0,1
153804,-66.6666666666667,4,2,11,80,0,1
153997,-66.6666666666667,4,2,4,80,0,1
154094,-66.6666666666667,4,2,11,80,0,1
154191,-58.8235294117647,4,2,11,80,0,1
154385,-58.8235294117647,4,2,4,80,0,1
154481,-58.8235294117647,4,2,11,80,0,1
154578,-80,4,2,11,80,0,1
154772,-80,4,2,9,80,0,1
154965,-80,4,2,14,80,0,1
155159,-80,4,2,4,80,0,1
155255,-80,4,2,14,80,0,1
155352,-80,4,2,11,80,0,1
155546,-80,4,2,4,80,0,1
155739,-80,4,2,11,80,0,1
155933,-80,4,2,4,80,0,1
156029,-80,4,2,11,80,0,1
156126,-80,4,2,11,80,0,1
156320,-80,4,2,8,80,0,1
156514,-80,4,2,20,80,0,1
156707,-80,4,2,4,80,0,1
156901,-80,4,2,11,80,0,1
157094,-80,4,2,4,80,0,1
157288,-80,4,2,11,80,0,1
157481,-80,4,2,4,80,0,1
157675,-80,4,2,11,80,0,1
157868,-80,4,2,4,80,0,1
157965,-80,4,2,11,80,0,1
158062,-80,4,2,19,80,0,1
158256,-80,4,2,4,80,0,1
158449,-80,4,2,7,80,0,1
158643,-80,4,2,4,80,0,1
158739,-80,4,2,7,80,0,1
158836,-80,4,2,11,80,0,1
159030,-80,4,2,4,80,0,1
159223,-80,4,2,11,80,0,1
159417,-80,4,2,8,80,0,1
159514,-80,4,2,8,80,0,1
159610,-76.9230769230769,4,2,20,80,0,1
159804,-76.9230769230769,4,2,4,80,0,1
159900,-76.9230769230769,4,2,20,80,0,1
159997,-66.6666666666667,4,2,11,80,0,1
160191,-66.6666666666667,4,2,4,80,0,1
160287,-66.6666666666667,4,2,11,80,0,1
160384,-58.8235294117647,4,2,11,80,0,1
160578,-58.8235294117647,4,2,4,80,0,1
160675,-58.8235294117647,4,2,11,80,0,1
160771,-80,4,2,11,80,0,1
160965,-80,4,2,9,80,0,1
161159,-55.5555555555556,4,2,16,80,0,1
161352,-83.3333333333333,4,2,4,80,0,1
161546,-83.3333333333333,4,2,7,80,0,1
161739,-55.5555555555556,4,2,21,80,0,1
161934,-83.3333333333333,4,2,3,80,0,1
162126,-55.5555555555556,4,2,21,80,0,1
162321,-83.3333333333333,4,2,7,80,0,1
162513,-55.5555555555556,4,2,10,80,0,1
162707,-55.5555555555556,4,2,9,80,0,1
162901,-55.5555555555556,4,2,4,80,0,1
162997,-55.5555555555556,4,2,9,80,0,1
163094,-55.5555555555556,4,2,6,80,0,1
163288,-55.5555555555556,4,2,4,80,0,1
163481,-43.4782608695652,4,2,10,80,0,1
163675,-43.4782608695652,4,2,4,80,0,1
163771,-43.4782608695652,4,2,10,80,0,1
163868,-133.333333333333,4,2,11,80,0,1
164062,-133.333333333333,4,2,4,80,0,1
164158,-133.333333333333,4,2,11,80,0,1
164256,-80,4,2,19,80,0,1
164449,-80,4,2,4,80,0,1
164643,-80,4,2,7,80,0,1
164836,-80,4,2,4,80,0,1
164933,-80,4,2,7,80,0,1
165030,-80,4,2,11,80,0,1
165223,-80,4,2,4,80,0,1
165417,-80,4,2,11,80,0,1
165610,-80,4,2,8,80,0,1
165707,-80,4,2,8,80,0,1
165804,-76.9230769230769,4,2,20,80,0,1
165997,-76.9230769230769,4,2,4,80,0,1
166094,-76.9230769230769,4,2,20,80,0,1
166191,-66.6666666666667,4,2,11,80,0,1
166385,-66.6666666666667,4,2,4,80,0,1
166481,-66.6666666666667,4,2,11,80,0,1
166578,-58.8235294117647,4,2,11,80,0,1
166772,-58.8235294117647,4,2,4,80,0,1
166868,-58.8235294117647,4,2,11,80,0,1
166965,-80,4,2,11,80,0,1
167062,-80,4,2,6,80,0,1
167159,-80,4,2,9,80,0,1
167352,-55.5555555555556,4,2,16,80,0,1
167545,-83.3333333333333,4,2,4,80,0,1
167739,-83.3333333333333,4,2,7,80,0,1
167932,-55.5555555555556,4,2,21,80,0,1
168127,-83.3333333333333,4,2,3,80,0,1
168223,-83.3333333333333,4,2,21,80,0,1
168319,-55.5555555555556,4,2,21,80,0,1
168514,-83.3333333333333,4,2,7,80,0,1
168610,-83.3333333333333,4,2,21,80,0,1
168706,-55.5555555555556,4,2,10,80,0,1
168901,-55.5555555555556,4,2,9,80,0,1
169094,-55.5555555555556,4,2,4,80,0,1
169191,-55.5555555555556,4,2,9,80,0,1
169288,-55.5555555555556,4,2,6,80,0,1
169481,-55.5555555555556,4,2,4,80,0,1
169674,-43.4782608695652,4,2,10,80,0,1
169868,-43.4782608695652,4,2,4,80,0,1
169965,-43.4782608695652,4,2,10,80,0,1
170062,-125,4,2,7,80,0,1
170256,-125,4,2,4,80,0,1
170449,-125,4,2,8,80,0,0
171997,-100,4,2,8,80,0,0
172772,-83.3333333333333,4,2,8,80,0,0

[Colours]
Combo1 : 192,192,192
Combo2 : 26,255,26
Combo3 : 0,145,0

[HitObjects]
68,42,6320,6,0,L|50:108,1,59.9999981689454,0|0,1:1|0:0,0:0:0:0:
108,179,6707,1,2,1:2:0:0:
108,179,6901,1,2,2:2:0:0:
177,125,7094,2,0,L|236:112,1,59.9999981689454,2|2,1:2|2:2,0:0:0:0:
191,48,7481,1,2,1:2:0:0:
286,167,7675,6,0,L|266:229,1,59.9999981689454,2|2,2:2|1:2,0:0:0:0:
387,105,8062,2,0,L|369:163,1,59.9999981689454,2|2,2:2|1:2,0:0:0:0:
420,242,8449,2,0,L|401:299,2,59.9999981689454,2|2|2,2:2|1:2|2:2,0:0:0:0:
327,327,9030,5,2,1:2:0:0:
433,376,9223,1,2,2:2:0:0:
327,327,9417,6,0,B|261:269|152:299|161:366|192:388|244:363|232:284,1,225.000008583069,2|0,1:2|0:0,0:0:0:0:
227,335,9804,1,2,1:2:0:0:
147,197,9997,1,2,2:2:0:0:
253,3,10385,5,2,2:2:0:0:
185,33,10578,1,0,1:1:0:0:
242,83,10772,1,2,2:2:0:0:
319,47,10965,6,0,B|347:-14|420:12|420:12|384:56,1,150.000005722046,2|0,1:2|0:0,0:0:0:0:
458,177,11352,6,0,B|482:226|463:267|402:288|362:245|360:192|414:176|466:202|430:118,1,225.000008583069,2|0,1:2|0:0,0:0:0:0:
432,158,11739,2,0,B|311:189|366:314|471:305|504:261|510:210|501:166|492:157|468:144|453:144,1,300.000011444092,2|0,1:2|1:1,0:0:0:0:
9,373,12514,5,0,1:1:0:0:
9,373,12901,2,0,P|50:359|63:326,1,59.9999981689454,2|2,1:2|2:2,0:0:0:0:
86,278,13288,1,2,1:2:0:0:
13,232,13481,1,2,2:2:0:0:
86,278,13675,1,2,1:2:0:0:
159,170,13868,5,2,2:2:0:0:
104,115,14062,2,0,L|122:49,2,59.9999981689454,2|2|2,1:2|2:2|1:2,0:0:0:0:
63,16,14643,1,2,2:2:0:0:
63,16,15030,5,2,2:2:0:0:
187,93,15223,1,2,1:2:0:0:
63,16,15417,1,2,2:2:0:0:
231,23,15610,6,0,B|311:0|359:51|363:121|287:133|333:203|391:194,1,225.000008583069,2|0,1:2|0:0,0:0:0:0:
342,185,15997,1,2,1:2:0:0:
449,96,16191,1,2,2:2:0:0:
139,351,16578,5,2,2:2:0:0:
86,299,16772,1,0,1:1:0:0:
138,246,16965,1,2,2:2:0:0:
26,150,17159,6,0,B|-1:129|-27:164|-6:190|37:203|86:189|102:164|106:143,1,150.000005722046,2|0,1:2|0:0,0:0:0:0:
187,41,17546,6,0,B|163:90|182:131|243:152|283:109|285:56|231:40|179:66|215:-18,1,225.000008583069,2|0,1:2|0:0,0:0:0:0:
213,22,17933,2,0,B|334:53|279:178|174:169|141:125|135:74|144:30|153:21|177:8|192:8,1,300.000011444092,2|12,1:2|2:2,0:0:0:0:
497,196,18707,5,6,1:2:0:0:
438,242,18901,1,2,2:2:0:0:
397,182,19094,1,10,2:2:0:0:
453,139,19288,1,2,2:2:0:0:
317,111,19481,5,2,1:2:0:0:
284,9,19675,1,2,2:2:0:0:
358,44,19868,1,10,2:2:0:0:
249,80,20062,1,2,2:2:0:0:
249,80,20449,5,2,2:2:0:0:
170,63,20643,1,10,2:2:0:0:
95,46,20836,1,2,2:2:0:0:
95,46,21223,5,2,2:2:0:0:
183,28,21417,1,10,2:2:0:0:
243,104,21610,1,2,2:2:0:0:
219,198,21804,6,0,B|146:252|72:180|81:123|8:89,1,240,2|0,1:2|0:0,0:0:0:0:
15,112,22191,1,10,2:2:0:0:
91,281,22385,1,2,2:2:0:0:
351,332,22772,5,2,2:2:0:0:
396,270,22965,1,10,2:2:0:0:
351,332,23159,1,2,2:2:0:0:
293,132,23352,6,0,B|216:169|242:238|319:245|374:195|376:159|359:137,1,240,2|0,1:2|0:0,0:0:0:0:
377,133,23739,2,0,B|321:202|235:158|265:66|193:23,1,240,10|0,2:2|0:0,0:0:0:0:
146,89,24126,6,0,B|241:86|223:-12|293:-15|429:14|378:103|386:145|406:163,1,320,2|10,1:2|2:2,0:0:0:0:
476,354,24707,5,6,2:3:0:0:
415,310,24901,5,2,1:3:0:0:
449,249,25094,1,2,2:2:0:0:
342,281,25288,5,10,2:2:0:0:
327,205,25481,1,2,2:2:0:0:
232,260,25675,5,2,1:2:0:0:
248,186,25868,1,2,2:2:0:0:
164,224,26062,5,10,2:2:0:0:
143,155,26256,1,2,2:2:0:0:
143,155,26643,5,2,2:2:0:0:
83,204,26836,1,10,2:2:0:0:
4,192,27030,1,2,2:2:0:0:
4,192,27417,5,2,2:2:0:0:
58,70,27610,1,10,2:2:0:0:
192,41,27804,1,2,2:2:0:0:
284,104,27997,5,2,2:2:0:0:
284,104,31094,6,0,B|295:115|296:141|289:139|290:163|315:168|315:168|319:137|308:104|273:98,1,150.000005722046,4|0,1:2|0:0,0:0:0:0:
225,55,31481,5,2,2:2:0:0:
214,47,31675,1,2,2:2:0:0:
171,36,31868,1,2,2:2:0:0:
116,77,32062,1,2,2:2:0:0:
121,147,32256,1,2,2:2:0:0:
186,189,32449,1,2,2:2:0:0:
257,152,32643,6,0,P|308:138|360:113,1,110,2|0,2:2|0:0,0:0:0:0:
356,123,33804,6,0,B|314:195|343:270|444:238|438:185|426:156|380:177|397:114|376:94|364:55|291:135|239:204|214:160,1,345.000006580353,10|0,2:2|0:0,0:0:0:0:
228,232,34191,6,0,B|202:294|176:306|132:346|71:292|40:259|70:220|124:219|155:281|131:306,1,269.999991760254,6|0,1:2|0:0,0:0:0:0:
201,325,34578,6,0,P|243:345|261:361,1,59.9999981689454,10|0,2:2|0:0,0:0:0:0:
403,379,34772,6,0,P|341:302|397:146,1,269.999991760254,2|0,2:2|0:0,0:0:0:0:
455,125,35159,2,0,P|495:148|513:195,1,89.9999972534181,2|0,2:2|0:0,0:0:0:0:
486,253,35352,1,14,2:2:0:0:
278,154,35546,6,0,B|248:142|226:144|177:134,1,89.9999972534181,2|0,2:2|0:0,0:0:0:0:
133,202,35739,6,0,B|212:216|255:161|223:98|265:51|357:70,1,269.999991760254,6|0,1:2|0:0,0:0:0:0:
337,54,36126,2,0,P|240:13|127:15,1,179.999994506836,10|0,2:2|0:0,0:0:0:0:
37,248,36514,6,0,B|11:269|11:269|56:337|56:337|60:336|60:336|155:354|155:354|157:357|157:357|241:355|241:355|218:328|218:328|207:346|207:346|198:359,1,345.000006580353,6|0,1:2|0:0,0:0:0:0:
214,333,36901,1,10,2:2:0:0:
171,272,37094,1,6,2:3:0:0:
453,28,37288,5,6,1:2:0:0:
384,69,37481,1,2,2:2:0:0:
349,139,37675,1,10,2:2:0:0:
369,216,37868,1,2,2:2:0:0:
450,314,38062,6,0,P|464:336|479:379,1,59.9999981689454,2|0,1:2|0:0,0:0:0:0:
485,249,38256,1,2,2:2:0:0:
309,360,38449,6,0,P|273:346|244:344,1,59.9999981689454,14|0,2:2|0:0,0:0:0:0:
308,281,38643,1,2,2:2:0:0:
70,314,38836,6,0,P|91:279|94:253,1,59.9999981689454,6|0,1:2|0:0,0:0:0:0:
0,145,39030,2,0,P|18:212|37:226,1,59.9999981689454,2|0,2:2|0:0,0:0:0:0:
190,180,39223,2,0,B|224:123|163:91|71:122|100:196,1,179.999994506836,10|0,2:2|0:0,0:0:0:0:
106,189,39610,1,6,1:2:0:0:
193,104,39804,1,2,2:2:0:0:
39,13,39997,6,0,L|56:78,1,59.9999981689454,10|0,2:2|0:0,0:0:0:0:
110,113,40191,2,0,L|94:171,1,59.9999981689454,2|0,2:2|0:0,0:0:0:0:
202,22,40385,6,0,B|311:2|392:24|474:54|495:-7,1,269.999991760254,6|0,1:2|0:0,0:0:0:0:
478,9,40772,1,10,2:2:0:0:
429,184,40965,6,0,B|399:167|388:112|411:85|452:83|472:63|473:29,1,179.999994506836,2|2,2:2|1:3,0:0:0:0:
344,228,41352,6,0,B|327:240|327:276|342:301|371:298,1,89.9999972534181,2|0,2:2|0:0,0:0:0:0:
436,313,41546,1,14,2:2:0:0:
246,359,41739,6,0,B|225:338|213:308|230:290|185:263,1,89.9999972534181,2|0,2:2|0:0,0:0:0:0:
150,335,41933,1,2,1:2:0:0:
15,225,42126,6,0,B|54:263|112:267|157:219|146:176|166:152|201:111|246:125,1,269.999991760254,12|0,2:2|0:0,0:0:0:0:
241,134,42514,1,0,1:1:0:0:
41,33,42707,5,14,2:2:0:0:
47,48,42901,1,0,1:1:0:0:
320,64,43094,5,14,2:2:0:0:
326,47,43288,1,6,2:3:0:0:
154,186,43481,5,6,1:2:0:0:
60,318,43675,2,0,P|86:302|108:274,1,59.9999981689454,2|0,2:2|0:0,0:0:0:0:
160,353,43868,2,0,P|219:375|222:377,1,59.9999981689454,10|0,2:2|0:0,0:0:0:0:
294,351,44062,2,0,P|329:320|321:296,1,59.9999981689454,2|0,2:2|0:0,0:0:0:0:
302,149,44256,6,0,B|277:199|309:247|385:240,1,119.999996337891,2|2,1:2|2:2,0:0:0:0:
455,108,44643,2,0,B|496:55|435:11|356:13|358:93,1,179.999994506836,14|0,2:2|0:0,0:0:0:0:
353,75,45030,6,0,P|356:33|381:12,1,59.9999981689454,6|0,1:2|0:0,0:0:0:0:
473,128,45223,2,0,P|417:164|398:160,1,59.9999981689454,2|0,2:2|0:0,0:0:0:0:
282,132,45417,6,0,B|209:98|205:40|101:47|100:93,1,179.999994506836,10|0,2:2|0:0,0:0:0:0:
117,72,45804,6,0,B|176:67|145:22|216:-1,1,119.999996337891,6|2,1:2|2:2,0:0:0:0:
87,149,46191,2,0,P|65:231|47:274,1,119.999996337891,10|2,2:2|2:2,0:0:0:0:
309,370,46578,6,0,B|375:295|344:214|272:210|206:214|232:119,1,269.999991760254,6|0,1:2|0:0,0:0:0:0:
241,137,46965,1,10,2:2:0:0:
443,16,47159,6,0,B|487:0|561:17|499:106|366:125|406:249,1,269.999991760254,2|0,2:2|0:0,0:0:0:0:
412,202,47546,2,0,B|420:171|400:138|364:139,1,89.9999972534181,2|0,2:2|0:0,0:0:0:0:
318,83,47739,1,14,2:2:0:0:
122,57,47933,6,0,B|151:66|177:42|176:21|211:11,1,89.9999972534181,2|0,2:2|0:0,0:0:0:0:
52,22,48126,6,0,B|24:118|31:215|19:280|-3:319,1,269.999991760254,6|0,1:2|0:0,0:0:0:0:
95,337,48514,2,0,B|125:391|218:328|215:291|188:263|164:251,1,179.999994506836,10|0,2:2|0:0,0:0:0:0:
226,85,48901,6,0,B|246:41|246:41|256:39|256:39|311:56|311:56|318:54|318:54|392:74|392:74|401:71|401:71|412:35|412:35|418:30|418:30|426:0|426:0|433:-3|433:-3|501:15,1,345.000006580353,6|0,1:2|0:0,0:0:0:0:
483,10,49288,6,0,P|334:65|243:262,1,300,10|0,2:2|0:0,0:0:0:0:
280,246,49675,5,6,1:2:0:0:
423,354,49868,1,2,2:2:0:0:
434,335,49965,1,2,2:2:0:0:
443,319,50062,1,10,2:2:0:0:
401,219,50256,2,0,L|361:288,1,59.9999981689454,2|0,2:2|0:0,0:0:0:0:
205,365,50449,6,0,P|139:336|131:278,1,119.999996337891,2|2,1:2|2:2,0:0:0:0:
173,241,50836,1,14,2:2:0:0:
30,115,51030,2,0,P|23:140|11:179,1,59.9999981689454,2|2,2:2|2:2,0:0:0:0:
33,245,51223,6,0,P|87:216|92:202,1,59.9999981689454,6|0,1:2|0:0,0:0:0:0:
138,151,51417,2,0,P|124:89|107:79,1,59.9999981689454,2|0,2:2|0:0,0:0:0:0:
26,14,51610,6,0,B|-2:46|-2:46|174:2,1,179.999994506836,10|0,2:2|0:0,0:0:0:0:
211,3,51997,6,0,B|264:21|271:74|222:119,1,119.999996337891,6|2,1:2|2:2,0:0:0:0:
306,248,52385,6,0,P|331:187|344:173,1,59.9999981689454,10|0,2:2|0:0,0:0:0:0:
397,141,52578,2,0,P|430:160|441:193,1,59.9999981689454,2|0,2:2|0:0,0:0:0:0:
322,90,52772,6,0,L|338:18,1,70,2|2,2:2|2:2,0:0:0:0:
337,21,54901,6,0,L|291:31,1,25
248,54,55094,2,0,L|223:48,1,25
105,43,55288,6,0,B|221:-12|293:62|303:147|269:210,1,300,8|0,2:2|0:0,0:0:0:0:
266,196,55675,1,2,2:2:0:0:
50,315,55868,6,0,L|126:338,2,59.9999981689454,2|2|10,1:3|2:2|2:2,0:0:0:0:
101,257,56449,1,2,2:2:0:0:
26,174,56643,1,2,1:2:0:0:
26,174,56836,1,2,2:2:0:0:
6,86,57030,1,10,2:2:0:0:
107,167,57223,1,2,2:2:0:0:
86,80,57417,1,2,1:2:0:0:
86,80,57804,5,10,2:2:0:0:
178,106,57997,1,2,2:2:0:0:
178,106,58385,5,2,2:2:0:0:
251,72,58578,1,10,2:2:0:0:
239,153,58772,1,2,2:2:0:0:
133,236,58965,6,0,B|83:313|0:303|0:303|43:284|60:249,1,225.000008583069,2|0,1:2|0:0,0:0:0:0:
47,254,59352,1,10,2:2:0:0:
251,356,59546,6,0,B|302:379|341:336|317:279|343:223|428:196,1,225.000008583069,2|0,2:2|0:0,0:0:0:0:
406,220,59933,2,0,B|316:238|307:193|315:160|278:133,2,150.000005722046,2|10|2,2:2|2:2|2:2,0:0:0:0:
471,66,60514,6,0,B|408:76|376:25|376:25|304:8|246:79|246:79|264:44|255:7,2,300.000011444092,2|10|2,1:2|2:2|1:2,0:0:0:0:
471,66,61675,1,10,2:2:0:0:
471,66,62062,1,2,1:3:0:0:
471,66,62449,5,10,2:2:0:0:
431,137,62643,1,2,2:2:0:0:
357,119,62836,1,2,1:2:0:0:
335,46,63030,1,2,2:2:0:0:
210,126,63223,5,10,2:2:0:0:
245,195,63417,1,2,2:2:0:0:
138,271,63610,6,0,L|71:258,2,59.9999981689454,2|2|10,1:2|2:2|2:2,0:0:0:0:
121,196,64191,1,2,2:2:0:0:
372,359,64578,5,2,2:2:0:0:
440,324,64772,1,10,2:2:0:0:
452,251,64965,1,2,2:2:0:0:
379,178,65159,6,0,B|318:122|318:122|383:276,1,225.000008583069,2|0,1:2|0:0,0:0:0:0:
373,253,65546,6,0,P|382:216|383:210,1,29.9999990844727,10|0,2:2|0:0,0:0:0:0:
455,167,65739,1,2,2:2:0:0:
407,93,65933,1,2,1:3:0:0:
317,121,66126,6,0,P|331:161|341:216,2,75.0000028610231,2|0|10,2:2|0:0|2:2,0:0:0:0:
152,338,66514,6,0,P|131:333|92:286,1,75.0000028610231,2|0,2:2|0:0,0:0:0:0:
100,164,66707,5,2,1:2:0:0:
37,126,66901,1,0,0:0:0:0:
16,243,67094,2,0,B|104:212|104:145|162:110|224:109,1,225.000008583069,10|0,2:2|0:0,0:0:0:0:
261,136,67481,2,0,B|202:210|168:141|174:69|96:29|65:58,1,225.000008583069,2|0,1:2|0:0,0:0:0:0:
132,83,67868,2,0,B|192:9|287:-15|348:1|339:72,1,269.999991760254,10|0,2:2|0:0,0:0:0:0:
338,82,68256,5,4,1:2:0:0:
475,176,68449,1,2,2:2:0:0:
415,222,68643,1,10,2:2:0:0:
435,295,68836,1,2,2:2:0:0:
284,351,69030,5,2,1:2:0:0:
310,275,69223,1,2,2:2:0:0:
182,161,69417,5,10,2:2:0:0:
206,234,69610,1,2,2:2:0:0:
206,234,69997,5,2,2:2:0:0:
159,162,70191,1,10,2:2:0:0:
197,83,70385,1,2,2:2:0:0:
197,83,70772,6,0,P|147:66|135:54,1,55.0000016784668,2|0,2:2|0:0,0:0:0:0:
252,152,70965,2,0,P|291:117|308:112,1,55.0000016784668,10|0,2:2|0:0,0:0:0:0:
159,162,71159,2,0,P|169:213|164:230,1,55.0000016784668,2|0,2:2|0:0,0:0:0:0:
114,262,71352,5,0,1:1:0:0:
15,111,71546,1,2,2:2:0:0:
51,44,71739,1,10,2:2:0:0:
120,81,71933,1,2,2:2:0:0:
81,145,72126,1,2,1:2:0:0:
114,262,72320,1,2,2:2:0:0:
230,225,72514,1,10,2:2:0:0:
191,111,72707,1,2,2:2:0:0:
191,111,73094,5,2,2:2:0:0:
290,33,73288,1,10,2:2:0:0:
434,46,73481,1,2,2:2:0:0:
437,56,73868,6,0,P|395:90|367:98,1,75.0000028610231,2|0,2:2|0:0,0:0:0:0:
287,18,74062,2,0,P|234:1|198:3,1,85.0000016212464,10|0,2:2|0:0,0:0:0:0:
166,130,74256,2,0,B|119:156|61:150|97:137|143:139|157:108|147:92,1,125,6|0,2:3|0:0,0:0:0:0:
89,67,74449,5,0,1:1:0:0:
19,240,74643,1,2,2:2:0:0:
86,276,74836,1,10,2:2:0:0:
81,199,75030,1,2,2:2:0:0:
20,317,75223,1,2,1:2:0:0:
147,232,75417,1,2,2:2:0:0:
12,164,75610,1,10,2:2:0:0:
95,355,75804,1,2,2:2:0:0:
290,273,75997,5,2,1:2:0:0:
434,228,76191,1,2,2:2:0:0:
290,273,76385,1,10,2:2:0:0:
156,311,76578,1,2,2:2:0:0:
146,319,76965,6,0,L|116:382,1,55.0000016784668,2|0,2:2|0:0,0:0:0:0:
291,260,77159,2,0,L|261:207,1,55.0000016784668,10|0,2:2|0:0,0:0:0:0:
445,244,77352,2,0,L|436:306,1,55.0000016784668,2|0,2:2|0:0,0:0:0:0:
383,352,77546,6,0,L|387:370,32,10,4|0|0|0|0|0|0|0|2|0|0|0|2|0|0|0|2|0|0|0|0|0|0|0|2|0|0|0|0|0|0|0|2,1:2|0:0|0:0|0:0|0:0|0:0|0:0|0:0|2:2|0:0|0:0|0:0|2:2|0:0|0:0|0:0|2:2|0:0|0:0|0:0|0:0|0:0|0:0|0:0|2:2|0:0|0:0|0:0|0:0|0:0|0:0|0:0|2:2,0:0:0:0:
383,351,79481,5,2,2:2:0:0:
422,290,79675,1,2,2:2:0:0:
438,143,80062,5,2,2:2:0:0:
312,215,80256,5,2,2:2:0:0:
136,108,80449,5,2,2:2:0:0:
62,237,80643,6,0,B|95:250|78:300|26:290|34:244|57:231|71:221|79:206|89:181|86:167,1,150.000005722046,4|0,1:2|0:0,0:0:0:0:
85,183,81030,5,2,2:2:0:0:
136,108,81223,1,2,2:2:0:0:
48,39,81417,5,2,2:2:0:0:
124,112,81610,1,2,2:2:0:0:
240,146,81804,1,2,2:2:0:0:
364,105,81997,1,2,2:2:0:0:
493,2,82191,6,0,P|471:7|446:83,1,110,2|0,2:2|0:0,0:0:0:0:
451,88,83352,6,0,B|478:132|528:117|532:69|491:22|411:16|394:102|353:134|298:137|264:125|317:73|197:43|257:8|314:9|374:35|353:75,1,345.000006580353,10|0,2:2|0:0,0:0:0:0:
375,150,83739,6,0,B|349:88|323:76|279:36|218:90|187:123|217:162|271:163|302:101|278:76,1,269.999991760254,6|0,1:2|0:0,0:0:0:0:
158,142,84126,6,0,P|200:122|218:106,1,59.9999981689454,10|0,2:2|0:0,0:0:0:0:
127,14,84320,6,0,B|43:61|31:167|121:247,1,269.999991760254,2|0,2:2|0:0,0:0:0:0:
83,371,84707,2,0,P|123:348|141:301,1,89.9999972534181,2|0,2:2|0:0,0:0:0:0:
68,297,84900,1,14,2:2:0:0:
315,59,85094,6,0,B|294:107|272:105|223:115,1,89.9999972534181,2|0,2:2|0:0,0:0:0:0:
123,46,85287,6,0,B|202:32|245:87|213:150|255:197|347:178,1,269.999991760254,6|0,1:2|0:0,0:0:0:0:
417,65,85674,2,0,P|320:106|207:104,1,179.999994506836,10|0,2:2|0:0,0:0:0:0:
333,341,86062,6,0,B|307:320|307:320|352:252|352:252|356:253|356:253|451:235|451:235|453:232|453:232|537:234|537:234|514:261|514:261|503:243|503:243|494:230,1,345.000006580353,6|0,1:2|0:0,0:0:0:0:
510,255,86449,1,10,2:2:0:0:
386,144,86642,1,6,2:3:0:0:
102,275,86836,5,6,1:2:0:0:
71,180,87029,1,2,2:2:0:0:
168,150,87223,1,10,2:2:0:0:
198,245,87416,1,2,2:2:0:0:
71,341,87610,6,0,P|85:319|100:276,1,59.9999981689454,2|0,1:2|0:0,0:0:0:0:
180,129,87804,1,2,2:2:0:0:
283,242,87997,6,0,P|247:256|218:258,1,59.9999981689454,14|0,2:2|0:0,0:0:0:0:
50,169,88191,1,2,2:2:0:0:
332,22,88384,6,0,P|353:57|356:83,1,59.9999981689454,6|0,1:2|0:0,0:0:0:0:
450,158,88578,2,0,P|468:91|487:77,1,59.9999981689454,2|0,2:2|0:0,0:0:0:0:
339,165,88772,2,0,B|270:141|253:91|242:66|190:68|172:91,1,179.999994506836,10|0,2:2|0:0,0:0:0:0:
174,59,89159,1,6,1:2:0:0:
254,145,89352,1,2,2:2:0:0:
70,209,89545,6,0,L|87:144,1,59.9999981689454,10|0,2:2|0:0,0:0:0:0:
30,79,89739,2,0,L|14:21,1,59.9999981689454,2|0,2:2|0:0,0:0:0:0:
17,297,89933,6,0,B|71:331|126:317|144:215|207:295|289:265|310:326,1,269.999991760254,6|0,1:2|0:0,0:0:0:0:
224,247,90320,1,10,2:2:0:0:
193,90,90513,6,0,B|163:107|152:162|175:189|216:191|236:211|237:245,1,179.999994506836,2|2,2:2|1:3,0:0:0:0:
52,172,90900,6,0,B|35:160|35:124|50:99|79:102,1,89.9999972534181,2|0,2:2|0:0,0:0:0:0:
32,38,91094,1,14,2:2:0:0:
365,44,91287,6,0,B|344:65|332:95|349:113|304:140,1,89.9999972534181,2|0,2:2|0:0,0:0:0:0:
284,25,91481,1,2,1:2:0:0:
51,266,91674,6,0,B|90:228|148:224|193:272|182:315|202:339|237:380|282:366,1,269.999991760254,12|0,2:2|0:0,0:0:0:0:
261,284,92062,1,0,1:1:0:0:
68,366,92255,5,14,2:2:0:0:
74,351,92449,1,0,1:1:0:0:
366,172,92642,5,14,2:2:0:0:
417,273,92836,1,6,2:3:0:0:
2,210,93029,5,6,1:2:0:0:
60,66,93223,2,0,P|86:82|100:125,1,59.9999981689454,2|0,2:2|0:0,0:0:0:0:
57,53,93416,2,0,P|116:31|119:29,1,59.9999981689454,10|0,2:2|0:0,0:0:0:0:
46,59,93610,2,0,P|15:94|-9:86,1,59.9999981689454,2|0,2:2|0:0,0:0:0:0:
177,206,93804,6,0,B|152:156|184:108|260:115,1,119.999996337891,2|2,1:2|2:2,0:0:0:0:
455,276,94191,2,0,B|496:329|435:373|356:371|358:291,1,179.999994506836,14|0,2:2|0:0,0:0:0:0:
353,309,94578,6,0,P|356:351|381:372,1,59.9999981689454,6|0,1:2|0:0,0:0:0:0:
473,256,94771,2,0,P|417:220|398:224,1,59.9999981689454,2|0,2:2|0:0,0:0:0:0:
282,252,94965,6,0,B|209:286|205:344|101:337|100:291,1,179.999994506836,10|0,2:2|0:0,0:0:0:0:
117,312,95352,6,0,B|176:317|145:362|216:385,1,119.999996337891,6|2,1:2|2:2,0:0:0:0:
87,235,95739,2,0,P|65:153|47:110,1,119.999996337891,10|2,2:2|2:2,0:0:0:0:
309,14,96126,6,0,B|375:89|344:170|272:174|206:170|232:265,1,269.999991760254,6|0,1:2|0:0,0:0:0:0:
241,247,96513,1,10,2:2:0:0:
446,367,96707,6,0,B|483:393|564:366|495:222|369:258|409:134,1,269.999991760254,2|0,2:2|0:0,0:0:0:0:
472,215,97094,2,0,B|480:246|460:279|424:278,1,89.9999972534181,2|0,2:2|0:0,0:0:0:0:
343,257,97287,1,14,2:2:0:0:
122,327,97481,6,0,B|151:318|177:342|176:363|211:373,1,89.9999972534181,2|0,2:2|0:0,0:0:0:0:
52,362,97674,6,0,B|24:266|31:169|19:104|-3:65,1,269.999991760254,6|0,1:2|0:0,0:0:0:0:
95,47,98062,2,0,B|125:-7|218:56|215:93|188:121|164:133,1,179.999994506836,10|0,2:2|0:0,0:0:0:0:
226,299,98449,6,0,B|246:343|246:343|256:345|256:345|311:328|311:328|318:330|318:330|392:310|392:310|401:313|401:313|412:349|412:349|418:354|418:354|426:384|426:384|433:387|433:387|501:369,1,345.000006580353,6|0,1:2|0:0,0:0:0:0:
483,374,98836,6,0,P|334:319|243:122,1,300,10|0,2:2|0:0,0:0:0:0:
280,138,99223,5,6,1:2:0:0:
423,30,99416,1,2,2:2:0:0:
434,49,99513,1,2,2:2:0:0:
443,65,99610,1,10,2:2:0:0:
367,186,99804,2,0,L|382:120,1,59.9999981689454,2|0,2:2|0:0,0:0:0:0:
205,19,99997,6,0,B|156:22|127:46|131:106,1,119.999996337891,2|2,1:2|2:2,0:0:0:0:
185,143,100384,1,14,2:2:0:0:
30,269,100578,2,0,P|23:244|11:205,1,59.9999981689454,2|2,2:2|2:2,0:0:0:0:
33,139,100771,6,0,P|87:168|92:182,1,59.9999981689454,6|0,1:2|0:0,0:0:0:0:
138,233,100965,2,0,P|124:295|107:305,1,59.9999981689454,2|0,2:2|0:0,0:0:0:0:
26,370,101158,6,0,B|-2:338|-2:338|174:382,1,179.999994506836,10|0,2:2|0:0,0:0:0:0:
211,381,101545,6,0,B|264:363|271:310|222:265,1,119.999996337891,6|2,1:2|2:2,0:0:0:0:
338,96,101933,6,0,L|319:158,1,59.9999981689454,10|0,2:2|0:0,0:0:0:0:
380,205,102126,2,0,L|399:267,1,59.9999981689454,2|0,2:2|0:0,0:0:0:0:
220,167,102320,6,0,B|134:181|97:112|144:37|94:-7|19:10|1:64|41:115|98:111,1,350,2|0,2:2|0:0,0:0:0:0:
95,111,103868,5,6,2:3:0:0:
197,64,104062,1,6,2:3:0:0:
220,167,104256,5,10,2:3:0:0:
97,28,104449,1,6,2:3:0:0:
84,236,104643,5,6,2:3:0:0:
248,2,104836,1,4,2:3:0:0:
80,246,105030,2,0,P|70:273|71:290,1,44.999998626709,2|0,2:2|0:0,0:0:0:0:
11,363,105417,6,0,B|61:311|127:310|178:353|117:361|86:346,1,187.5,6|0,1:2|0:0,0:0:0:0:
70,288,105804,2,0,B|92:274|105:254|92:216|88:192|107:167,1,125,10|2,2:2|2:3,0:0:0:0:
24,14,106191,6,0,B|26:33|59:61|97:66|137:37,1,125,2|2,1:2|2:3,0:0:0:0:
288,17,106578,2,0,P|261:25|244:60,1,62.5,14|0,2:2|0:0,0:0:0:0:
231,44,106772,2,0,P|245:17|274:7,1,62.5,6|0,2:3|0:0,0:0:0:0:
494,171,106965,6,0,B|430:224|375:201|401:146|426:93|471:110,1,194.999991073609,6|0,1:2|0:0,0:0:0:0:
407,217,107352,2,0,B|360:145|401:72|484:46|515:59|501:114|470:126,1,225.000008583069,10|0,2:2|0:0,0:0:0:0:
396,119,107739,6,0,B|425:40|486:34|526:79|538:112|519:145|440:154|392:161|382:111|382:103,1,255.000004863739,6|0,1:2|0:0,0:0:0:0:
302,164,108126,6,0,P|269:153|253:130,2,62.5,10|0|6,2:2|0:0|2:3,0:0:0:0:
124,272,108514,6,0,B|58:298|38:330|9:343,1,125,6|2,1:2|2:3,0:0:0:0:
18,351,108804,1,0,0:0:0:0:
18,351,108901,1,10,2:2:0:0:
156,379,109094,1,2,2:3:0:0:
25,133,109288,2,0,B|60:126|89:154|74:181|87:210|131:189|171:177|180:119,1,187.5,2|0,1:2|0:0,0:0:0:0:
183,64,109675,6,0,P|136:78|120:95,1,62.5,10|0,2:2|0:0,0:0:0:0:
122,73,109868,2,0,P|147:55|178:50,1,62.5,6|0,2:3|0:0,0:0:0:0:
359,113,110062,6,0,B|352:174|285:162|268:124|279:75|295:54|332:47|352:44,1,187.5,6|0,1:2|0:0,0:0:0:0:
257,78,110449,2,0,B|257:147|311:186|360:168|385:138|394:113|392:101,1,187.5,10|2,2:2|2:2,0:0:0:0:
403,146,110836,6,0,B|336:175|305:234|306:286|261:289|236:306,1,187.5,6|0,1:2|0:0,0:0:0:0:
172,323,111223,6,0,B|144:344|124:305|154:274|204:272|214:301|195:344|271:357,1,187.5,10|0,2:2|0:0,0:0:0:0:
282,353,111610,6,0,B|292:357|307:345|308:335|307:321|301:311|281:303,1,62.5,6|0,1:2|0:0,0:0:0:0:
277,281,111804,1,2,2:3:0:0:
172,178,111997,2,0,B|132:228|74:236|45:201,1,125,10|2,2:2|2:3,0:0:0:0:
150,89,112385,2,0,B|198:60|280:107|257:173|315:184,1,187.5,2|0,1:2|0:0,0:0:0:0:
470,105,112772,6,0,B|444:99|442:97|438:100|407:122,1,62.5,14|0,2:2|0:0,0:0:0:0:
410,106,112965,2,0,B|434:88|438:85|440:87|466:93,1,62.5,6|0,2:3|0:0,0:0:0:0:
385,234,113159,6,0,B|332:298|355:353|410:327|463:302|446:257,1,194.999991073609,6|0,1:2|0:0,0:0:0:0:
339,321,113546,2,0,B|411:368|484:327|510:244|497:213|442:227|430:258,1,225.000008583069,10|0,2:2|0:0,0:0:0:0:
437,332,113933,6,0,B|516:303|522:242|477:202|444:190|411:209|402:288|395:336|445:346|453:346,1,255.000004863739,6|0,1:2|0:0,0:0:0:0:
448,349,114320,6,0,B|472:354|488:333|483:301,2,62.5,10|0|6,2:2|0:0|2:3,0:0:0:0:
268,210,114707,6,0,B|162:248|165:318|92:348,1,187.5,6|0,1:2|0:0,0:0:0:0:
45,281,115094,2,0,B|121:278|148:318|162:355|153:372,1,125,10|2,2:2|2:3,0:0:0:0:
261,219,115481,2,0,B|191:227|158:192|166:153,1,125,2|2,1:2|2:3,0:0:0:0:
16,17,115868,6,0,B|30:39|37:61|38:88,1,62.5,10|0,2:2|0:0,0:0:0:0:
80,132,116062,2,0,B|50:162|15:167|1:157,1,62.5,6|0,2:3|0:0,0:0:0:0:
192,26,116256,6,0,P|243:70|340:52,2,150.000005722046,2|2|2,1:2|1:2|1:2,0:0:0:0:
192,26,117417,6,0,L|209:86,1,56.0000006835938,2|6,1:2|1:2,0:0:0:0:
207,79,130191,6,0,L|191:175,3,89.9999972534181,6|10|2|10,1:2|2:2|1:2|2:2,0:0:0:0:
130,108,131739,5,2,1:2:0:0:
269,131,132126,1,10,2:2:0:0:
130,108,132514,1,2,1:2:0:0:
192,167,132901,5,10,2:2:0:0:
176,240,133288,1,2,1:2:0:0:
126,297,133675,2,0,P|170:317|212:309,2,89.9999972534181,10|2|10,2:2|1:2|2:2,0:0:0:0:
21,168,134836,5,2,1:2:0:0:
108,127,135223,1,10,2:2:0:0:
31,75,135610,1,2,1:2:0:0:
21,168,135997,1,10,2:2:0:0:
128,41,136385,6,0,P|174:29|225:10,2,89.9999972534181,2|10|2,1:2|2:2|1:3,0:0:0:0:
207,103,137546,2,0,P|199:132|192:150,1,44.999998626709,10|0,2:2|0:0,0:0:0:0:
235,204,137933,6,0,P|245:245|247:296,2,89.9999972534181,2|10|2,1:2|2:2|1:3,0:0:0:0:
178,260,138901,5,2,2:2:0:0:
235,204,139094,1,10,2:2:0:0:
318,223,139288,1,2,2:2:0:0:
191,140,139481,6,0,P|153:129|142:122,1,44.999998626709,2|0,1:2|0:0,0:0:0:0:
136,52,139868,2,0,P|164:24|176:18,1,44.999998626709,10|0,2:2|0:0,0:0:0:0:
249,52,140256,2,0,P|258:90|257:103,1,44.999998626709,2|0,1:2|0:0,0:0:0:0:
377,202,140643,5,10,2:2:0:0:
431,123,140836,1,2,2:2:0:0:
377,202,141030,6,0,L|327:222,1,44.999998626709,2|0,1:2|0:0,0:0:0:0:
431,123,141417,2,0,L|438:69,1,44.999998626709,10|0,2:2|0:0,0:0:0:0:
470,211,141804,2,0,L|512:244,1,44.999998626709,2|2,1:2|2:2,0:0:0:0:
398,383,142191,6,0,B|385:358|393:333|411:323|420:304|411:280|411:279,1,89.9999972534181,10|2,2:2|2:2,0:0:0:0:
412,297,142772,5,0,0:0:0:0:
434,310,142965,5,0,0:0:0:0:
448,341,143159,5,0,0:0:0:0:
434,382,143352,5,0,0:0:0:0:
382,380,143546,5,0,0:0:0:0:
333,322,143739,5,2,2:2:0:0:
368,247,143933,5,0,0:0:0:0:
473,179,144126,5,6,2:3:0:0:
438,274,144320,1,6,2:3:0:0:
345,107,144514,5,10,2:3:0:0:
465,354,144707,1,6,2:3:0:0:
479,51,144901,5,6,2:3:0:0:
333,322,145094,1,4,2:3:0:0:
479,51,145288,2,0,P|489:24|484:7,1,44.999998626709,2|0,2:2|0:0,0:0:0:0:
464,59,145675,6,0,B|407:105|390:173|454:226|462:165|447:134,1,187.5,6|0,1:2|0:0,0:0:0:0:
474,310,146062,2,0,B|459:291|463:267|476:229|463:209|441:195,1,125,10|2,2:2|2:3,0:0:0:0:
165,96,146449,6,0,B|167:77|200:49|238:44|278:73,1,125,2|2,1:2|2:3,0:0:0:0:
126,188,146836,2,0,P|99:180|82:145,1,62.5,14|0,2:2|0:0,0:0:0:0:
74,163,147030,2,0,P|88:190|117:200,1,62.5,6|0,2:3|0:0,0:0:0:0:
309,281,147223,6,0,B|296:239|245:228|190:251|216:306|241:359|286:342,1,194.999991073609,6|0,1:2|0:0,0:0:0:0:
206,223,147610,2,0,B|216:262|159:295|200:368|283:394|314:381|300:326|269:314,1,225.000008583069,10|0,2:2|0:0,0:0:0:0:
398,218,147997,6,0,B|477:189|483:128|438:88|405:76|372:95|363:174|356:222|406:232|414:232,1,255.000004863739,6|0,1:2|0:0,0:0:0:0:
490,141,148384,6,0,P|481:182|443:234,2,62.5,10|0|6,2:2|0:0|2:3,0:0:0:0:
206,223,148772,6,0,B|167:218|140:197|154:164|91:152,1,125,6|2,1:2|2:3,0:0:0:0:
92,143,149062,1,0,0:0:0:0:
92,143,149159,1,10,2:2:0:0:
196,77,149352,1,2,2:3:0:0:
85,292,149546,2,0,B|120:299|149:271|134:244|147:215|191:236|231:248|240:306,1,187.5,2|0,1:2|0:0,0:0:0:0:
93,363,149933,6,0,P|46:349|30:332,1,62.5,10|0,2:2|0:0,0:0:0:0:
32,354,150126,2,0,P|57:372|88:377,1,62.5,6|0,2:3|0:0,0:0:0:0:
267,220,150320,6,0,B|260:159|193:171|176:209|187:258|203:279|240:286|260:289,1,187.5,6|0,1:2|0:0,0:0:0:0:
198,370,150707,2,0,B|198:301|252:262|301:280|326:310|335:335|333:347,1,187.5,10|2,2:2|2:2,0:0:0:0:
439,289,151094,6,0,B|372:260|341:201|342:149|297:146|272:129,1,187.5,6|0,1:2|0:0,0:0:0:0:
191,68,151481,6,0,B|144:90|140:24|109:99|181:171|160:102|282:76|289:60|287:73,1,187.5,10|0,2:2|0:0,0:0:0:0:
271,77,151868,6,0,B|261:53|234:43|207:46,1,62.5,6|0,1:2|0:0,0:0:0:0:
167,103,152062,1,2,2:3:0:0:
178,246,152255,2,0,B|138:196|80:188|51:223,1,125,10|2,2:2|2:3,0:0:0:0:
150,324,152643,2,0,B|198:353|280:306|257:240|315:229,1,187.5,2|0,1:2|0:0,0:0:0:0:
432,272,153030,6,0,B|406:278|404:280|400:277|369:255,1,62.5,14|0,2:2|0:0,0:0:0:0:
372,271,153223,2,0,B|396:289|400:292|402:290|428:284,1,62.5,6|0,2:3|0:0,0:0:0:0:
407,75,153417,6,0,B|348:36|344:0|391:-4|436:29|421:70|428:94|475:111,1,194.999991073609,6|0,1:2|0:0,0:0:0:0:
420,15,153804,2,0,B|451:77|476:78|483:122|426:161|377:164|344:135|348:112,1,225.000008583069,10|0,2:2|0:0,0:0:0:0:
409,172,154191,6,0,B|318:152|296:88|326:42|382:47|413:87|421:145,1,255.000004863739,6|0,1:2|0:0,0:0:0:0:
448,35,154578,6,0,B|472:30|488:51|483:83,2,62.5,10|0|6,2:2|0:0|2:3,0:0:0:0:
268,174,154965,6,0,B|162:136|165:66|92:36,1,187.5,6|0,1:2|0:0,0:0:0:0:
45,103,155352,2,0,B|121:106|148:66|162:29|153:12,1,125,10|2,2:2|2:3,0:0:0:0:
261,165,155739,2,0,B|191:157|158:192|166:231,1,125,2|2,1:2|2:3,0:0:0:0:
16,367,156126,6,0,B|30:345|37:323|38:296,1,62.5,10|0,2:2|0:0,0:0:0:0:
80,252,156320,2,0,B|50:222|15:217|1:227,1,62.5,6|0,2:3|0:0,0:0:0:0:
340,287,156514,6,0,B|318:224|256:219|199:275|224:331|191:366|111:359,2,250,6|10|6,1:2|2:2|1:2,0:0:0:0:
286,335,157481,1,2,2:3:0:0:
39,126,157675,6,0,B|84:180|157:146|170:96|152:62,1,187.5,10|0,2:2|0:0,0:0:0:0:
111,159,158062,6,0,B|134:189|129:243|85:272|57:235|91:212|118:214|137:221,1,125,6|2,1:2|2:3,0:0:0:0:
244,37,158449,2,0,B|328:-2|387:57|381:113|437:129,1,187.5,10|0,2:2|0:0,0:0:0:0:
470,145,158836,6,0,B|393:132|347:182|353:223,1,125,2|2,1:2|2:3,0:0:0:0:
456,318,159223,6,0,L|439:392,1,62.5,14|0,2:2|0:0,0:0:0:0:
426,377,159417,2,0,L|439:316,1,62.5,6|0,2:3|0:0,0:0:0:0:
311,270,159610,6,0,B|233:306|157:288|218:230|239:204|262:154,1,194.999991073609,6|0,1:2|0:0,0:0:0:0:
155,302,159997,2,0,B|235:247|303:292|335:311|337:389|287:358|280:332|276:314|278:299,1,225.000008583069,10|0,2:2|0:0,0:0:0:0:
151,278,160385,6,0,B|243:252|249:195|240:137|284:111|343:117,1,255.000004863739,6|0,1:2|0:0,0:0:0:0:
381,169,160772,5,10,2:2:0:0:
377,181,160965,1,6,2:3:0:0:
141,42,161159,6,0,B|139:32|102:5|64:1|42:10,2,89.9999972534181,6|0|2,1:2|0:0|2:3,0:0:0:0:
75,87,161546,1,10,2:2:0:0:
204,157,161739,6,0,B|298:113|266:57|279:21|334:14,1,179.999994506836,2|2,2:2|1:3,0:0:0:0:
144,262,162126,2,0,B|106:212|25:231|-13:267|0:335,1,179.999994506836,2|10,2:2|2:2,0:0:0:0:
299,366,162514,6,0,B|337:339|341:303|316:283,1,89.9999972534181,6|0,2:3|0:0,0:0:0:0:
269,207,162707,6,0,B|266:262|290:277|299:318|357:330|428:328|462:293|451:255|418:252|400:265|390:280|388:285,1,269.999991760254,6|0,1:2|0:0,0:0:0:0:
299,295,163094,2,0,B|224:351|166:319|178:271|132:231,1,179.999994506836,10|2,2:2|2:3,0:0:0:0:
1,159,163481,6,0,B|-3:177|-3:177|41:145|81:156|81:156|87:151|87:151|125:163|165:134|165:134|159:169|130:187|130:187|133:191|133:191|85:214|89:276,1,345.000006580353,6|0,1:2|0:0,0:0:0:0:
165,134,163868,6,0,B|194:90|179:68|162:58|153:50|147:33,1,112.500004291535,10|0,2:2|0:0,0:0:0:0:
140,30,164256,6,0,P|154:65|259:80,1,125,6|2,1:2|2:3,0:0:0:0:
459,47,164643,2,0,B|422:21|368:22|311:61|303:122|337:155,1,187.5,10|0,2:2|0:0,0:0:0:0:
385,202,165030,6,0,B|442:159|436:136|416:107|394:110,1,125,2|2,1:2|2:3,0:0:0:0:
167,220,165417,6,0,P|205:258|227:263,1,62.5,14|0,2:2|0:0,0:0:0:0:
204,272,165610,2,0,P|176:256|159:231,1,62.5,6|0,2:3|0:0,0:0:0:0:
83,329,165804,6,0,B|172:352|181:281|236:248|281:263,1,194.999991073609,6|0,1:2|0:0,0:0:0:0:
155,363,166191,2,0,B|88:320|100:233|65:196|12:198,1,225.000008583069,10|0,2:2|0:0,0:0:0:0:
88,240,166578,6,0,B|176:193|142:114|72:69|26:88|19:57|27:28,1,255.000004863739,6|0,1:2|0:0,0:0:0:0:
173,8,166965,6,0,B|173:69|122:91|70:86,1,125,10|6,2:2|2:3,0:0:0:0:
341,216,167352,6,0,B|371:200|417:185|419:155,2,89.9999972534181,6|0|2,1:2|0:0|2:3,0:0:0:0:
352,126,167739,1,10,2:2:0:0:
393,352,167933,6,0,B|289:334|269:245|268:177|193:175,1,269.999991760254,2|0,2:2|0:0,0:0:0:0:
65,263,168320,2,0,B|184:249|171:159|140:97|205:46|222:46,1,269.999991760254,2|0,2:2|0:0,0:0:0:0:
355,19,168707,6,0,B|368:28|351:88|297:78,1,89.9999972534181,6|0,2:3|0:0,0:0:0:0:
494,192,168901,6,0,B|412:135|332:146|299:219|298:252|272:282|256:286,1,269.999991760254,6|0,1:2|0:0,0:0:0:0:
160,357,169288,2,0,B|93:263|133:236|194:230|201:192,1,179.999994506836,10|2,2:2|2:3,0:0:0:0:
28,50,169675,6,0,P|96:163|395:160,1,460.000008773804,6|10,1:2|2:2,0:0:0:0:
426,98,170256,6,0,P|412:85|391:80,1,40,6|0,2:3|0:0,0:0:0:0:
28,50,170449,6,0,L|19:123,1,40,2|0,1:2|0:0,0:0:0:0:
28,50,171030,6,0,L|19:123,1,40,2|0,1:2|0:0,0:0:0:0:
28,50,171417,6,0,L|19:123,1,40,2|0,1:2|0:0,0:0:0:0:
28,50,171804,6,0,L|19:123,1,40,2|0,1:2|0:0,0:0:0:0:
18,159,171997,6,0,L|80:178,1,50,2|0,1:2|0:0,0:0:0:0:
403,34,172385,2,0,L|341:53,1,50,2|0,1:2|0:0,0:0:0:0:
34,312,172772,2,0,L|301:372,1,239.999992675781,2|0,1:2|0:0,0:0:0:0:
