osu file format v14

[General]
AudioFilename: audio.mp3
AudioLeadIn: 0
PreviewTime: 65814
Countdown: 1
SampleSet: Normal
StackLeniency: 0.7
Mode: 1
LetterboxInBreaks: 0
WidescreenStoryboard: 1

[Editor]
Bookmarks: 1014,8694,16374,24054,31734,35574,43254,50934,62454,66294,73974,81654,88614,97014,104694,107814,120054,131574,135414,143094,154614,162294,173814,185334,193014,200694,204534,208374,212214,216054,223734,227574
DistanceSpacing: 1.7
BeatDivisor: 2
GridSize: 32
TimelineZoom: 1.5

[Metadata]
Title:Copy and Pastime
TitleUnicode:うつしあそび
Artist:Kaai Yuki
ArtistUnicode:歌愛ユキ
Creator:KaEDe1106
Version:Oni
Source:inabakumori
Tags:
BeatmapID:2196756
BeatmapSetID:1051119

[Difficulty]
HPDrainRate:5
CircleSize:5
OverallDifficulty:5
ApproachRate:5
SliderMultiplier:1.4
SliderTickRate:1

[Events]
//Background and Video events
0,0,"copy1.png",0,0
//Break Periods
//Storyboard Layer 0 (Background)
//Storyboard Layer 1 (Fail)
//Storyboard Layer 2 (Pass)
//Storyboard Layer 3 (Foreground)
//Storyboard Layer 4 (Overlay)
//Storyboard Sound Samples

[TimingPoints]
-905.29538749017,480,4,1,0,100,1,0
53,-125,4,1,0,55,0,0
31733,-100,4,1,0,100,0,0
31734,240,4,1,0,100,1,0
31734,-105.263157894737,4,1,0,70,0,0
50934,-125,4,1,0,65,0,0
65813,-117.647058823529,4,1,0,70,0,0
66294,-117.647058823529,4,1,0,75,0,1
81654,-117.647058823529,4,1,0,75,0,0
82254,-166.666666666667,4,1,0,55,0,0
88374,-142.857142857143,4,1,0,70,0,0
88854,-125,4,1,0,70,0,0
89094,-111.111111111111,4,1,0,70,0,0
89334,-105.263157894737,4,1,0,75,0,1
96054,-105.263157894737,4,1,0,55,0,0
96293,-105.263157894737,4,1,0,70,0,0
97014,-105.263157894737,4,1,0,75,0,1
104694,-105.263157894737,4,1,0,65,0,0
107813,-117.647058823529,4,1,0,65,0,0
120054,-111.111111111111,4,1,0,65,0,0
133494,-107.52688172043,4,1,0,70,0,0
133734,-104.166666666667,4,1,0,70,0,0
133974,-101.010101010101,4,1,0,70,0,0
134214,-98.0392156862745,4,1,0,70,0,0
134454,-95.2380952380952,4,1,0,70,0,0
135414,-105.263157894737,4,1,0,75,0,1
150774,-105.263157894737,4,1,0,65,0,0
152694,-117.647058823529,4,1,0,65,0,0
173814,-95.2380952380952,4,1,0,70,0,0
185334,480,4,1,0,100,1,0
185334,-90.9090909090909,4,1,0,55,0,0
192054,240,4,1,0,100,1,0
192054,-125,4,1,0,65,0,0
192294,-105.263157894737,4,1,0,75,0,1
200694,-105.263157894737,4,1,0,55,0,0
201174,-95.2380952380952,4,1,0,75,0,1
219894,-93.4579439252336,4,1,0,75,0,1
223734,-91.743119266055,4,1,0,75,0,1
227574,-90.0900900900901,4,1,0,75,0,1
231414,-90.0900900900901,4,1,0,60,0,0

[HitObjects]
256,192,1014,5,8,0:0:0:0:
256,192,1254,1,0,0:0:0:0:
256,192,1374,1,0,0:0:0:0:
256,192,1494,1,0,0:0:0:0:
256,192,1734,1,8,0:0:0:0:
256,192,1974,1,8,0:0:0:0:
256,192,2214,1,8,0:0:0:0:
256,192,2334,1,8,0:0:0:0:
256,192,2454,1,8,0:0:0:0:
256,192,2694,1,8,0:0:0:0:
256,192,2934,1,0,0:0:0:0:
256,192,3414,1,8,0:0:0:0:
256,192,3654,1,8,0:0:0:0:
256,192,4134,1,0,0:0:0:0:
256,192,4374,1,0,0:0:0:0:
256,192,4614,1,8,0:0:0:0:
256,192,6054,1,0,0:0:0:0:
256,192,6294,1,0,0:0:0:0:
256,192,6534,1,8,0:0:0:0:
256,192,7494,1,8,0:0:0:0:
256,192,7614,1,8,0:0:0:0:
256,192,8694,1,8,0:0:0:0:
256,192,8814,1,0,0:0:0:0:
256,192,8934,1,0,0:0:0:0:
256,192,9054,1,0,0:0:0:0:
256,192,9174,1,0,0:0:0:0:
256,192,9414,1,8,0:0:0:0:
256,192,9654,1,8,0:0:0:0:
256,192,9894,1,8,0:0:0:0:
256,192,10134,1,8,0:0:0:0:
256,192,10374,1,8,0:0:0:0:
256,192,10614,1,0,0:0:0:0:
256,192,11094,1,8,0:0:0:0:
256,192,11334,1,8,0:0:0:0:
256,192,11814,1,0,0:0:0:0:
256,192,12054,1,0,0:0:0:0:
256,192,12294,1,8,0:0:0:0:
256,192,13734,1,0,0:0:0:0:
256,192,13974,1,0,0:0:0:0:
256,192,14214,1,8,0:0:0:0:
256,192,15174,1,0,0:0:0:0:
256,192,15294,1,0,0:0:0:0:
256,192,16374,1,8,0:0:0:0:
256,192,16494,1,8,0:0:0:0:
256,192,16614,1,8,0:0:0:0:
256,192,16734,1,8,0:0:0:0:
256,192,16854,1,0,0:0:0:0:
256,192,17094,1,8,0:0:0:0:
256,192,17814,1,8,0:0:0:0:
256,192,17934,1,8,0:0:0:0:
256,192,18054,1,8,0:0:0:0:
256,192,18174,1,8,0:0:0:0:
256,192,18294,1,0,0:0:0:0:
256,192,18534,1,8,0:0:0:0:
256,192,19254,1,8,0:0:0:0:
256,192,19734,1,8,0:0:0:0:
256,192,19974,1,8,0:0:0:0:
256,192,21414,1,0,0:0:0:0:
256,192,21654,1,0,0:0:0:0:
256,192,21894,1,8,0:0:0:0:
256,192,22854,1,8,0:0:0:0:
256,192,22974,1,8,0:0:0:0:
256,192,24054,1,8,0:0:0:0:
256,192,24174,1,0,0:0:0:0:
256,192,24294,1,0,0:0:0:0:
256,192,24414,1,0,0:0:0:0:
256,192,24534,1,0,0:0:0:0:
256,192,24774,1,8,0:0:0:0:
256,192,25014,1,8,0:0:0:0:
256,192,25254,1,8,0:0:0:0:
256,192,25494,1,8,0:0:0:0:
256,192,25734,1,8,0:0:0:0:
256,192,25974,1,8,0:0:0:0:
256,192,26214,1,0,0:0:0:0:
256,192,26334,1,0,0:0:0:0:
256,192,26454,1,0,0:0:0:0:
256,192,26694,1,8,0:0:0:0:
256,192,27174,1,0,0:0:0:0:
256,192,27414,1,0,0:0:0:0:
256,192,27654,1,8,0:0:0:0:
256,192,29094,1,0,0:0:0:0:
256,192,29334,1,0,0:0:0:0:
256,192,29574,1,8,0:0:0:0:
256,192,30534,1,0,0:0:0:0:
256,192,30654,1,0,0:0:0:0:
256,192,31734,1,4,0:0:0:0:
256,192,31974,1,4,0:0:0:0:
256,192,32214,1,4,0:0:0:0:
256,192,32454,1,4,0:0:0:0:
256,192,32694,1,0,0:0:0:0:
256,192,32814,1,0,0:0:0:0:
256,192,32934,1,0,0:0:0:0:
256,192,33054,1,0,0:0:0:0:
256,192,33174,1,0,0:0:0:0:
256,192,33414,1,8,0:0:0:0:
256,192,33534,1,8,0:0:0:0:
256,192,33654,1,0,0:0:0:0:
256,192,33894,1,0,0:0:0:0:
256,192,34134,1,8,0:0:0:0:
256,192,34254,1,0,0:0:0:0:
256,192,34374,1,0,0:0:0:0:
256,192,34614,1,0,0:0:0:0:
256,192,34734,1,8,0:0:0:0:
256,192,34974,1,0,0:0:0:0:
256,192,35094,1,8,0:0:0:0:
256,192,35214,1,8,0:0:0:0:
256,192,35334,1,0,0:0:0:0:
256,192,35454,1,0,0:0:0:0:
256,192,35574,1,4,0:0:0:0:
256,192,35814,1,8,0:0:0:0:
256,192,35934,1,8,0:0:0:0:
256,192,36054,1,0,0:0:0:0:
256,192,36294,1,8,0:0:0:0:
256,192,36414,1,8,0:0:0:0:
256,192,36774,1,0,0:0:0:0:
256,192,36894,1,0,0:0:0:0:
256,192,37014,1,8,0:0:0:0:
256,192,37254,1,8,0:0:0:0:
256,192,37374,1,8,0:0:0:0:
256,192,37494,1,0,0:0:0:0:
256,192,37614,1,0,0:0:0:0:
256,192,37734,1,8,0:0:0:0:
256,192,37974,1,0,0:0:0:0:
256,192,38214,1,8,0:0:0:0:
256,192,38334,1,8,0:0:0:0:
256,192,38694,1,0,0:0:0:0:
256,192,38934,1,0,0:0:0:0:
256,192,39174,1,0,0:0:0:0:
256,192,39414,1,0,0:0:0:0:
256,192,39534,1,8,0:0:0:0:
256,192,39654,1,0,0:0:0:0:
256,192,39774,1,8,0:0:0:0:
256,192,40134,1,0,0:0:0:0:
256,192,40254,1,0,0:0:0:0:
256,192,40614,1,0,0:0:0:0:
256,192,40734,1,0,0:0:0:0:
256,192,40854,1,8,0:0:0:0:
256,192,41094,1,8,0:0:0:0:
256,192,41214,1,8,0:0:0:0:
256,192,41334,1,0,0:0:0:0:
256,192,41454,1,8,0:0:0:0:
256,192,41574,1,0,0:0:0:0:
256,192,41694,1,8,0:0:0:0:
256,192,42054,1,8,0:0:0:0:
256,192,42174,1,8,0:0:0:0:
256,192,42534,1,0,0:0:0:0:
256,192,42654,1,0,0:0:0:0:
256,192,42774,1,8,0:0:0:0:
256,192,43014,1,8,0:0:0:0:
256,192,43254,1,8,0:0:0:0:
256,192,43374,1,8,0:0:0:0:
256,192,43494,1,0,0:0:0:0:
256,192,43614,1,0,0:0:0:0:
256,192,43734,1,0,0:0:0:0:
256,192,43974,1,8,0:0:0:0:
256,192,44094,1,8,0:0:0:0:
256,192,44454,1,0,0:0:0:0:
256,192,44574,1,0,0:0:0:0:
256,192,44694,1,8,0:0:0:0:
256,192,44934,1,8,0:0:0:0:
256,192,45054,1,8,0:0:0:0:
256,192,45174,1,0,0:0:0:0:
256,192,45294,1,0,0:0:0:0:
256,192,45414,1,8,0:0:0:0:
256,192,45654,1,0,0:0:0:0:
256,192,45894,1,8,0:0:0:0:
256,192,46014,1,8,0:0:0:0:
256,192,46374,1,0,0:0:0:0:
256,192,46614,1,0,0:0:0:0:
256,192,46854,1,0,0:0:0:0:
256,192,47094,1,0,0:0:0:0:
256,192,47214,1,8,0:0:0:0:
256,192,47334,1,0,0:0:0:0:
256,192,47454,1,8,0:0:0:0:
256,192,47814,1,0,0:0:0:0:
256,192,47934,1,0,0:0:0:0:
256,192,48294,1,0,0:0:0:0:
256,192,48414,1,0,0:0:0:0:
256,192,48534,1,8,0:0:0:0:
256,192,48774,1,8,0:0:0:0:
256,192,48894,1,8,0:0:0:0:
256,192,49014,1,0,0:0:0:0:
256,192,49134,1,8,0:0:0:0:
256,192,49254,1,0,0:0:0:0:
256,192,49374,1,8,0:0:0:0:
256,192,49734,1,8,0:0:0:0:
256,192,49854,1,8,0:0:0:0:
256,192,50214,1,0,0:0:0:0:
256,192,50454,1,8,0:0:0:0:
256,192,50694,1,0,0:0:0:0:
256,192,50934,1,4,0:0:0:0:
256,192,51174,1,0,0:0:0:0:
256,192,51654,1,0,0:0:0:0:
256,192,52134,1,0,0:0:0:0:
256,192,52194,1,0,0:0:0:0:
256,192,52254,1,0,0:0:0:0:
256,192,52374,1,8,0:0:0:0:
256,192,52614,1,8,0:0:0:0:
256,192,52854,1,0,0:0:0:0:
256,192,53094,1,0,0:0:0:0:
256,192,53574,1,0,0:0:0:0:
256,192,54054,1,0,0:0:0:0:
256,192,54114,1,0,0:0:0:0:
256,192,54174,1,0,0:0:0:0:
256,192,54294,1,8,0:0:0:0:
256,192,54534,1,8,0:0:0:0:
256,192,54774,1,0,0:0:0:0:
256,192,55014,1,0,0:0:0:0:
256,192,55494,1,0,0:0:0:0:
256,192,55974,1,0,0:0:0:0:
256,192,56034,1,0,0:0:0:0:
256,192,56094,1,0,0:0:0:0:
256,192,56214,1,8,0:0:0:0:
256,192,56454,1,0,0:0:0:0:
256,192,56694,1,0,0:0:0:0:
256,192,56934,1,0,0:0:0:0:
256,192,57414,1,0,0:0:0:0:
256,192,57894,1,0,0:0:0:0:
256,192,58134,1,8,0:0:0:0:
256,192,58254,1,0,0:0:0:0:
256,192,58374,1,8,0:0:0:0:
256,192,58494,1,0,0:0:0:0:
256,192,58614,1,4,0:0:0:0:
256,192,58854,1,0,0:0:0:0:
256,192,59334,1,0,0:0:0:0:
256,192,59814,1,0,0:0:0:0:
256,192,59874,1,0,0:0:0:0:
256,192,59934,1,0,0:0:0:0:
256,192,60054,1,8,0:0:0:0:
256,192,60294,1,8,0:0:0:0:
256,192,60534,1,0,0:0:0:0:
256,192,60774,1,0,0:0:0:0:
256,192,61254,1,0,0:0:0:0:
256,192,61734,1,0,0:0:0:0:
256,192,61794,1,0,0:0:0:0:
256,192,61854,1,0,0:0:0:0:
256,192,61974,1,8,0:0:0:0:
256,192,62214,1,8,0:0:0:0:
256,192,62334,1,0,0:0:0:0:
256,192,62454,1,4,0:0:0:0:
256,192,62694,1,8,0:0:0:0:
256,192,62934,1,0,0:0:0:0:
256,192,63174,1,8,0:0:0:0:
256,192,63294,1,0,0:0:0:0:
256,192,63414,1,0,0:0:0:0:
256,192,63654,1,8,0:0:0:0:
256,192,63894,1,0,0:0:0:0:
256,192,64134,1,8,0:0:0:0:
256,192,64374,1,4,0:0:0:0:
256,192,64614,1,4,0:0:0:0:
256,192,64854,1,4,0:0:0:0:
256,192,65094,1,4,0:0:0:0:
192,224,65334,1,4,0:0:0:0:
256,192,65814,2,0,L|416:224,1,119.000002269745
256,192,66294,1,4,0:0:0:0:
256,192,66534,1,8,0:0:0:0:
256,192,66774,1,0,0:0:0:0:
256,192,66894,1,0,0:0:0:0:
256,192,67014,1,8,0:0:0:0:
256,192,67254,1,0,0:0:0:0:
256,192,67374,1,0,0:0:0:0:
256,192,67494,1,8,0:0:0:0:
256,192,67614,1,0,0:0:0:0:
256,192,67854,1,0,0:0:0:0:
256,192,67974,1,8,0:0:0:0:
256,192,68214,1,0,0:0:0:0:
256,192,68454,1,8,0:0:0:0:
256,192,68694,1,8,0:0:0:0:
256,192,68814,1,8,0:0:0:0:
256,192,68934,1,8,0:0:0:0:
256,192,69174,1,0,0:0:0:0:
256,192,69294,1,0,0:0:0:0:
256,192,69414,1,8,0:0:0:0:
256,192,69534,1,0,0:0:0:0:
256,192,69774,1,0,0:0:0:0:
256,192,69894,1,8,0:0:0:0:
256,192,70134,1,0,0:0:0:0:
256,192,70374,1,8,0:0:0:0:
256,192,70614,1,0,0:0:0:0:
256,192,70734,1,0,0:0:0:0:
256,192,70854,1,8,0:0:0:0:
256,192,71094,1,0,0:0:0:0:
256,192,71214,1,0,0:0:0:0:
256,192,71334,1,8,0:0:0:0:
256,192,71454,1,0,0:0:0:0:
256,192,71694,1,0,0:0:0:0:
256,192,71814,1,0,0:0:0:0:
256,192,72054,1,8,0:0:0:0:
256,192,72294,1,0,0:0:0:0:
256,192,72534,1,8,0:0:0:0:
256,192,72654,1,8,0:0:0:0:
256,192,72774,1,8,0:0:0:0:
256,192,73014,1,4,0:0:0:0:
256,192,73494,1,4,0:0:0:0:
256,192,73734,1,4,0:0:0:0:
256,192,73974,1,4,0:0:0:0:
256,192,74454,1,0,0:0:0:0:
256,192,74694,1,8,0:0:0:0:
256,192,74814,1,8,0:0:0:0:
256,192,74934,1,0,0:0:0:0:
256,192,75174,1,8,0:0:0:0:
256,192,75414,1,0,0:0:0:0:
256,192,75534,1,0,0:0:0:0:
256,192,75654,1,8,0:0:0:0:
256,192,75894,1,0,0:0:0:0:
256,192,76134,1,8,0:0:0:0:
256,192,76374,1,8,0:0:0:0:
256,192,76494,1,8,0:0:0:0:
256,192,76614,1,8,0:0:0:0:
256,192,76854,1,0,0:0:0:0:
256,224,77334,1,8,0:0:0:0:
256,224,77454,1,8,0:0:0:0:
256,224,77574,1,0,0:0:0:0:
256,224,77814,1,0,0:0:0:0:
256,192,78294,1,0,0:0:0:0:
256,192,78534,1,8,0:0:0:0:
256,192,78654,1,8,0:0:0:0:
256,192,78774,1,0,0:0:0:0:
256,192,79014,1,8,0:0:0:0:
256,192,79254,1,0,0:0:0:0:
256,192,79374,1,0,0:0:0:0:
256,192,79494,1,8,0:0:0:0:
256,192,79734,1,0,0:0:0:0:
256,192,79974,1,8,0:0:0:0:
256,192,80214,1,0,0:0:0:0:
256,192,80454,1,8,0:0:0:0:
256,192,80574,1,8,0:0:0:0:
256,192,80694,1,0,0:0:0:0:
256,224,81174,1,8,0:0:0:0:
256,224,81294,1,8,0:0:0:0:
256,224,81414,1,0,0:0:0:0:
256,192,81654,1,4,0:0:0:0:
256,192,82374,1,8,0:0:0:0:
256,192,82854,1,8,0:0:0:0:
256,192,83094,1,8,0:0:0:0:
256,192,83334,1,8,0:0:0:0:
256,192,83574,1,0,0:0:0:0:
256,192,84294,1,8,0:0:0:0:
256,192,84774,1,8,0:0:0:0:
256,192,85014,1,8,0:0:0:0:
256,192,85254,1,8,0:0:0:0:
256,192,85494,1,0,0:0:0:0:
256,192,86214,1,8,0:0:0:0:
256,192,86694,1,8,0:0:0:0:
256,192,86934,1,8,0:0:0:0:
256,192,87174,1,8,0:0:0:0:
256,192,87414,1,0,0:0:0:0:
256,192,88134,1,8,0:0:0:0:
256,192,88614,1,12,0:0:0:0:
256,192,88854,1,12,0:0:0:0:
256,192,89094,1,12,0:0:0:0:
256,192,89334,1,0,0:0:0:0:
256,192,89454,1,0,0:0:0:0:
256,192,89574,1,0,0:0:0:0:
256,192,89814,1,8,0:0:0:0:
256,192,90054,1,0,0:0:0:0:
256,192,90294,1,8,0:0:0:0:
256,192,90534,1,0,0:0:0:0:
256,192,90654,1,0,0:0:0:0:
256,192,90774,1,0,0:0:0:0:
256,192,91014,1,8,0:0:0:0:
256,192,91254,1,0,0:0:0:0:
256,192,91494,1,8,0:0:0:0:
256,192,91734,1,0,0:0:0:0:
256,192,91974,1,8,0:0:0:0:
256,192,92094,1,8,0:0:0:0:
256,192,92214,1,0,0:0:0:0:
256,192,92454,1,8,0:0:0:0:
256,192,92694,1,0,0:0:0:0:
256,192,92814,1,0,0:0:0:0:
256,192,92934,1,8,0:0:0:0:
256,192,93174,1,0,0:0:0:0:
256,192,93294,1,0,0:0:0:0:
256,192,93414,1,0,0:0:0:0:
256,192,93654,1,8,0:0:0:0:
256,192,93894,1,0,0:0:0:0:
256,192,94134,1,8,0:0:0:0:
256,192,94374,1,0,0:0:0:0:
256,192,94494,1,0,0:0:0:0:
256,192,94614,1,0,0:0:0:0:
256,192,94854,1,8,0:0:0:0:
256,192,95094,1,0,0:0:0:0:
256,192,95334,1,8,0:0:0:0:
256,192,95574,1,0,0:0:0:0:
256,192,95814,1,8,0:0:0:0:
256,192,95934,1,8,0:0:0:0:
256,192,96054,1,0,0:0:0:0:
256,192,96294,1,12,0:0:0:0:
256,192,96774,1,12,0:0:0:0:
256,192,97014,1,0,0:0:0:0:
256,192,97134,1,0,0:0:0:0:
256,192,97254,1,0,0:0:0:0:
256,192,97494,1,8,0:0:0:0:
256,192,97734,1,0,0:0:0:0:
256,192,97974,1,8,0:0:0:0:
256,192,98214,1,0,0:0:0:0:
256,192,98334,1,0,0:0:0:0:
256,192,98454,1,0,0:0:0:0:
256,192,98694,1,8,0:0:0:0:
256,192,98934,1,0,0:0:0:0:
256,192,99174,1,8,0:0:0:0:
256,192,99414,1,0,0:0:0:0:
256,192,99654,1,8,0:0:0:0:
256,192,99774,1,8,0:0:0:0:
256,192,99894,1,0,0:0:0:0:
256,192,100134,1,8,0:0:0:0:
256,192,100374,1,0,0:0:0:0:
256,192,100494,1,0,0:0:0:0:
256,192,100614,1,8,0:0:0:0:
256,192,100854,1,0,0:0:0:0:
256,192,100974,1,0,0:0:0:0:
256,192,101094,1,0,0:0:0:0:
256,192,101334,1,8,0:0:0:0:
256,192,101574,1,0,0:0:0:0:
256,192,101814,1,8,0:0:0:0:
256,192,102054,1,0,0:0:0:0:
256,192,102174,1,0,0:0:0:0:
256,192,102294,1,0,0:0:0:0:
256,192,102534,1,8,0:0:0:0:
256,192,102774,1,0,0:0:0:0:
256,192,103014,1,8,0:0:0:0:
256,192,103254,1,0,0:0:0:0:
256,192,103494,1,8,0:0:0:0:
256,192,103734,1,0,0:0:0:0:
256,192,103974,1,8,0:0:0:0:
288,224,104094,1,0,0:0:0:0:
288,224,104214,1,0,0:0:0:0:
288,224,104334,1,0,0:0:0:0:
288,224,104454,1,0,0:0:0:0:
288,224,104694,1,4,0:0:0:0:
256,192,107814,1,4,0:0:0:0:
256,192,108054,1,12,0:0:0:0:
256,192,108294,1,4,0:0:0:0:
256,192,108534,1,0,0:0:0:0:
256,192,108654,1,8,0:0:0:0:
256,192,108774,1,0,0:0:0:0:
256,192,108894,1,8,0:0:0:0:
256,192,109254,1,0,0:0:0:0:
256,192,109374,1,0,0:0:0:0:
256,192,109734,1,0,0:0:0:0:
256,192,109854,1,0,0:0:0:0:
256,192,109974,1,8,0:0:0:0:
258,187,110214,1,8,0:0:0:0:
256,192,110334,1,8,0:0:0:0:
256,192,110454,1,0,0:0:0:0:
256,192,110574,1,8,0:0:0:0:
256,192,110694,1,0,0:0:0:0:
256,192,110814,1,8,0:0:0:0:
258,187,111174,1,0,0:0:0:0:
256,192,111294,1,0,0:0:0:0:
256,192,111654,1,0,0:0:0:0:
258,187,111774,1,0,0:0:0:0:
258,187,111894,1,8,0:0:0:0:
258,187,112134,1,8,0:0:0:0:
256,192,112374,1,8,0:0:0:0:
256,192,112494,1,8,0:0:0:0:
256,192,112614,1,0,0:0:0:0:
258,187,112734,1,0,0:0:0:0:
258,187,112854,1,0,0:0:0:0:
258,187,113094,1,8,0:0:0:0:
256,192,113214,1,8,0:0:0:0:
256,192,113574,1,0,0:0:0:0:
258,187,113694,1,0,0:0:0:0:
258,187,113814,1,8,0:0:0:0:
258,187,114054,1,8,0:0:0:0:
256,192,114174,1,0,0:0:0:0:
256,192,114294,1,0,0:0:0:0:
256,192,114414,1,0,0:0:0:0:
258,187,114534,1,8,0:0:0:0:
258,187,114774,1,0,0:0:0:0:
256,192,115014,1,8,0:0:0:0:
256,192,115134,1,8,0:0:0:0:
256,192,115494,1,0,0:0:0:0:
256,192,115734,1,8,0:0:0:0:
256,192,115974,1,0,0:0:0:0:
256,192,116214,1,0,0:0:0:0:
256,192,116334,1,8,0:0:0:0:
256,192,116454,1,0,0:0:0:0:
256,192,116574,1,8,0:0:0:0:
256,192,116934,1,0,0:0:0:0:
256,192,117054,1,0,0:0:0:0:
256,192,117414,1,0,0:0:0:0:
256,192,117534,1,0,0:0:0:0:
256,192,117654,1,8,0:0:0:0:
258,187,117894,1,8,0:0:0:0:
256,192,118014,1,8,0:0:0:0:
256,192,118134,1,0,0:0:0:0:
256,192,118254,1,8,0:0:0:0:
256,192,118374,1,0,0:0:0:0:
288,192,118494,1,8,0:0:0:0:
258,187,118854,1,0,0:0:0:0:
256,192,118974,1,0,0:0:0:0:
256,192,119334,1,0,0:0:0:0:
256,192,119574,1,8,0:0:0:0:
256,192,119814,1,0,0:0:0:0:
256,192,120054,1,4,0:0:0:0:
256,192,120294,1,0,0:0:0:0:
256,192,120774,1,0,0:0:0:0:
256,192,121254,1,0,0:0:0:0:
256,192,121314,1,0,0:0:0:0:
256,192,121374,1,0,0:0:0:0:
256,192,121494,1,8,0:0:0:0:
256,192,121734,1,8,0:0:0:0:
256,192,121974,1,0,0:0:0:0:
256,192,122214,1,0,0:0:0:0:
256,192,122694,1,0,0:0:0:0:
256,192,123174,1,0,0:0:0:0:
256,192,123234,1,0,0:0:0:0:
256,192,123294,1,0,0:0:0:0:
256,192,123414,1,8,0:0:0:0:
256,192,123654,1,8,0:0:0:0:
256,192,123894,1,0,0:0:0:0:
256,192,124134,1,0,0:0:0:0:
256,192,124614,1,0,0:0:0:0:
256,192,125094,1,8,0:0:0:0:
256,192,125334,1,0,0:0:0:0:
256,192,125454,1,0,0:0:0:0:
256,192,125574,1,8,0:0:0:0:
256,192,125814,1,0,0:0:0:0:
256,192,126054,1,0,0:0:0:0:
256,192,126534,1,0,0:0:0:0:
256,192,127014,1,0,0:0:0:0:
256,192,127254,1,8,0:0:0:0:
256,192,127374,1,0,0:0:0:0:
256,192,127494,1,8,0:0:0:0:
256,192,127614,1,0,0:0:0:0:
256,192,127734,1,4,0:0:0:0:
256,192,127974,1,0,0:0:0:0:
256,192,128454,1,0,0:0:0:0:
256,192,128934,1,0,0:0:0:0:
256,192,128994,1,0,0:0:0:0:
256,192,129054,1,0,0:0:0:0:
256,192,129174,1,8,0:0:0:0:
256,192,129414,1,8,0:0:0:0:
256,192,129654,1,0,0:0:0:0:
256,192,129894,1,0,0:0:0:0:
256,192,130374,1,0,0:0:0:0:
256,192,130854,1,0,0:0:0:0:
256,192,130914,1,0,0:0:0:0:
256,192,130974,1,0,0:0:0:0:
256,192,131094,1,8,0:0:0:0:
256,192,131334,1,8,0:0:0:0:
256,192,131454,1,0,0:0:0:0:
256,192,131574,1,0,0:0:0:0:
256,192,131694,1,0,0:0:0:0:
256,192,131814,1,8,0:0:0:0:
256,192,132054,1,0,0:0:0:0:
256,192,132294,1,8,0:0:0:0:
256,192,132414,1,8,0:0:0:0:
256,192,132534,1,0,0:0:0:0:
256,192,132774,1,8,0:0:0:0:
256,192,133014,1,0,0:0:0:0:
256,192,133254,1,8,0:0:0:0:
256,192,133494,1,4,0:0:0:0:
256,192,133734,1,4,0:0:0:0:
256,192,133974,1,4,0:0:0:0:
256,192,134214,1,4,0:0:0:0:
192,224,134454,1,4,0:0:0:0:
256,192,134814,1,0,0:0:0:0:
256,192,134874,1,0,0:0:0:0:
256,192,134934,1,8,0:0:0:0:
256,192,135414,1,4,0:0:0:0:
256,192,135654,1,8,0:0:0:0:
256,192,135774,1,0,0:0:0:0:
256,192,136014,1,0,0:0:0:0:
256,192,136134,1,8,0:0:0:0:
256,192,136254,1,8,0:0:0:0:
256,192,136374,1,0,0:0:0:0:
256,192,136494,1,0,0:0:0:0:
256,192,136614,1,8,0:0:0:0:
256,192,136854,1,0,0:0:0:0:
256,192,136974,1,0,0:0:0:0:
256,192,137094,1,0,0:0:0:0:
256,192,137334,1,0,0:0:0:0:
256,192,137574,1,8,0:0:0:0:
256,192,137694,1,0,0:0:0:0:
256,192,137934,1,8,0:0:0:0:
256,192,138054,1,0,0:0:0:0:
256,192,138174,1,8,0:0:0:0:
256,192,138294,1,0,0:0:0:0:
256,192,138414,1,0,0:0:0:0:
256,192,138534,1,8,0:0:0:0:
256,192,138774,1,0,0:0:0:0:
256,192,138894,1,0,0:0:0:0:
256,192,139014,1,0,0:0:0:0:
256,192,139254,1,0,0:0:0:0:
256,192,139494,1,8,0:0:0:0:
256,192,139614,1,0,0:0:0:0:
256,192,139854,1,0,0:0:0:0:
256,192,139974,1,8,0:0:0:0:
256,192,140094,1,8,0:0:0:0:
256,192,140214,1,0,0:0:0:0:
256,192,140334,1,0,0:0:0:0:
256,192,140454,1,8,0:0:0:0:
256,192,140694,1,0,0:0:0:0:
256,192,140814,1,0,0:0:0:0:
256,192,140934,1,0,0:0:0:0:
256,192,141174,1,8,0:0:0:0:
256,192,141414,1,0,0:0:0:0:
256,192,141654,1,8,0:0:0:0:
256,192,141774,1,8,0:0:0:0:
256,192,141894,1,8,0:0:0:0:
256,192,142134,1,4,0:0:0:0:
256,192,142614,1,4,0:0:0:0:
256,192,142854,1,4,0:0:0:0:
256,192,143094,1,4,0:0:0:0:
256,192,143574,1,0,0:0:0:0:
256,192,143814,1,8,0:0:0:0:
256,192,143934,1,8,0:0:0:0:
256,192,144054,1,0,0:0:0:0:
256,192,144294,1,8,0:0:0:0:
256,192,144534,1,0,0:0:0:0:
256,192,144654,1,0,0:0:0:0:
256,192,144774,1,8,0:0:0:0:
256,192,145014,1,0,0:0:0:0:
256,192,145254,1,8,0:0:0:0:
256,192,145494,1,8,0:0:0:0:
256,192,145614,1,8,0:0:0:0:
256,192,145734,1,8,0:0:0:0:
256,192,145974,1,0,0:0:0:0:
256,224,146454,1,8,0:0:0:0:
256,224,146574,1,8,0:0:0:0:
256,224,146694,1,0,0:0:0:0:
256,224,146934,1,0,0:0:0:0:
256,192,147414,1,0,0:0:0:0:
256,192,147654,1,8,0:0:0:0:
256,192,147774,1,8,0:0:0:0:
256,192,147894,1,0,0:0:0:0:
256,192,148134,1,8,0:0:0:0:
256,192,148374,1,0,0:0:0:0:
256,192,148494,1,0,0:0:0:0:
256,192,148614,1,8,0:0:0:0:
256,192,148854,1,8,0:0:0:0:
256,192,149094,1,0,0:0:0:0:
256,192,149334,1,8,0:0:0:0:
256,192,149454,1,8,0:0:0:0:
256,192,149574,1,8,0:0:0:0:
256,192,149814,1,0,0:0:0:0:
256,224,150294,1,0,0:0:0:0:
256,224,150414,1,0,0:0:0:0:
256,224,150534,1,0,0:0:0:0:
256,192,150774,1,4,0:0:0:0:
256,192,153414,1,8,0:0:0:0:
256,192,153534,1,8,0:0:0:0:
256,192,153654,1,8,0:0:0:0:
256,192,153894,1,8,0:0:0:0:
256,192,154134,1,8,0:0:0:0:
256,192,154374,1,8,0:0:0:0:
256,192,154494,1,8,0:0:0:0:
256,192,154614,1,4,0:0:0:0:
256,192,154854,1,8,0:0:0:0:
256,192,154974,1,8,0:0:0:0:
256,192,155094,1,8,0:0:0:0:
256,192,155334,1,8,0:0:0:0:
256,192,155574,1,0,0:0:0:0:
256,192,155814,1,0,0:0:0:0:
256,192,156054,1,8,0:0:0:0:
256,192,156174,1,0,0:0:0:0:
256,192,156294,1,0,0:0:0:0:
256,192,156534,1,8,0:0:0:0:
256,192,156774,1,0,0:0:0:0:
256,192,157014,1,8,0:0:0:0:
256,192,157254,1,8,0:0:0:0:
256,192,157494,1,0,0:0:0:0:
256,192,157734,1,0,0:0:0:0:
256,192,157974,1,8,0:0:0:0:
256,192,158094,1,8,0:0:0:0:
256,192,158214,1,0,0:0:0:0:
256,192,158694,1,8,0:0:0:0:
256,192,158814,1,8,0:0:0:0:
256,192,158934,1,8,0:0:0:0:
256,192,159174,1,8,0:0:0:0:
256,192,159414,1,0,0:0:0:0:
256,192,159654,1,0,0:0:0:0:
256,192,159894,1,8,0:0:0:0:
256,192,160014,1,0,0:0:0:0:
256,192,160134,1,8,0:0:0:0:
256,192,160614,1,8,0:0:0:0:
256,192,160734,1,0,0:0:0:0:
256,192,160854,1,8,0:0:0:0:
256,192,161094,1,8,0:0:0:0:
256,192,161334,1,0,0:0:0:0:
256,192,161574,1,8,0:0:0:0:
256,192,161814,1,0,0:0:0:0:
256,192,162054,1,8,0:0:0:0:
256,192,162294,1,12,0:0:0:0:
256,192,162534,1,8,0:0:0:0:
256,192,162654,1,8,0:0:0:0:
256,192,162774,1,8,0:0:0:0:
256,192,163014,1,8,0:0:0:0:
256,192,163254,1,0,0:0:0:0:
256,192,163494,1,0,0:0:0:0:
256,192,163734,1,8,0:0:0:0:
256,192,163854,1,0,0:0:0:0:
256,192,163974,1,0,0:0:0:0:
256,192,164214,1,8,0:0:0:0:
256,192,164454,1,0,0:0:0:0:
256,192,164694,1,8,0:0:0:0:
256,192,164934,1,8,0:0:0:0:
256,192,165174,1,0,0:0:0:0:
256,192,165414,1,0,0:0:0:0:
256,192,165654,1,8,0:0:0:0:
256,192,165774,1,8,0:0:0:0:
256,192,165894,1,0,0:0:0:0:
256,192,166374,1,8,0:0:0:0:
256,192,166494,1,8,0:0:0:0:
256,192,166614,1,8,0:0:0:0:
256,192,166854,1,8,0:0:0:0:
256,192,167094,1,0,0:0:0:0:
256,192,167334,1,0,0:0:0:0:
256,192,167574,1,8,0:0:0:0:
256,192,167694,1,0,0:0:0:0:
256,192,167814,1,8,0:0:0:0:
256,192,168054,1,0,0:0:0:0:
256,192,168294,1,8,0:0:0:0:
256,192,168414,1,0,0:0:0:0:
256,192,168534,1,8,0:0:0:0:
256,192,168774,1,8,0:0:0:0:
256,192,169014,1,0,0:0:0:0:
256,192,169254,1,8,0:0:0:0:
256,192,169374,1,8,0:0:0:0:
256,192,169494,1,0,0:0:0:0:
256,192,169734,1,8,0:0:0:0:
256,192,169974,1,4,0:0:0:0:
256,192,171414,1,8,0:0:0:0:
256,192,171654,1,8,0:0:0:0:
256,192,172134,1,8,0:0:0:0:
256,192,172374,1,8,0:0:0:0:
256,192,172614,1,8,0:0:0:0:
256,192,172854,1,8,0:0:0:0:
256,192,173094,1,8,0:0:0:0:
256,192,173334,1,8,0:0:0:0:
256,192,173574,1,12,0:0:0:0:
256,192,173814,1,0,0:0:0:0:
256,192,174054,1,8,0:0:0:0:
256,192,174294,1,0,0:0:0:0:
256,192,174534,1,8,0:0:0:0:
256,192,174774,1,0,0:0:0:0:
256,192,175014,1,8,0:0:0:0:
256,192,175254,1,0,0:0:0:0:
256,192,175734,1,0,0:0:0:0:
256,192,175974,1,8,0:0:0:0:
256,192,176214,1,0,0:0:0:0:
256,192,176454,1,8,0:0:0:0:
256,192,176694,1,0,0:0:0:0:
256,192,176934,1,8,0:0:0:0:
256,192,177174,1,0,0:0:0:0:
256,192,177654,1,0,0:0:0:0:
256,192,177894,1,8,0:0:0:0:
256,192,178134,1,0,0:0:0:0:
256,192,178374,1,8,0:0:0:0:
256,192,178614,1,0,0:0:0:0:
256,192,178854,1,8,0:0:0:0:
256,192,179094,1,0,0:0:0:0:
256,192,179574,1,0,0:0:0:0:
256,192,179814,1,8,0:0:0:0:
256,192,180054,1,0,0:0:0:0:
256,192,180294,1,8,0:0:0:0:
256,192,180534,1,0,0:0:0:0:
256,192,180774,1,8,0:0:0:0:
256,192,181014,1,0,0:0:0:0:
256,192,181494,1,0,0:0:0:0:
256,192,181974,1,0,0:0:0:0:
256,192,182454,1,0,0:0:0:0:
256,192,182934,1,0,0:0:0:0:
256,192,183414,1,4,0:0:0:0:
256,192,183654,1,4,0:0:0:0:
256,192,183894,1,4,0:0:0:0:
256,192,184134,1,4,0:0:0:0:
256,192,184374,1,4,0:0:0:0:
256,192,185334,1,8,0:0:0:0:
256,192,185454,1,8,0:0:0:0:
256,192,185574,1,8,0:0:0:0:
256,192,185694,1,8,0:0:0:0:
256,192,186054,1,8,0:0:0:0:
256,192,186174,1,8,0:0:0:0:
256,192,186534,1,0,0:0:0:0:
256,192,186654,1,0,0:0:0:0:
256,192,186774,1,0,0:0:0:0:
256,192,186894,1,0,0:0:0:0:
256,192,187014,1,0,0:0:0:0:
256,192,187254,1,8,0:0:0:0:
256,192,187374,1,8,0:0:0:0:
256,192,187494,1,8,0:0:0:0:
256,192,187614,1,8,0:0:0:0:
256,192,187974,1,8,0:0:0:0:
256,192,188094,1,8,0:0:0:0:
256,192,188454,1,0,0:0:0:0:
256,192,188574,1,0,0:0:0:0:
256,192,188694,1,0,0:0:0:0:
256,192,188814,1,0,0:0:0:0:
256,192,188934,1,0,0:0:0:0:
256,192,189174,1,8,0:0:0:0:
256,192,189294,1,8,0:0:0:0:
256,192,189414,1,8,0:0:0:0:
256,192,189534,1,8,0:0:0:0:
256,192,189894,1,8,0:0:0:0:
256,192,190014,1,8,0:0:0:0:
256,192,190374,1,0,0:0:0:0:
256,192,190494,1,0,0:0:0:0:
256,192,190614,1,0,0:0:0:0:
256,192,190734,1,0,0:0:0:0:
256,192,190854,1,0,0:0:0:0:
256,192,191094,1,8,0:0:0:0:
256,192,192054,1,8,0:0:0:0:
256,192,192294,1,4,0:0:0:0:
320,160,192534,1,12,0:0:0:0:
320,160,192774,1,12,0:0:0:0:
320,160,193014,1,12,0:0:0:0:
256,192,193494,1,0,0:0:0:0:
256,192,193734,1,8,0:0:0:0:
256,192,193854,1,8,0:0:0:0:
256,192,193974,1,0,0:0:0:0:
256,192,194094,1,0,0:0:0:0:
256,192,194214,1,8,0:0:0:0:
256,192,194454,1,0,0:0:0:0:
256,192,194574,1,0,0:0:0:0:
256,192,194694,1,8,0:0:0:0:
256,192,194934,1,0,0:0:0:0:
256,192,195174,1,8,0:0:0:0:
256,192,195414,1,8,0:0:0:0:
256,192,195534,1,8,0:0:0:0:
256,192,195654,1,8,0:0:0:0:
256,192,195894,1,0,0:0:0:0:
256,224,196374,1,8,0:0:0:0:
256,224,196494,1,8,0:0:0:0:
256,224,196614,1,0,0:0:0:0:
256,224,196854,1,0,0:0:0:0:
256,192,197094,1,0,0:0:0:0:
256,192,197334,1,0,0:0:0:0:
256,192,197574,1,0,0:0:0:0:
256,192,197814,1,0,0:0:0:0:
256,192,197934,1,0,0:0:0:0:
256,192,198054,1,0,0:0:0:0:
256,192,198174,1,0,0:0:0:0:
256,192,198294,1,8,0:0:0:0:
256,192,198414,1,0,0:0:0:0:
256,192,198534,1,8,0:0:0:0:
256,192,198654,1,0,0:0:0:0:
256,192,198774,2,0,L|576:224,2,265.999992897034
256,224,200214,1,8,0:0:0:0:
256,192,200694,1,0,0:0:0:0:
256,192,201174,1,4,0:0:0:0:
256,192,201414,1,0,0:0:0:0:
256,192,201474,1,0,0:0:0:0:
256,192,201534,1,0,0:0:0:0:
256,192,201654,1,8,0:0:0:0:
256,192,201774,1,8,0:0:0:0:
256,192,201894,1,0,0:0:0:0:
256,192,202014,1,0,0:0:0:0:
256,192,202134,1,0,0:0:0:0:
256,192,202374,1,0,0:0:0:0:
256,192,202494,1,0,0:0:0:0:
256,192,202614,1,0,0:0:0:0:
256,192,202854,1,0,0:0:0:0:
256,192,202914,1,0,0:0:0:0:
256,192,202974,1,0,0:0:0:0:
256,192,203094,1,8,0:0:0:0:
256,192,203214,1,8,0:0:0:0:
256,192,203334,1,0,0:0:0:0:
256,192,203454,1,0,0:0:0:0:
256,192,203574,1,0,0:0:0:0:
256,192,203814,1,0,0:0:0:0:
256,192,203934,1,0,0:0:0:0:
256,192,204054,1,0,0:0:0:0:
256,192,204294,1,0,0:0:0:0:
256,192,204354,1,0,0:0:0:0:
256,192,204414,1,0,0:0:0:0:
256,192,204534,1,0,0:0:0:0:
256,192,204774,1,0,0:0:0:0:
256,192,204894,1,0,0:0:0:0:
256,192,205014,1,8,0:0:0:0:
256,192,205134,1,8,0:0:0:0:
256,192,205254,1,0,0:0:0:0:
256,192,205374,1,0,0:0:0:0:
256,192,205494,1,0,0:0:0:0:
256,192,205734,1,8,0:0:0:0:
256,192,205854,1,0,0:0:0:0:
256,192,205974,1,0,0:0:0:0:
256,192,206214,1,0,0:0:0:0:
256,192,206334,1,0,0:0:0:0:
256,192,206454,1,0,0:0:0:0:
256,192,206934,1,8,0:0:0:0:
256,192,207054,1,8,0:0:0:0:
256,192,207174,1,8,0:0:0:0:
256,192,207414,1,12,0:0:0:0:
256,192,207654,1,4,0:0:0:0:
256,192,207894,1,12,0:0:0:0:
256,192,208134,1,4,0:0:0:0:
192,192,208374,2,0,L|352:224,1,146.999995513916
256,192,208854,1,4,0:0:0:0:
256,192,209094,1,8,0:0:0:0:
256,192,209214,1,0,0:0:0:0:
256,192,209334,1,0,0:0:0:0:
256,192,209394,1,0,0:0:0:0:
256,192,209454,1,0,0:0:0:0:
256,192,209574,1,8,0:0:0:0:
256,192,209694,1,8,0:0:0:0:
256,192,209814,1,0,0:0:0:0:
256,192,210054,1,0,0:0:0:0:
256,192,210174,1,0,0:0:0:0:
256,192,210294,1,0,0:0:0:0:
256,192,210534,1,8,0:0:0:0:
256,192,210774,1,8,0:0:0:0:
256,192,210894,1,8,0:0:0:0:
256,192,211014,1,8,0:0:0:0:
256,192,211254,1,0,0:0:0:0:
256,192,211494,1,8,0:0:0:0:
256,192,211734,1,8,0:0:0:0:
256,192,211854,1,0,0:0:0:0:
256,192,211974,1,0,0:0:0:0:
256,192,212214,1,0,0:0:0:0:
256,192,212454,1,8,0:0:0:0:
256,192,212574,1,0,0:0:0:0:
256,192,212694,1,0,0:0:0:0:
256,192,212754,1,0,0:0:0:0:
256,192,212814,1,0,0:0:0:0:
256,192,212934,1,8,0:0:0:0:
256,192,213054,1,8,0:0:0:0:
256,192,213174,1,0,0:0:0:0:
256,192,213414,1,0,0:0:0:0:
256,192,213534,1,0,0:0:0:0:
256,192,213654,1,0,0:0:0:0:
256,192,213894,1,8,0:0:0:0:
256,192,214134,1,8,0:0:0:0:
256,192,214254,1,8,0:0:0:0:
256,192,214374,1,8,0:0:0:0:
256,192,214614,1,0,0:0:0:0:
256,192,214854,1,8,0:0:0:0:
256,192,215094,1,8,0:0:0:0:
256,192,215214,1,0,0:0:0:0:
256,192,215334,1,0,0:0:0:0:
256,192,215574,1,8,0:0:0:0:
256,192,215814,1,8,0:0:0:0:
256,192,216054,1,4,0:0:0:0:
256,192,216414,1,0,0:0:0:0:
256,192,216534,1,8,0:0:0:0:
256,192,216774,1,8,0:0:0:0:
256,192,217014,1,0,0:0:0:0:
256,192,217254,1,8,0:0:0:0:
256,192,217374,1,8,0:0:0:0:
256,192,217494,1,0,0:0:0:0:
256,192,217734,1,0,0:0:0:0:
256,192,217974,1,4,0:0:0:0:
256,192,218214,1,4,0:0:0:0:
256,192,218454,1,12,0:0:0:0:
256,192,218694,1,12,0:0:0:0:
256,192,218934,1,4,0:0:0:0:
256,192,219294,1,0,0:0:0:0:
256,192,219414,1,8,0:0:0:0:
256,192,219654,1,8,0:0:0:0:
256,192,219894,1,4,0:0:0:0:
256,192,220254,1,0,0:0:0:0:
256,192,220374,1,8,0:0:0:0:
256,192,220614,1,8,0:0:0:0:
256,192,220854,1,0,0:0:0:0:
256,192,221094,1,8,0:0:0:0:
256,192,221214,1,8,0:0:0:0:
256,192,221334,1,0,0:0:0:0:
256,192,221574,1,0,0:0:0:0:
256,192,221814,1,4,0:0:0:0:
256,192,222054,1,4,0:0:0:0:
256,192,222294,1,12,0:0:0:0:
256,192,222534,1,12,0:0:0:0:
256,192,222774,1,4,0:0:0:0:
256,192,223134,1,0,0:0:0:0:
256,192,223254,1,8,0:0:0:0:
256,192,223494,1,8,0:0:0:0:
256,192,223734,1,4,0:0:0:0:
256,192,224094,1,0,0:0:0:0:
256,192,224214,1,8,0:0:0:0:
256,192,224454,1,8,0:0:0:0:
256,192,224694,1,0,0:0:0:0:
256,192,224934,1,8,0:0:0:0:
256,192,225054,1,8,0:0:0:0:
256,192,225174,1,0,0:0:0:0:
256,192,225414,1,0,0:0:0:0:
256,192,225654,1,4,0:0:0:0:
256,192,225894,1,4,0:0:0:0:
256,192,226134,1,12,0:0:0:0:
256,192,226374,1,12,0:0:0:0:
256,192,226614,1,4,0:0:0:0:
256,192,226974,1,0,0:0:0:0:
256,192,227094,1,8,0:0:0:0:
256,192,227334,1,8,0:0:0:0:
256,192,227574,1,4,0:0:0:0:
256,192,227934,1,0,0:0:0:0:
256,192,228054,1,8,0:0:0:0:
256,192,228294,1,8,0:0:0:0:
256,192,228534,1,0,0:0:0:0:
256,192,228774,1,8,0:0:0:0:
256,192,228894,1,8,0:0:0:0:
256,192,229014,1,0,0:0:0:0:
256,192,229254,1,0,0:0:0:0:
256,192,229494,1,12,0:0:0:0:
256,192,229734,1,4,0:0:0:0:
256,192,229974,1,12,0:0:0:0:
256,192,230214,1,4,0:0:0:0:
256,192,230454,1,12,0:0:0:0:
256,192,230814,1,0,0:0:0:0:
256,192,230934,1,8,0:0:0:0:
256,192,231174,1,8,0:0:0:0:
256,192,231414,1,4,0:0:0:0:
