osu file format v14

[General]
AudioFilename: Inde i skabet - Tema sang.mp3
AudioLeadIn: 0
PreviewTime: -1
Countdown: 0
SampleSet: None
StackLeniency: 0.7
Mode: 0
LetterboxInBreaks: 1
WidescreenStoryboard: 0

[Editor]
DistanceSpacing: 1
BeatDivisor: 4
GridSize: 4
TimelineZoom: 1.6

[Metadata]
Title:Inde i skabet (Theme Song)
TitleUnicode:Inde i skabet (Theme Song)
Artist:KaHLK & Hamazaki
ArtistUnicode:KaHLK & Hamazaki
Creator:KaHLK
Version:Coming out
Source:
Tags:
BeatmapID:751203
BeatmapSetID:339566

[Difficulty]
HPDrainRate:3
CircleSize:5
OverallDifficulty:7
ApproachRate:9.8
SliderMultiplier:3.59999990463257
SliderTickRate:4

[Events]
//Background and Video events
0,0,"closet-doors.jpg",0,0
//Break Periods
//Storyboard Layer 0 (Background)
//Storyboard Layer 1 (Fail)
//Storyboard Layer 2 (Pass)
//Storyboard Layer 3 (Foreground)
//Storyboard Sound Samples

[TimingPoints]
325,325.909831613254,4,2,0,100,1,0
10998,-50,4,2,0,100,0,0
12057,4000,4,2,0,100,1,0
14255,325.909831613254,4,2,0,100,1,0
45053,-50,4,2,0,100,0,0

[HitObjects]
88,56,325,5,0,0:0:0:0:
360,264,487,1,0,0:0:0:0:
360,264,569,1,0,0:0:0:0:
360,264,650,1,0,0:0:0:0:
92,292,813,5,0,0:0:0:0:
412,60,976,1,0,0:0:0:0:
84,152,1139,1,0,0:0:0:0:
264,180,1302,5,0,0:0:0:0:
264,180,1384,1,0,0:0:0:0:
264,180,1465,1,0,0:0:0:0:
264,180,1547,1,0,0:0:0:0:
264,180,1628,1,0,0:0:0:0:
48,48,1791,6,0,B|80:152|80:152|132:44|276:64|160:184,1,359.999990463257
428,296,2280,1,0,0:0:0:0:
440,60,2443,6,0,B|408:164|408:164|356:56|212:76|328:196,1,359.999990463257
88,304,2932,5,0,0:0:0:0:
424,60,3095,1,0,0:0:0:0:
268,320,3258,1,0,0:0:0:0:
92,48,3421,1,0,0:0:0:0:
456,320,3584,1,0,0:0:0:0:
88,216,3747,1,0,0:0:0:0:
128,180,3828,5,0,0:0:0:0:
172,152,3910,1,0,0:0:0:0:
224,136,3991,1,0,0:0:0:0:
276,132,4072,1,0,0:0:0:0:
328,140,4154,1,0,0:0:0:0:
376,160,4235,1,0,0:0:0:0:
420,192,4317,1,0,0:0:0:0:
448,240,4398,1,0,0:0:0:0:
192,312,4561,5,0,0:0:0:0:
284,128,4724,1,0,0:0:0:0:
328,268,4887,1,0,0:0:0:0:
100,152,5050,1,0,0:0:0:0:
428,188,5213,1,0,0:0:0:0:
192,40,5376,1,0,0:0:0:0:
180,296,5539,5,0,0:0:0:0:
264,208,5621,1,0,0:0:0:0:
52,352,5702,1,0,0:0:0:0:
272,360,5783,1,0,0:0:0:0:
92,216,5865,1,0,0:0:0:0:
404,76,6028,1,0,0:0:0:0:
388,128,6109,5,0,0:0:0:0:
344,156,6191,1,0,0:0:0:0:
308,116,6272,1,0,0:0:0:0:
360,104,6354,1,0,0:0:0:0:
392,148,6435,1,0,0:0:0:0:
368,196,6517,1,0,0:0:0:0:
316,192,6598,1,0,0:0:0:0:
304,140,6680,1,0,0:0:0:0:
104,284,6843,1,0,0:0:0:0:
156,88,7006,5,0,0:0:0:0:
156,88,7087,1,0,0:0:0:0:
156,88,7169,1,0,0:0:0:0:
376,308,7332,1,0,0:0:0:0:
376,84,7495,5,0,0:0:0:0:
376,84,7576,1,0,0:0:0:0:
376,84,7657,1,0,0:0:0:0:
200,320,7820,1,0,0:0:0:0:
256,188,7983,5,0,0:0:0:0:
256,188,8065,1,0,0:0:0:0:
256,188,8146,1,0,0:0:0:0:
256,188,8228,1,0,0:0:0:0:
256,188,8309,1,0,0:0:0:0:
256,188,8391,1,0,0:0:0:0:
256,188,8472,1,0,0:0:0:0:
80,60,8635,1,0,0:0:0:0:
96,336,8798,6,0,B|160:248|160:248|248:296|92:48,1,359.999990463257
264,328,9287,1,0,0:0:0:0:
468,40,9450,1,0,0:0:0:0:
456,336,9613,6,0,B|392:248|392:248|304:296|460:48,1,359.999990463257
64,336,10102,1,0,0:0:0:0:
452,176,10265,1,0,0:0:0:0:
332,336,10428,5,0,0:0:0:0:
188,128,10591,1,0,0:0:0:0:
100,216,10672,1,0,0:0:0:0:
280,68,10754,1,0,0:0:0:0:
184,232,10835,1,0,0:0:0:0:
88,88,10917,1,0,0:0:0:0:
256,316,11080,6,0,B|448:284|404:188|404:188|88:264|136:300|136:300|500:256|248:12|248:12|172:360|464:340|464:340|28:12|100:224,1,1979.99994754791
100,208,12057,6,0,P|160:220|200:224,2,89.9999976158142
444,64,14336,5,0,0:0:0:0:
272,256,14499,1,0,0:0:0:0:
272,256,14580,1,0,0:0:0:0:
272,256,14662,1,0,0:0:0:0:
80,84,14906,1,0,0:0:0:0:
152,312,15069,1,0,0:0:0:0:
152,312,15151,1,0,0:0:0:0:
152,312,15232,1,0,0:0:0:0:
72,48,15395,5,0,0:0:0:0:
84,156,15558,2,0,L|288:204,1,179.999995231629
464,44,15884,1,0,0:0:0:0:
448,152,16047,2,0,L|256:56,1,179.999995231629
56,332,16291,5,0,0:0:0:0:
64,164,16454,2,0,L|216:272,1,179.999995231629
464,340,16699,1,0,0:0:0:0:
448,164,16862,2,0,L|288:60,1,179.999995231629
84,308,17188,5,0,0:0:0:0:
128,280,17269,1,0,0:0:0:0:
184,284,17351,1,0,0:0:0:0:
228,316,17432,1,0,0:0:0:0:
280,332,17514,1,0,0:0:0:0:
332,324,17595,1,0,0:0:0:0:
380,300,17677,1,0,0:0:0:0:
412,260,17758,1,0,0:0:0:0:
56,48,17840,5,0,0:0:0:0:
56,48,17921,1,0,0:0:0:0:
56,48,18002,1,0,0:0:0:0:
56,48,18084,1,0,0:0:0:0:
56,48,18165,1,0,0:0:0:0:
416,60,18328,1,0,0:0:0:0:
84,300,18491,1,0,0:0:0:0:
248,184,18654,5,0,0:0:0:0:
428,324,18817,1,0,0:0:0:0:
448,272,18899,1,0,0:0:0:0:
428,324,18980,1,0,0:0:0:0:
396,280,19062,1,0,0:0:0:0:
92,80,19225,1,0,0:0:0:0:
92,80,19306,1,0,0:0:0:0:
196,188,19388,1,0,0:0:0:0:
196,188,19469,5,0,0:0:0:0:
408,56,19632,1,0,0:0:0:0:
376,100,19713,1,0,0:0:0:0:
324,120,19795,1,0,0:0:0:0:
376,100,19876,1,0,0:0:0:0:
296,172,20039,2,0,L|168:196,1,89.9999976158143
220,136,20202,6,0,L|292:72,1,89.9999976158143
340,92,20365,2,0,P|412:176|300:292,1,269.999992847443
276,292,20691,1,0,0:0:0:0:
224,284,20773,1,0,0:0:0:0:
176,260,20854,1,0,0:0:0:0:
224,284,20936,1,0,0:0:0:0:
276,292,21017,5,0,0:0:0:0:
468,48,21180,1,0,0:0:0:0:
384,76,21262,1,0,0:0:0:0:
332,88,21343,1,0,0:0:0:0:
144,312,21506,2,0,P|252:300|188:192,1,269.999992847443
180,244,21832,6,0,P|144:148|228:136,1,179.999995231629
248,136,22076,1,0,0:0:0:0:
320,312,22239,1,0,0:0:0:0:
416,56,22402,1,0,0:0:0:0:
64,64,22565,1,0,0:0:0:0:
128,316,22728,6,0,L|160:280,1,44.9999988079071
244,332,22810,6,0,L|232:284,1,44.9999988079071
328,304,22891,6,0,L|288:272,1,44.9999988079071
380,240,22973,6,0,L|316:228,1,44.9999988079071
400,160,23054,6,0,L|340:160,1,44.9999988079071
224,224,23217,1,0,0:0:0:0:
88,80,23380,1,0,0:0:0:0:
300,56,23543,5,0,0:0:0:0:
300,108,23624,1,0,0:0:0:0:
296,296,23706,1,0,0:0:0:0:
248,268,23787,1,0,0:0:0:0:
28,32,23950,6,0,L|312:36,1,269.999992847443
440,56,25010,1,0,0:0:0:0:
336,328,25172,1,0,0:0:0:0:
336,328,25254,1,0,0:0:0:0:
336,328,25335,1,0,0:0:0:0:
48,40,25498,1,0,0:0:0:0:
200,320,25661,5,0,0:0:0:0:
200,320,25743,1,0,0:0:0:0:
200,320,25824,1,0,0:0:0:0:
456,44,25987,1,0,0:0:0:0:
168,324,26150,1,0,0:0:0:0:
40,36,26313,1,0,0:0:0:0:
340,320,26476,1,0,0:0:0:0:
256,48,26639,1,0,0:0:0:0:
84,312,26802,6,0,B|144:240|144:240|168:320|168:320|184:248|184:248|204:328|204:328|232:256|232:256|228:332|228:332|260:264|260:264|264:332|264:332|288:268|288:268|344:244,1,719.999980926514
412,60,27617,1,0,0:0:0:0:
88,112,27780,1,0,0:0:0:0:
288,328,27943,1,0,0:0:0:0:
256,224,28106,6,0,B|160:196|160:196|272:216|272:216|280:160|280:160|232:220|232:220|136:272|144:272|268:248|268:248|292:164|292:164|180:176|252:264|336:240|252:192|252:192|136:248|136:248|296:248|296:248|224:180|172:264|272:284|296:192|200:208|244:232,1,1169.99996900559
229,237,29246,1,0,0:0:0:0:
80,84,29409,1,0,0:0:0:0:
196,84,29572,1,0,0:0:0:0:
200,140,29654,1,0,0:0:0:0:
188,192,29735,5,0,0:0:0:0:
176,244,29817,1,0,0:0:0:0:
224,220,29898,1,0,0:0:0:0:
416,336,30061,1,0,0:0:0:0:
64,336,30224,1,0,0:0:0:0:
376,332,30387,1,0,0:0:0:0:
160,332,30550,1,0,0:0:0:0:
336,332,30713,1,0,0:0:0:0:
136,192,30876,1,0,0:0:0:0:
260,328,31039,5,0,0:0:0:0:
116,96,31202,1,0,0:0:0:0:
180,280,31365,1,0,0:0:0:0:
480,348,31528,2,0,L|476:-24,1,359.999990463257
68,44,32994,6,0,B|136:224|264:320|448:300|448:300|440:148|360:52|148:48|48:176|84:344|168:344|392:360|344:200|236:100|236:100|432:52|412:184|396:360|92:320|108:116|108:116|420:12|408:312|408:312|124:360|124:360|372:88,1,3059.99991893768
48,28,35928,1,0,0:0:0:0:
456,348,36090,1,0,0:0:0:0:
464,28,36253,1,0,0:0:0:0:
72,332,36416,1,0,0:0:0:0:
400,148,36579,5,0,0:0:0:0:
236,152,36742,1,0,0:0:0:0:
116,148,36905,1,0,0:0:0:0:
192,232,37068,1,0,0:0:0:0:
72,44,37231,1,0,0:0:0:0:
144,336,37394,1,0,0:0:0:0:
372,224,37557,1,0,0:0:0:0:
352,152,37720,5,0,0:0:0:0:
296,200,37883,1,0,0:0:0:0:
320,248,37964,1,0,0:0:0:0:
204,268,38127,1,0,0:0:0:0:
200,176,38290,1,0,0:0:0:0:
304,256,38453,1,0,0:0:0:0:
276,212,38535,1,0,0:0:0:0:
32,32,38698,6,0,L|492:368,1,539.999985694885
440,48,39350,1,0,0:0:0:0:
64,352,39513,1,0,0:0:0:0:
360,296,39675,1,0,0:0:0:0:
184,140,39838,5,0,0:0:0:0:
188,232,39920,1,0,0:0:0:0:
184,144,40001,1,0,0:0:0:0:
92,148,40083,1,0,0:0:0:0:
184,144,40164,1,0,0:0:0:0:
176,52,40246,1,0,0:0:0:0:
184,144,40327,1,0,0:0:0:0:
276,140,40409,1,0,0:0:0:0:
396,272,40490,5,0,0:0:0:0:
56,52,40653,1,0,0:0:0:0:
496,40,40816,1,0,0:0:0:0:
128,344,40979,1,0,0:0:0:0:
216,324,41061,1,0,0:0:0:0:
48,40,41224,6,0,B|488:360|488:360|488:16|304:40|332:368|332:368|32:184|104:132|288:284|200:368|200:368|308:24|396:48|416:256|396:336|396:336|216:40|180:36|128:80|52:320|100:332|176:280|160:164|28:144|28:144|320:28|432:36|484:68|20:372|20:372|484:32|484:32|416:80,1,4229.99988794327
76,68,45216,6,0,B|284:72|284:72|64:68|64:68|288:72|288:72|68:68|68:68|280:72|280:72|72:68|72:68|293:71|293:71|80:336,1,1799.99995231629
168,300,46112,6,0,B|384:300|384:300|64:128|64:128|480:144,1,899.999976158143
40,52,46683,6,0,B|52:132|52:132|64:52|64:52|76:128|76:128|80:52|80:52|64:132|64:132|56:56|56:56|48:120|48:120|48:48|48:48|84:112|84:112|96:60|96:60|108:112|108:112|140:76|140:76|568:104,1,1259.9999666214
