osu file format v14

[General]
AudioFilename: Inde i skabet - Tema sang.mp3
AudioLeadIn: 0
PreviewTime: -1
Countdown: 0
SampleSet: None
StackLeniency: 0.7
Mode: 0
LetterboxInBreaks: 0
WidescreenStoryboard: 1

[Editor]
DistanceSpacing: 0.4
BeatDivisor: 1
GridSize: 4
TimelineZoom: 2.4

[Metadata]
Title:Inde i skabet (Theme Song)
TitleUnicode:Inde i skabet (Theme Song)
Artist:KaHLK & Hamazaki
ArtistUnicode:KaHLK & Hamazaki
Creator:KaHLK
Version:AR10
Source:
Tags:
BeatmapID:855808
BeatmapSetID:339566

[Difficulty]
HPDrainRate:1
CircleSize:3
OverallDifficulty:2
ApproachRate:10
SliderMultiplier:1.99999990463257
SliderTickRate:4

[Events]
//Background and Video events
0,0,"closet-doors.jpg",0,0
//Break Periods
//Storyboard Layer 0 (Background)
//Storyboard Layer 1 (Fail)
//Storyboard Layer 2 (Pass)
//Storyboard Layer 3 (Foreground)
//Storyboard Sound Samples

[TimingPoints]
325,325.909831613254,4,2,0,100,1,0
12057,1200,4,2,0,100,1,0
14013,325.909831613254,4,2,0,100,1,0
32915,800,4,2,0,100,1,0
35686,325.909831613254,4,2,0,100,1,0
41226,600,4,2,0,100,1,0
45218,325.909831613254,4,2,0,100,1,0

[HitObjects]
52,44,325,5,0,0:0:0:0:
132,60,650,1,0,0:0:0:0:
80,124,976,1,0,0:0:0:0:
96,204,1302,6,0,L|208:20,1,199.999990463257
244,100,1954,1,0,0:0:0:0:
204,168,2280,1,0,0:0:0:0:
124,156,2606,6,0,L|272:296,1,199.999990463257
304,220,3258,1,0,0:0:0:0:
336,292,3584,1,0,0:0:0:0:
244,228,3910,5,0,0:0:0:0:
304,176,4235,1,0,0:0:0:0:
228,148,4561,2,0,B|128:328|128:328|356:320,1,399.999980926514
376,260,5539,5,0,0:0:0:0:
328,196,5865,1,0,0:0:0:0:
296,268,6191,1,0,0:0:0:0:
256,196,6517,5,0,0:0:0:0:
192,244,6843,2,0,L|484:44,1,199.999990463257
412,188,7495,1,0,0:0:0:0:
356,128,7820,5,0,0:0:0:0:
336,204,8146,1,0,0:0:0:0:
276,152,8472,1,0,0:0:0:0:
320,84,8798,6,0,L|80:84,1,199.999990463257
100,164,9450,1,0,0:0:0:0:
180,176,9776,1,0,0:0:0:0:
260,176,10102,5,0,0:0:0:0:
340,180,10428,1,0,0:0:0:0:
420,176,10754,1,0,0:0:0:0:
388,100,11080,5,0,0:0:0:0:
308,100,11405,1,0,0:0:0:0:
228,104,11731,1,0,0:0:0:0:
208,108,12057,6,0,L|88:300,2,199.999990463257
252,132,14664,1,0,0:0:0:0:
268,212,14990,1,0,0:0:0:0:
188,200,15316,5,0,0:0:0:0:
128,148,15642,1,0,0:0:0:0:
204,124,15968,1,0,0:0:0:0:
256,188,16294,5,0,0:0:0:0:
176,192,16620,2,0,L|384:64,4,199.999990463257
176,112,18249,1,0,0:0:0:0:
248,76,18575,5,0,0:0:0:0:
176,112,18901,1,0,0:0:0:0:
120,168,19227,1,0,0:0:0:0:
144,244,19553,5,0,0:0:0:0:
208,196,19879,2,0,P|80:144|180:80,1,199.999990463257
160,100,20531,1,0,0:0:0:0:
236,128,20857,5,0,0:0:0:0:
280,196,21183,1,0,0:0:0:0:
244,268,21508,1,0,0:0:0:0:
164,280,21834,5,0,0:0:0:0:
164,280,22160,2,0,B|416:320|364:32|208:32|48:80,1,399.999980926514
156,124,23138,1,0,0:0:0:0:
164,204,23464,5,0,0:0:0:0:
236,236,23790,1,0,0:0:0:0:
304,196,24116,1,0,0:0:0:0:
284,120,24442,5,0,0:0:0:0:
360,88,24768,1,0,0:0:0:0:
404,156,25093,1,0,0:0:0:0:
356,220,25419,5,0,0:0:0:0:
280,244,25745,2,0,L|56:120,1,199.999990463257
164,96,26397,1,0,0:0:0:0:
244,88,26723,5,0,0:0:0:0:
316,120,27049,1,0,0:0:0:0:
372,176,27375,1,0,0:0:0:0:
424,236,27701,6,0,L|32:336,1,399.999980926514
40,256,28678,1,0,0:0:0:0:
48,176,29004,1,0,0:0:0:0:
60,96,29330,5,0,0:0:0:0:
136,76,29656,1,0,0:0:0:0:
144,156,29982,1,0,0:0:0:0:
160,236,30308,5,0,0:0:0:0:
240,252,30634,1,0,0:0:0:0:
288,188,30960,2,0,L|80:68,1,199.999990463257
124,168,31612,5,0,0:0:0:0:
192,208,31938,1,0,0:0:0:0:
268,184,32263,1,0,0:0:0:0:
320,124,32589,5,0,0:0:0:0:
292,140,32915,2,0,B|200:104|144:144|300:176|192:224,3,199.999990463257
152,144,35686,1,0,0:0:0:0:
208,88,36011,5,0,0:0:0:0:
284,108,36337,1,0,0:0:0:0:
276,188,36663,1,0,0:0:0:0:
204,220,36989,5,0,0:0:0:0:
284,236,37315,1,0,0:0:0:0:
352,196,37641,1,0,0:0:0:0:
276,168,37967,5,0,0:0:0:0:
316,96,38293,1,0,0:0:0:0:
112,304,38619,2,0,B|440:300|440:300|52:32,1,799.999961853028
256,192,40248,12,0,40900,0:0:0:0:
468,340,41226,5,0,0:0:0:0:
468,340,41301,1,0,0:0:0:0:
468,340,41376,1,0,0:0:0:0:
468,340,41451,5,0,0:0:0:0:
468,340,41526,1,0,0:0:0:0:
468,340,41601,1,0,0:0:0:0:
468,340,41676,5,0,0:0:0:0:
468,340,41751,1,0,0:0:0:0:
468,340,41826,1,0,0:0:0:0:
468,340,41901,5,0,0:0:0:0:
468,340,41976,1,0,0:0:0:0:
468,340,42051,1,0,0:0:0:0:
468,340,42126,5,0,0:0:0:0:
468,340,42201,1,0,0:0:0:0:
468,340,42276,1,0,0:0:0:0:
468,340,42351,5,0,0:0:0:0:
468,340,42426,1,0,0:0:0:0:
468,340,42501,1,0,0:0:0:0:
468,340,42576,5,0,0:0:0:0:
468,340,42651,1,0,0:0:0:0:
468,340,42726,1,0,0:0:0:0:
468,340,42801,5,0,0:0:0:0:
468,340,42876,1,0,0:0:0:0:
468,340,42951,1,0,0:0:0:0:
468,340,43026,5,0,0:0:0:0:
468,340,43101,1,0,0:0:0:0:
468,340,43176,1,0,0:0:0:0:
468,340,43251,5,0,0:0:0:0:
468,340,43326,1,0,0:0:0:0:
468,340,43401,1,0,0:0:0:0:
468,340,43476,5,0,0:0:0:0:
468,340,43551,1,0,0:0:0:0:
468,340,43626,1,0,0:0:0:0:
468,340,43701,5,0,0:0:0:0:
468,340,43776,1,0,0:0:0:0:
468,340,43851,1,0,0:0:0:0:
468,340,43926,5,0,0:0:0:0:
468,340,44001,1,0,0:0:0:0:
468,340,44076,1,0,0:0:0:0:
468,340,44151,5,0,0:0:0:0:
468,340,44226,1,0,0:0:0:0:
468,340,44301,1,0,0:0:0:0:
468,340,44376,5,0,0:0:0:0:
468,340,44451,1,0,0:0:0:0:
468,340,44526,1,0,0:0:0:0:
468,340,44601,5,0,0:0:0:0:
468,340,44676,1,0,0:0:0:0:
468,340,44751,1,0,0:0:0:0:
468,340,44826,5,0,0:0:0:0:
468,340,44901,1,0,0:0:0:0:
468,340,44976,1,0,0:0:0:0:
468,340,45051,5,0,0:0:0:0:
468,340,45126,1,0,0:0:0:0:
468,340,45201,1,0,0:0:0:0:
468,340,45276,5,0,0:0:0:0:
468,340,45351,1,0,0:0:0:0:
256,192,45543,12,0,48803,0:0:0:0:
104,184,49128,6,0,L|336:180,2,199.999990463257
