osu file format v14

[General]
AudioFilename: audio.mp3
AudioLeadIn: 0
PreviewTime: -1
Countdown: 1
SampleSet: None
StackLeniency: 0.7
Mode: 0
LetterboxInBreaks: 0
WidescreenStoryboard: 0

[Editor]
DistanceSpacing: 1
BeatDivisor: 4
GridSize: 4
TimelineZoom: 2.1

[Metadata]
Title:So re de mo bo ku ha ya tte na i
TitleUnicode:それでもボクはやってない
Artist:Ka ra me ru
ArtistUnicode:からめる
Creator:lkx_Shore
Version:Easy
Source:
Tags:twitter.com/purinharumaki
BeatmapID:1389083
BeatmapSetID:655491

[Difficulty]
HPDrainRate:2
CircleSize:4
OverallDifficulty:2
ApproachRate:8
SliderMultiplier:2.2
SliderTickRate:1

[Events]
//Background and Video events
Video,0,"20440373-1-16.avi"
0,0,"20170817181458.jpg",0,0
//Break Periods
//Storyboard Layer 0 (Background)
//Storyboard Layer 1 (Fail)
//Storyboard Layer 2 (Pass)
//Storyboard Layer 3 (Foreground)
//Storyboard Sound Samples

[TimingPoints]
540,375,4,2,0,60,1,0
2040,-133.333333333333,4,2,0,60,0,0
2274,-133.333333333333,4,2,0,5,0,0
4008,-66.6666666666667,4,2,0,60,0,0
6258,-117.647058823529,4,2,0,60,0,0
6305,-117.647058823529,4,2,0,5,0,0
9540,375,4,2,0,60,1,0
9540,-62.5,4,2,0,60,0,0
9633,-62.5,4,2,0,5,0,0
10758,-62.5,4,2,0,5,0,0
10852,-62.5,4,2,0,60,0,0
10946,-62.5,4,2,0,5,0,0
12540,-62.5,4,2,0,60,0,0
12915,-111.111111111111,4,2,0,60,0,0
13008,-62.5,4,2,0,5,0,0
13852,-200,4,2,0,5,0,0
15540,375,4,2,0,60,1,0
15540,-71.4285714285714,4,2,0,60,0,0
16290,-50,4,2,0,60,0,0
17040,-71.4285714285714,4,2,0,60,0,0
17696,-50,4,2,0,60,0,0
18540,-71.4285714285714,4,2,0,60,0,0
18915,-50,4,2,0,60,0,0
19290,-50,4,2,0,60,0,0
20040,-50,4,1,0,40,0,0
20836,-200,4,2,0,60,0,0
20883,-200,4,2,0,5,0,0
22850,375,4,2,0,60,1,0
25850,-66.6666666666667,4,2,0,60,0,0
27350,-66.6666666666667,4,2,0,40,0,0
28850,372.670807453416,4,2,0,60,1,0
31365,-100,4,2,0,5,0,0
31435,-133.333333333333,4,2,0,60,0,0
31458,-133.333333333333,4,2,0,5,0,0
32949,-100,4,2,0,60,0,0

[Colours]
Combo1 : 18,124,255
Combo2 : 255,0,0

[HitObjects]
24,296,2180,54,0,B|48:264|48:264|72:288|72:288|56:304|56:304|64:256|64:256|96:272|96:272|88:304|88:304|104:296|104:296|96:272|96:272|128:280|128:280|120:312|120:312|144:296|144:296|128:280|128:280|160:288|160:288|152:320|152:320|176:304|176:304|160:288|160:288|192:296|192:296|184:328|184:328|208:312|208:312|192:296|192:296|224:304|224:304|216:336|216:336|237:328|237:328|224:304|224:304|248:344|256:312|256:312,1,763.12502911091
250,321,4055,6,0,B|290:241|290:241|314:321,1,165.000006294251,0|0,3:0|2:0,0:0:0:0:
311,313,4383,2,0,B|351:233|351:233|375:313,1,165.000006294251,0|0,3:0|2:0,0:0:0:0:
372,305,4711,2,0,B|412:225|412:225|436:305,1,165.000006294251,0|0,3:0|2:0,0:0:0:0:
298,233,5016,2,0,B|338:153|338:153|362:233,1,165.000006294251,0|0,3:0|2:0,0:0:0:0:
359,225,5321,2,0,B|399:145|399:145|423:225,1,165.000006294251,0|0,3:0|2:0,0:0:0:0:
338,153,5625,2,0,B|378:73|378:73|402:153,1,165.000006294251,0|0,3:0|2:0,0:0:0:0:
440,296,5930,2,0,B|400:376|400:376|376:296,1,165.000006294251,0|0,3:0|2:0,0:0:0:0:
256,200,6211,1,0,0:0:0:0:
256,200,6258,6,0,B|272:168|272:144|256:128|256:128|224:128|208:144|184:176|184:176|160:136|144:128|112:128|112:128|104:144|100:172|116:204|116:204|144:240|184:264|184:264|232:240|256:200,1,525.937510031462,0|0,0:2|0:0,0:0:0:0:
432,240,9540,2,0,B|472:184|472:184|472:96|472:96|464:96|464:96|464:184|464:184|424:240|424:240|456:184|456:184|456:96|456:96|448:96|448:96|448:184|448:184|416:240|416:240|440:184|440:184|440:96|440:96|432:96|432:96|424:104|424:104|424:136|424:136|424:184|424:184|408:240|408:240|432:184|432:184|432:136|432:136|424:96|424:96|424:184|424:184,1,1144
336,336,10852,6,0,B|248:392|248:392|328:320|328:320|240:384|240:384|320:312|320:312|232:376|232:376|320:296|320:296|216:368|216:368|312:288|312:288|208:360|208:360|304:280|304:280|200:352|200:352|296:272|296:272|192:344,1,1496
248,200,12540,6,0,B|344:208|360:120|360:120|304:71|304:71|320:8|271:-8|271:-8|196:24|196:24|136:-16|136:-16,1,440
248,8,12915,6,0,B|192:48|120:40|120:40|96:64|96:112|96:112|104:152|80:200|80:200|128:240|128:240|192:240|248:192|264:152,1,494.999984893799
241,187,13852,6,0,B|264:208|320:192|320:192|352:160|360:120|358:103|358:103|304:48|304:48|320:0|320:0|264:-16|208:16|208:16|184:8,1,440
512,320,15540,6,0,B|473:330|473:330|440:304|440:304|389:316|389:316|360:280|360:280|296:312|296:312|280:304|280:304|216:224|248:112|248:112,1,461.999985900879,4|0,1:2|0:0,0:0:0:0:
120,160,16196,1,0,0:0:0:0:
120,160,16290,6,0,B|64:184|64:184|120:176,1,110,4|0,1:2|0:0,0:0:0:0:
184,216,16477,2,0,B|240:192|240:192|184:200,1,110
88,152,16665,2,0,B|32:176|32:176|88:168,1,110
216,232,16852,2,0,B|272:208|272:208|216:216,1,110
512,320,17040,6,0,B|473:330|473:330|440:304|440:304|389:316|389:316|360:280|360:280|296:312|296:312|280:304|280:304|216:224|248:88|248:88,1,461.999985900879,4|0,1:2|0:0,0:0:0:0:
120,160,17696,5,0,0:0:0:0:
120,160,17790,2,0,B|64:184|64:184|120:176,1,110,4|0,1:2|0:0,0:0:0:0:
184,216,17977,2,0,B|240:192|240:192|184:200,1,110
88,152,18165,2,0,B|32:176|32:176|88:168,1,110
216,232,18352,2,0,B|272:208|272:208|216:216,1,110
440,328,18540,6,0,B|408:288|408:288|360:304|360:304|328:272|328:272|272:288|272:288|216:240|256:120|256:120,1,307.999990600586,4|0,1:2|0:0,0:0:0:0:
242,193,18915,6,0,B|160:200|160:200|224:160,1,110,2|0,1:2|0:0,0:0:0:0:
272,64,19102,2,0,B|354:57|354:57|304:88,1,110,0|0,1:2|0:0,0:0:0:0:
440,328,19290,6,0,B|408:288|408:288|360:304|360:304|328:272|328:272|272:288|272:288|216:240|256:112|256:112,1,330,4|0,1:2|0:0,0:0:0:0:
183,185,19665,6,0,B|100:191|100:191|164:151,1,110,2|0,1:2|0:0,0:0:0:0:
331,71,19852,2,0,B|413:64|413:64|363:95,1,110,0|0,1:2|0:0,0:0:0:0:
440,328,20040,6,0,B|383:304|383:304|320:312,1,110,0|0,1:0|0:0,0:0:0:0:
334,310,20227,2,0,B|285:315|285:315|228:292,1,110,0|0,1:0|0:0,0:0:0:0:
228,292,20415,2,0,B|240:232|240:232|200:112,1,110,0|0,1:0|0:0,0:0:0:0:
224,185,20602,2,0,B|208:138|208:138|219:78,1,110,0|0,1:0|0:0,0:0:0:0:
248,76,20836,6,0,B|264:40|288:32|288:32|312:48|316:80|316:80|304:116|272:140|272:140|224:144|200:124|200:124|184:104|176:72|176:72|184:52|200:48|200:48|228:56|248:76,1,412.5,2|0,0:2|0:0,0:0:0:0:
108,220,22852,5,0,1:0:0:0:
136,196,22943,1,0,0:0:0:0:
172,184,23037,1,0,0:0:0:0:
212,188,23131,1,0,0:0:0:0:
176,180,23225,1,0,1:0:0:0:
144,160,23318,1,0,0:0:0:0:
132,124,23412,2,0,P|135:94|152:68,1,55
292,92,23600,5,0,1:0:0:0:
328,108,23693,1,0,0:0:0:0:
344,160,23787,1,0,0:0:0:0:
312,140,23881,1,0,0:0:0:0:
264,168,23975,1,0,1:0:0:0:
300,184,24068,1,0,0:0:0:0:
316,236,24162,2,0,L|264:208,1,55
72,272,24350,5,0,1:0:0:0:
100,248,24441,1,0,0:0:0:0:
136,236,24535,1,0,0:0:0:0:
176,240,24629,1,0,0:0:0:0:
140,232,24723,1,0,1:0:0:0:
108,212,24816,1,0,0:0:0:0:
96,176,24910,2,0,P|99:146|116:120,1,55
288,108,25098,5,0,1:0:0:0:
324,124,25191,1,0,0:0:0:0:
340,176,25285,1,0,0:0:0:0:
308,156,25379,1,0,0:0:0:0:
260,184,25473,1,0,1:0:0:0:
296,200,25566,1,0,0:0:0:0:
312,252,25660,2,0,L|260:224,1,55
420,360,25850,6,0,B|530:355|519:267|409:288|409:288|382:391|277:353|297:273|297:273|348:217|399:266,1,495,4|0,1:2|0:0,0:0:0:0:
315,338,26225,1,0,1:0:0:0:
212,308,26600,6,0,B|104:332|92:244|204:236|204:236|256:328|348:264|308:192|308:192|244:152|208:212,1,495,4|0,1:2|0:0,0:0:0:0:
308,260,26975,1,0,1:0:0:0:
52,32,27350,6,0,B|96:36|96:36|148:56,1,82.5000031471254,0|0,1:0|0:0,0:0:0:0:
74,119,27537,2,0,B|118:123|118:123|170:143,1,82.5000031471254,0|0,1:0|0:0,0:0:0:0:
96,208,27725,2,0,B|140:212|140:212|192:232,1,82.5000031471254,0|0,1:0|0:0,0:0:0:0:
118,295,27912,2,0,B|162:299|162:299|214:319,1,82.5000031471254,0|0,1:0|0:0,0:0:0:0:
144,376,28100,2,0,B|256:376|256:376|296:340|296:340|348:372|348:372|392:344|392:344|416:376|416:376|440:360,1,330.000012588501,0|0,1:0|0:0,1:0:0:0:
444,252,28662,1,0,1:0:0:0:
444,252,28756,1,0,1:0:0:0:
444,252,28850,6,0,P|406:213|352:188,1,110,0|0,1:0|0:0,0:0:0:0:
104,288,29222,1,0,1:0:0:0:
92,336,29409,1,2,0:0:0:0:
208,300,29595,1,0,1:0:0:0:
200,344,29781,1,2,0:0:0:0:
316,316,29968,1,0,1:0:0:0:
308,360,30154,1,2,0:0:0:0:
440,336,30340,5,0,1:0:0:0:
432,380,30527,1,0,3:0:0:0:
432,380,30589,1,0,3:0:0:0:
432,380,30651,1,0,0:0:0:0:
432,380,30713,1,0,1:0:0:0:
384,252,30899,1,0,3:0:0:0:
384,252,30961,1,0,3:0:0:0:
384,252,31023,1,0,3:0:0:0:
384,252,31086,2,0,B|420:236|420:236|412:152|412:152|372:176,1,165,0|0,1:0|2:0,0:0:0:0:
248,200,31435,6,0,B|236:168|216:156|216:156|184:168|174:180|168:200|168:200|166:219|180:252|232:304|232:304|296:268|316:252|320:232|320:232|319:211|316:192|304:172|304:172|276:172|248:200,1,484.687518489362
380,280,32995,5,0,0:0:0:0:
344,104,33927,1,0,0:0:0:0:
168,268,34859,1,0,0:0:0:0:
304,200,35581,1,0,0:0:0:0:
272,304,36256,1,0,0:0:0:0:
