osu file format v14

[General]
AudioFilename: audio.mp3
AudioLeadIn: 0
PreviewTime: 748
Countdown: 0
SampleSet: Soft
StackLeniency: 0.8
Mode: 0
LetterboxInBreaks: 0
WidescreenStoryboard: 0

[Editor]
Bookmarks: 2637,21535,32873,39488,51771,62401
DistanceSpacing: 1.2
BeatDivisor: 4
GridSize: 8
TimelineZoom: 1

[Metadata]
Title:Kaze no Legendz (TV Size)
TitleUnicode:風のレジェンズ (TV Size)
Artist:KYOKO
ArtistUnicode:KYOKO
Creator:CookieBite
Version:leo16834's Normal
Source:レジェンズ甦る竜王伝説
Tags:legends tale of the dragon kings yomigaeru ryuuou densetsu studio gallop fuji bandai 大地丙太郎 太田美知彦 leo16834 ezek exected
BeatmapID:1814307
BeatmapSetID:867740

[Difficulty]
HPDrainRate:4
CircleSize:4
OverallDifficulty:4
ApproachRate:5
SliderMultiplier:1.4
SliderTickRate:1

[Events]
//Background and Video events
Video,2650,"op.mp4"
0,0,"bg.jpg",0,0
//Break Periods
//Storyboard Layer 0 (Background)
//Storyboard Layer 1 (Fail)
//Storyboard Layer 2 (Pass)
//Storyboard Layer 3 (Foreground)
//Storyboard Sound Samples

[TimingPoints]
748,472.44094488189,4,2,1,80,1,0
1456,-100,4,2,1,80,0,0
1692,-111.111111111111,4,2,1,80,0,0
2637,-100,4,2,1,70,0,0
4881,-100,4,2,1,40,0,0
4999,-100,4,2,1,70,0,0
6771,-100,4,2,1,40,0,0
6889,-100,4,2,1,70,0,0
12559,-100,4,2,2,50,0,0
13031,-100,4,2,1,70,0,0
13976,-100,4,2,1,70,0,0
21535,-100,4,2,1,50,0,0
32873,-100,4,2,1,60,0,0
37598,-100,4,2,1,65,0,0
38543,-100,4,2,1,80,0,0
39488,-111.111111111111,4,2,1,80,0,0
40433,-100,4,2,1,70,0,1
42677,-100,4,2,1,40,0,1
42795,-100,4,2,1,70,0,1
44566,-100,4,2,1,40,0,1
44685,-100,4,2,1,70,0,1
49881,-100,4,2,1,60,0,1
50354,-100,4,2,2,50,0,0
50826,-100,4,2,1,50,0,0
51771,-100,4,2,1,60,0,0
59330,-100,4,2,1,55,0,0
59803,-100,4,2,1,50,0,0
60275,-100,4,2,1,40,0,0
60748,-100,4,2,1,30,0,0
61220,-100,4,2,1,20,0,0
61692,-100,4,2,1,10,0,0
62401,-100,4,2,1,5,0,0

[Colours]
Combo1 : 60,87,240
Combo2 : 124,171,241
Combo3 : 243,95,99
Combo4 : 234,205,130

[HitObjects]
126,33,748,6,4,B|93:16|93:16|12:32,2,105,4|4|4,1:0|1:0|1:0,1:0:0:0:
195,79,1692,2,0,P|254:102|323:71,1,125.999996154785
310,82,2637,6,0,L|303:175,2,70,4|0|10,1:0|0:0|0:0,0:0:0:0:
321,0,3346,1,0,0:0:0:0:
388,52,3582,2,0,L|377:240,1,175,10|2,0:0|0:0,0:0:0:0:
438,284,4409,2,0,B|402:260|402:260|247:281,1,175,4|10,1:0|0:0,0:0:0:0:
229,350,5236,1,0,0:0:0:0:
152,314,5472,6,0,B|117:275|117:275|137:146,1,175,10|0,0:0|0:0,0:0:0:0:
69,102,6299,2,0,P|143:64|216:122,1,175,4|2,1:0|0:0,0:0:0:0:
267,174,7125,1,0,0:0:0:0:
335,124,7362,2,0,L|345:45,1,70,2|0,0:0|0:0,0:0:0:0:
421,23,7834,2,0,L|429:109,1,70,10|0,0:0|0:0,0:0:0:0:
491,147,8307,6,0,L|477:273,2,105,4|10|10,1:0|0:0|0:0,0:0:0:0:
427,92,9251,1,10,0:0:0:0:
367,203,9606,1,10,0:0:0:0:
310,315,9960,1,10,0:0:0:0:
232,281,10196,6,0,P|192:297|154:298,1,70,4|0,1:0|0:0,0:0:0:0:
104,350,10669,2,0,P|87:309|90:265,1,70,10|0,0:0|0:0,0:0:0:0:
18,230,11141,2,0,P|73:196|146:218,1,140,2|10,0:0|0:0,0:0:0:0:
165,298,11850,1,0,0:0:0:0:
165,298,12086,1,4,1:0:0:0:
309,383,12559,1,2,0:0:0:0:
323,215,13031,6,0,L|452:226,2,105,2|8|8,0:0|0:0|0:0,0:0:0:0:
251,256,13976,2,0,P|190:246|133:299,1,140,4|10,1:0|0:0,0:0:0:0:
69,348,14685,2,0,B|60:309|38:286|38:286|34:235|56:207,1,140,10|0,0:0|0:0,0:0:0:0:
95,147,15393,2,0,P|62:130|14:120,1,70,10|0,0:0|0:0,0:0:0:0:
81,54,15866,6,0,P|145:27|195:90,1,140,4|2,1:0|0:0,0:0:0:0:
275,68,16574,2,0,P|325:25|386:52,1,140,10|0,0:0|0:0,0:0:0:0:
442,115,17283,1,10,0:0:0:0:
402,278,17755,6,0,P|326:271|298:201,1,140,4|2,1:0|0:0,0:0:0:0:
213,218,18464,2,0,P|175:274|108:275,1,140,10|0,0:0|0:0,0:0:0:0:
60,205,19173,2,0,P|98:188|146:210,1,70,2|0,0:0|0:0,0:0:0:0:
170,123,19645,6,0,L|33:91,1,140,4|2,1:0|0:0,0:0:0:0:
92,31,20354,2,0,L|229:-1,1,140,10|0,0:0|0:0,0:0:0:0:
295,49,21062,1,2,0:0:0:0:
462,30,21535,6,0,P|454:88|446:118,1,70,4|0,1:0|0:0,0:0:0:0:
367,102,22007,2,0,P|307:80|255:135,1,140,10|0,0:0|0:0,0:0:0:0:
191,181,22716,1,10,0:0:0:0:
262,225,22952,2,0,L|257:310,1,70,10|2,0:0|0:0,0:0:0:0:
174,304,23425,2,0,P|112:295|67:321,2,105,10|10|10,0:0|0:0|0:0,0:0:0:0:
225,370,24370,2,0,B|266:381|266:381|386:366,1,140,0|10,0:0|0:0,0:0:0:0:
492,262,25314,6,0,L|418:256,1,70,4|0,1:0|0:0,0:0:0:0:
373,187,25787,2,0,L|519:174,1,140,10|0,0:0|0:0,0:0:0:0:
468,102,26496,1,10,0:0:0:0:
384,98,26732,2,0,L|305:94,1,70,0|10,0:0|0:0,0:0:0:0:
259,30,27204,2,0,P|281:97|252:175,1,140,10|2,0:0|0:0,0:0:0:0:
177,164,27913,2,0,P|155:230|184:308,1,140,10|2,0:0|0:0,0:0:0:0:
244,341,28622,1,10,0:0:0:0:
91,384,29094,6,0,P|99:340|85:306,1,70,4|0,1:0|0:0,0:0:0:0:
22,269,29566,2,0,P|70:229|155:261,1,140,10|0,0:0|0:0,0:0:0:0:
192,178,30275,1,10,0:0:0:0:
253,121,30511,2,0,B|332:116,1,70,10|0,0:0|0:0,0:0:0:0:
393,70,30984,2,0,B|415:53|415:53|472:51|500:97,2,105,10|10|10,0:0|0:0|0:0,0:0:0:0:
257,282,32401,2,0,L|257:200,1,70,10|0,0:0|0:0,0:0:0:0:
212,141,32873,6,0,B|194:133|182:110|182:110|144:112|109:151,2,105,4|10|10,1:0|0:0|0:0,0:0:0:0:
296,141,33818,2,0,B|314:133|326:110|326:110|364:112|381:133,2,105,10|10|10,0:0|0:0|0:0,0:0:0:0:
256,66,34763,2,0,L|256:300,1,210,0|0,1:0|0:0,0:0:0:0:
174,306,35708,2,0,P|254:363|339:307,1,210,10|10,0:0|0:0,0:0:0:0:
385,239,36653,6,0,B|413:224|413:224|446:222|497:232,2,105,4|10|10,1:0|0:0|0:0,0:0:0:0:
324,179,37598,2,0,B|290:168|274:102|274:102|251:157|171:153,1,210,8|2,0:0|0:0,0:0:0:0:
126,88,38543,5,4,1:0:0:0:
123,213,38897,1,4,1:0:0:0:
157,337,39251,1,4,1:0:0:0:
226,307,39488,2,0,B|263:301|284:284|284:284|305:302|343:308,1,125.999996154785,10|10,0:0|0:0,0:0:0:0:
341,307,40433,6,0,L|352:208,2,70,4|0|10,1:0|0:0|0:0,0:0:0:0:
378,381,41141,1,0,0:0:0:0:
429,314,41377,2,0,L|449:119,1,175,10|0,0:0|0:0,0:0:0:0:
491,68,42204,2,0,B|452:90|452:90|319:55,1,175,4|10,1:0|0:0,0:0:0:0:
266,116,43031,1,0,0:0:0:0:
184,96,43267,6,0,B|134:127|79:94|79:94|54:126|75:183,1,175,10|2,0:0|0:0,0:0:0:0:
8,214,44094,2,0,P|65:191|118:283,1,175,4|2,1:0|0:0,0:0:0:0:
193,316,44921,1,0,0:0:0:0:
257,261,45157,2,0,P|296:260|330:268,1,70,2|0,0:0|0:0,0:0:0:0:
395,313,45629,2,0,P|434:314|468:306,1,70,10|0,0:0|0:0,0:0:0:0:
501,232,46102,6,0,P|515:171|511:125,2,105,4|10|10,1:0|0:0|0:0,0:0:0:0:
464,307,47047,1,10,0:0:0:0:
346,262,47401,1,10,0:0:0:0:
229,213,47755,1,10,0:0:0:0:
149,239,47992,6,0,P|145:269|158:322,1,70,4|0,1:0|0:0,0:0:0:0:
213,364,48464,2,0,L|303:354,1,70,10|0,0:0|0:0,0:0:0:0:
338,292,48936,2,0,P|398:273|470:317,1,140,2|10,0:0|0:0,0:0:0:0:
396,353,49645,1,0,0:0:0:0:
396,353,49881,2,0,L|417:198,1,140,4|2,1:0|0:0,0:0:0:0:
375,50,50826,6,0,B|414:33|414:33|462:50|493:75,2,105,10|10|10,0:0|0:0|0:0,0:0:0:0:
329,121,51771,6,0,P|259:129|205:73,1,140,4|2,1:0|0:0,0:0:0:0:
167,12,52480,2,0,L|149:171,1,140,10|0,0:0|0:0,0:0:0:0:
93,212,53188,1,2,0:0:0:0:
223,317,53661,6,0,P|286:331|341:270,1,140,4|2,1:0|0:0,0:0:0:0:
313,202,54370,2,0,P|250:188|195:249,1,140,10|0,0:0|0:0,0:0:0:0:
223,317,55078,2,0,L|145:329,1,70,2|0,0:0|0:0,0:0:0:0:
81,284,55551,6,0,B|72:245|83:207|83:207|112:179|117:129,1,140,4|2,1:0|0:0,0:0:0:0:
83,74,56259,2,0,B|123:51|150:52|150:52|161:94|194:111,1,140,10|0,0:0|0:0,0:0:0:0:
245,168,56968,2,0,P|283:168|313:149,1,70,2|0,0:0|0:0,0:0:0:0:
373,96,57440,5,4,1:0:0:0:
402,175,57677,1,0,0:0:0:0:
353,243,57913,1,4,1:0:0:0:
378,323,58149,1,4,1:0:0:0:
256,192,58267,12,0,62401,0:0:0:0:
