osu file format v14

[General]
AudioFilename: audio.mp3
AudioLeadIn: 0
PreviewTime: 748
Countdown: 0
SampleSet: Soft
StackLeniency: 0.7
Mode: 0
LetterboxInBreaks: 0
WidescreenStoryboard: 1

[Editor]
Bookmarks: 2637,21535,32873,51771,62401
DistanceSpacing: 1
BeatDivisor: 4
GridSize: 4
TimelineZoom: 1

[Metadata]
Title:Kaze no Legendz (TV Size)
TitleUnicode:風のレジェンズ (TV Size)
Artist:KYOKO
ArtistUnicode:KYOKO
Creator:CookieBite
Version:ezek's Hard
Source:レジェンズ甦る竜王伝説
Tags:legends tale of the dragon kings yomigaeru ryuuou densetsu studio gallop fuji bandai 大地丙太郎 太田美知彦 leo16834 ezek exected
BeatmapID:1817452
BeatmapSetID:867740

[Difficulty]
HPDrainRate:5.5
CircleSize:4
OverallDifficulty:6.6
ApproachRate:7.3
SliderMultiplier:2
SliderTickRate:1

[Events]
//Background and Video events
Video,2650,"op.mp4"
0,0,"bg.jpg",0,0
//Break Periods
//Storyboard Layer 0 (Background)
//Storyboard Layer 1 (Fail)
//Storyboard Layer 2 (Pass)
//Storyboard Layer 3 (Foreground)
//Storyboard Sound Samples

[TimingPoints]
748,472.44094488189,4,2,1,80,1,0
1456,-100,4,2,1,80,0,0
2637,-100,4,2,1,70,0,0
9251,-100,4,2,1,70,0,0
10196,-100,4,2,1,70,0,0
12086,-142.857142857143,4,2,1,70,0,0
12440,-142.857142857143,4,2,1,5,0,0
12559,-200,4,2,2,70,0,0
12913,-200,4,2,2,5,0,0
13031,-125,4,2,1,70,0,0
13976,-100,4,2,1,70,0,0
21535,-100,4,2,1,50,0,0
32873,-100,4,2,1,60,0,0
38070,-100,4,2,1,65,0,0
38543,-100,4,2,1,80,0,0
39488,-200,4,2,1,80,0,0
40433,-90.9090909090909,4,2,1,70,0,1
49881,-66.6666666666667,4,2,1,60,0,1
50236,-66.6666666666667,4,2,1,5,0,1
50354,-250,4,2,2,50,0,0
50472,-250,4,2,2,20,0,0
51181,-250,4,2,1,5,0,0
51299,-250,4,2,1,50,0,0
51771,-100,4,2,1,60,0,0
59330,-100,4,2,1,55,0,0
59803,-100,4,2,1,50,0,0
60275,-100,4,2,1,40,0,0
60748,-100,4,2,1,30,0,0
61220,-100,4,2,1,20,0,0
61692,-100,4,2,1,10,0,0
62401,-100,4,2,1,5,0,0

[Colours]
Combo1 : 60,87,240
Combo2 : 124,171,241
Combo3 : 243,95,99
Combo4 : 234,205,130

[HitObjects]
44,366,748,6,0,L|142:350,1,100,4|0,1:0|0:0,0:0:0:0:
174,298,1102,2,0,L|76:282,1,100,4|0,1:0|0:0,0:0:0:0:
34,238,1456,1,4,1:0:0:0:
98,151,1692,5,0,0:0:0:0:
98,151,2165,1,0,0:0:0:0:
97,150,2637,6,0,B|116:104|116:104|105:54,1,100,4|0,1:0|0:0,0:0:0:0:
196,12,3110,2,0,B|241:31|241:31|291:20,1,100,10|0,0:0|0:0,0:0:0:0:
378,68,3582,2,0,L|371:176,1,100,10|0,0:0|0:0,0:0:0:0:
409,199,3936,2,0,P|457:187|503:204,1,100,10|2,0:0|0:0,0:0:0:0:
503,304,4409,1,4,1:0:0:0:
503,304,4527,6,0,P|455:315|409:298,1,100
322,247,4999,2,0,P|275:229|227:240,1,100,10|0,0:0|0:0,0:0:0:0:
156,311,5472,2,0,L|75:376,1,100,10|0,0:0|0:0,0:0:0:0:
32,352,5826,2,0,L|12:250,1,100,10|0,0:0|0:0,0:0:0:0:
87,186,6299,1,4,1:0:0:0:
87,186,6417,6,0,B|106:138|106:138|100:89,1,100,0|0,0:0|0:0,0:0:0:0:
43,7,6889,1,2,0:0:0:0:
141,21,7125,2,0,L|234:36,1,50,0|0,0:0|0:0,0:0:0:0:
238,42,7362,2,0,B|292:27|292:27|334:32|334:32|388:18,2,150,2|10|10,0:0|0:0|0:0,0:0:0:0:
220,140,8307,6,0,B|165:125|165:125|123:130|123:130|69:116,2,150,4|10|10,1:0|0:0|0:0,0:0:0:0:
283,217,9251,2,0,P|332:212|367:177,1,100,10|0,0:0|0:0,0:0:0:0:
415,192,9606,2,0,P|419:241|453:277,1,100,10|0,0:0|0:0,0:0:0:0:
497,300,9960,1,10,0:0:0:0:
507,200,10196,6,0,L|518:40,2,150,4|10|10,1:0|0:0|0:0,0:0:0:0:
406,191,11141,2,0,L|395:351,2,150,2|10|10,0:0|0:0|0:0,0:0:0:0:
328,112,12086,6,0,B|272:96|280:128|225:112,1,104.999996795654,4|0,1:0|0:0,0:0:0:0:
151,127,12559,6,0,L|224:112,1,75,2|0,0:0|0:0,0:0:0:0:
301,184,13031,6,0,L|292:324,2,120,2|8|8,0:0|0:0|0:0,0:0:0:0:
150,126,13976,6,0,P|56:111|-1:187,1,200,4|10,1:0|0:0,0:0:0:0:
35,280,14685,2,0,P|129:295|187:219,1,200,10|0,0:0|0:0,0:0:0:0:
246,138,15393,1,10,0:0:0:0:
341,193,15629,1,0,0:0:0:0:
341,193,15748,1,0,0:0:0:0:
341,193,15866,6,0,B|333:308|333:308|366:285,2,150,4|10|10,1:0|0:0|0:0,0:0:0:0:
414,125,16810,1,0,0:0:0:0:
494,65,17047,1,0,0:0:0:0:
410,9,17283,2,0,L|311:14,1,100,10|0,0:0|0:0,0:0:0:0:
231,75,17755,6,0,L|74:45,1,150,4|0,1:0|0:0,0:0:0:0:
34,38,18228,1,2,0:0:0:0:
67,132,18464,2,0,P|88:228|56:321,1,200,10|0,0:0|0:0,0:0:0:0:
155,307,19173,1,2,0:0:0:0:
155,307,19409,2,0,B|227:313|227:313|276:339|276:339|349:347,1,200,4|0,1:0|0:0,0:0:0:0:
455,348,20118,5,2,0:0:0:0:
400,264,20354,1,10,0:0:0:0:
400,264,20472,1,0,0:0:0:0:
400,264,20590,2,0,L|396:196,2,50,0|0|0,0:0|0:0|0:0,0:0:0:0:
462,135,21062,1,10,0:0:0:0:
316,141,21299,1,8,0:0:0:0:
403,347,21535,5,4,1:0:0:0:
316,296,21771,1,0,0:0:0:0:
238,359,22007,2,0,L|129:367,1,100,10|0,0:0|0:0,0:0:0:0:
87,363,22362,2,0,P|63:319|65:269,1,100,10|0,0:0|0:0,0:0:0:0:
83,224,22716,1,10,0:0:0:0:
128,135,22952,2,0,L|25:142,1,100,10|2,0:0|0:0,0:0:0:0:
187,203,23425,6,0,P|216:136|187:68,1,150,10|10,0:0|0:0,0:0:0:0:
153,32,23897,1,0,0:0:0:0:
248,4,24133,2,0,B|307:2|335:44|333:47|331:51|360:92|419:91,1,200,10|0,0:0|0:0,0:0:0:0:
508,45,24842,1,10,0:0:0:0:
504,144,25078,1,0,0:0:0:0:
419,91,25314,5,4,1:0:0:0:
411,191,25551,1,0,0:0:0:0:
496,243,25787,2,0,L|489:350,1,100,10|0,0:0|0:0,0:0:0:0:
445,367,26141,2,0,P|398:351|348:357,1,100,10|0,0:0|0:0,0:0:0:0:
300,370,26496,1,10,0:0:0:0:
234,294,26732,1,0,0:0:0:0:
159,360,26968,1,2,0:0:0:0:
87,290,27204,6,0,P|65:216|103:149,1,150,10|0,0:0|0:0,0:0:0:0:
137,125,27677,1,2,0:0:0:0:
99,32,27913,2,0,L|-5:40,1,100,10|0,0:0|0:0,0:0:0:0:
137,125,28385,2,0,L|241:117,1,100,2|10,0:0|0:0,0:0:0:0:
305,26,28858,1,0,0:0:0:0:
305,26,28976,1,0,0:0:0:0:
305,26,29094,5,4,1:0:0:0:
376,95,29330,1,0,0:0:0:0:
458,38,29566,2,0,L|502:129,1,100,10|0,0:0|0:0,0:0:0:0:
461,159,29921,2,0,L|417:250,1,100,10|0,0:0|0:0,0:0:0:0:
442,292,30275,1,10,0:0:0:0:
364,354,30511,1,10,0:0:0:0:
296,280,30748,1,0,0:0:0:0:
396,163,30984,6,0,B|508:170|508:170|475:188,2,150,10|10|10,0:0|0:0|0:0,0:0:0:0:
295,157,31929,1,0,0:0:0:0:
235,237,32165,1,0,0:0:0:0:
180,153,32401,2,0,P|127:136|84:149,1,100,10|0,0:0|0:0,0:0:0:0:
88,281,32873,6,0,P|151:276|129:216,2,150,4|10|10,1:0|0:0|0:0,0:0:0:0:
85,147,33818,2,0,P|21:151|43:211,2,150,10|10|10,0:0|0:0|0:0,0:0:0:0:
121,65,34763,6,0,L|126:214,1,150,0|0,1:0|0:0,0:0:0:0:
133,264,35236,2,0,P|170:295|219:298,1,100,2|0,0:0|0:0,0:0:0:0:
346,242,35708,2,0,P|308:210|259:207,1,100,10|0,0:0|0:0,0:0:0:0:
314,333,36181,2,0,P|351:364|400:367,1,100,10|0,0:0|0:0,0:0:0:0:
401,182,36653,6,0,B|395:143|395:143|345:241,2,150,4|10|10,1:0|0:0|0:0,0:0:0:0:
412,281,37598,1,8,0:0:0:0:
503,240,37834,1,0,0:0:0:0:
503,240,37952,1,0,0:0:0:0:
481,194,38070,2,0,L|487:143,1,50,10|0,0:0|0:0,0:0:0:0:
459,101,38307,2,0,L|465:50,1,50,10|0,0:0|0:0,0:0:0:0:
437,9,38543,5,4,1:0:0:0:
282,203,38897,1,4,1:0:0:0:
73,72,39251,1,4,1:0:0:0:
229,29,39488,6,0,B|237:75|237:75|249:87|249:87|256:122,1,100,10|10,0:0|0:0,0:0:0:0:
256,122,40433,6,0,P|202:133|152:116,1,110.000003356934,4|0,1:0|0:0,0:0:0:0:
63,181,40905,2,0,P|74:235|57:285,1,110.000003356934,10|0,0:0|0:0,0:0:0:0:
128,369,41377,2,0,L|250:367,1,110.000003356934,10|0,0:0|0:0,0:0:0:0:
284,337,41732,2,0,L|406:335,1,110.000003356934,10|2,0:0|0:0,0:0:0:0:
453,243,42204,1,4,1:0:0:0:
453,243,42322,6,0,B|439:189|439:189|450:136,1,110.000003356934,0|0,0:0|0:0,0:0:0:0:
464,26,42795,2,0,B|410:40|410:40|357:29,1,110.000003356934,10|0,0:0|0:0,0:0:0:0:
262,85,43267,2,0,L|280:201,1,110.000003356934,10|0,0:0|0:0,0:0:0:0:
259,245,43622,2,0,L|277:361,1,110.000003356934,10|2,0:0|0:0,0:0:0:0:
166,358,44094,1,4,1:0:0:0:
166,358,44212,6,0,P|129:332|64:324,1,110.000003356934,0|0,0:0|0:0,0:0:0:0:
128,233,44685,2,0,P|154:196|162:131,1,110.000003356934,10|0,0:0|0:0,0:0:0:0:
235,50,45157,2,0,B|282:37|312:66|311:68|310:72|342:100|389:88,2,165.000005035401,10|10|10,0:0|0:0|0:0,0:0:0:0:
162,132,46102,6,0,B|114:144|84:115|85:113|86:109|54:81|7:93,2,165.000005035401,4|10|10,1:0|0:0|0:0,0:0:0:0:
260,181,47047,2,0,P|269:229|240:281,1,110.000003356934,10|0,0:0|0:0,0:0:0:0:
280,319,47402,2,0,P|328:308|379:338,1,110.000003356934,10|0,0:0|0:0,0:0:0:0:
421,370,47756,1,10,0:0:0:0:
479,284,47992,6,0,B|495:226|495:226|489:180|489:180|504:122,2,165.000005035401,4|10|10,1:0|0:0|0:0,0:0:0:0:
396,211,48936,2,0,B|379:268|379:268|385:314|385:314|370:372,2,165.000005035401,2|10|10,0:0|0:0|0:0,0:0:0:0:
349,67,49881,6,0,P|252:21|165:84,1,225.000008583069,4|0,1:0|0:0,0:0:0:0:
182,119,50354,6,0,B|189:152|212:184|212:184|177:213|171:237,1,140,2|10,0:0|0:0,0:0:0:0:
156,266,51299,1,10,0:0:0:0:
256,350,51535,1,2,0:0:0:0:
32,277,51771,6,0,L|25:125,1,150,4|0,1:0|0:0,0:0:0:0:
22,76,52244,1,2,0:0:0:0:
104,19,52480,2,0,B|163:17|191:59|189:62|187:66|216:107|275:106,1,200,10|0,0:0|0:0,0:0:0:0:
355,46,53188,2,0,L|464:46,1,100,2|0,0:0|0:0,0:0:0:0:
509,178,53661,6,0,B|524:258|524:258|482:312,1,150,4|10,1:0|0:0,0:0:0:0:
389,273,54251,1,2,0:0:0:0:
321,347,54488,2,0,L|221:339,1,100,2|8,0:0|0:0,0:0:0:0:
171,335,54842,1,2,0:0:0:0:
90,274,55078,2,0,P|127:242|176:233,1,100,10|0,0:0|0:0,0:0:0:0:
350,253,55551,6,0,B|368:182|368:182|359:126|359:126|376:56,1,200,4|2,1:0|0:0,0:0:0:0:
277,45,56259,2,0,B|258:115|258:115|267:171|267:171|250:241,1,200,10|0,0:0|0:0,0:0:0:0:
177,309,56968,1,2,0:0:0:0:
138,216,57204,1,0,0:0:0:0:
302,182,57440,5,4,1:0:0:0:
336,345,57677,1,0,0:0:0:0:
172,379,57913,1,4,1:0:0:0:
138,216,58149,1,4,1:0:0:0:
256,192,58267,12,0,62401,0:0:0:0:
