osu file format v14

[General]
AudioFilename: audio.mp3
AudioLeadIn: 0
PreviewTime: 748
Countdown: 0
SampleSet: Soft
StackLeniency: 0.7
Mode: 0
LetterboxInBreaks: 0
WidescreenStoryboard: 0

[Editor]
Bookmarks: 2637,21535,32873,39488,51771,62401
DistanceSpacing: 1.3
BeatDivisor: 4
GridSize: 8
TimelineZoom: 1

[Metadata]
Title:Kaze no Legendz (TV Size)
TitleUnicode:風のレジェンズ (TV Size)
Artist:KYOKO
ArtistUnicode:KYOKO
Creator:CookieBite
Version:Wind
Source:レジェンズ甦る竜王伝説
Tags:legends tale of the dragon kings yomigaeru ryuuou densetsu studio gallop fuji bandai 大地丙太郎 太田美知彦 leo16834 ezek exected
BeatmapID:1813913
BeatmapSetID:867740

[Difficulty]
HPDrainRate:6
CircleSize:4.5
OverallDifficulty:8
ApproachRate:8.5
SliderMultiplier:3
SliderTickRate:1

[Events]
//Background and Video events
Video,2650,"op.mp4"
0,0,"bg.jpg",0,0
//Break Periods
//Storyboard Layer 0 (Background)
//Storyboard Layer 1 (Fail)
//Storyboard Layer 2 (Pass)
//Storyboard Layer 3 (Foreground)
//Storyboard Sound Samples

[TimingPoints]
748,472.44094488189,4,2,1,80,1,0
1456,-200,4,2,1,80,0,0
1574,-200,4,2,1,20,0,0
2401,-200,4,2,1,5,0,0
2637,-100,4,2,1,70,0,0
9251,-83.3333333333333,4,2,1,70,0,0
10196,-100,4,2,1,70,0,0
12086,-142.857142857143,4,2,1,70,0,0
12440,-142.857142857143,4,2,1,5,0,0
12559,-333.333333333333,4,2,2,50,0,0
12677,-333.333333333333,4,2,2,30,0,0
13385,-333.333333333333,4,2,2,5,0,0
13503,-125,4,2,1,70,0,0
13976,-100,4,2,1,70,0,0
21535,-125,4,2,1,50,0,0
32873,-111.111111111111,4,2,1,60,0,0
38070,-333.333333333331,4,2,1,40,0,0
38149,-333.333333333331,4,2,1,45,0,0
38228,-333.333333333331,4,2,1,50,0,0
38307,-333.333333333331,4,2,1,55,0,0
38385,-333.333333333331,4,2,1,60,0,0
38543,-100,4,2,1,80,0,0
40433,-100,4,2,1,70,0,1
47047,-83.3333333333333,4,2,1,70,0,1
47992,-100,4,2,1,70,0,1
49881,-142.857142857143,4,2,1,60,0,1
50236,-142.857142857143,4,2,1,5,0,1
50354,-500,4,2,2,50,0,0
50472,-500,4,2,2,20,0,0
51299,-500,4,2,1,50,0,0
51771,-111.111111111111,4,2,1,60,0,0
59330,-111.111111111111,4,2,1,55,0,0
59803,-111.111111111111,4,2,1,50,0,0
60275,-111.111111111111,4,2,1,40,0,0
60748,-111.111111111111,4,2,1,30,0,0
61220,-111.111111111111,4,2,1,20,0,0
61692,-111.111111111111,4,2,1,10,0,0
62401,-111.111111111111,4,2,1,5,0,0

[Colours]
Combo1 : 60,87,240
Combo2 : 124,171,241
Combo3 : 243,95,99
Combo4 : 234,205,130

[HitObjects]
254,276,748,6,0,P|318:270|300:332,1,150,4|0,1:0|0:0,0:0:0:0:
237,140,1102,2,0,P|167:146|202:197,1,150,4|0,1:0|0:0,0:0:0:0:
300,36,1456,6,0,B|260:196|332:172|300:332,1,300,4|0,1:0|0:0,0:0:0:0:
300,36,2637,6,0,P|202:88|93:72,1,225,4|0,1:0|0:0,0:0:0:0:
432,85,3110,2,0,P|373:40|300:35,1,150,10|0,0:0|0:0,0:0:0:0:
410,195,3582,6,0,B|450:203|450:187|484:193,1,75,10|0,0:0|0:0,0:0:0:0:
302,175,3818,1,0,0:0:0:0:
302,175,3936,2,0,P|265:181|235:203,1,75,10|0,0:0|0:0,0:0:0:0:
165,271,4173,2,0,P|128:264|98:242,1,75,10|0,0:0|0:0,0:0:0:0:
224,85,4409,6,0,P|370:93|502:12,1,300,4|0,1:0|0:0,0:0:0:0:
86,46,4999,2,0,P|160:47|224:85,1,150,10|0,0:0|0:0,0:0:0:0:
102,195,5472,6,0,B|62:203|62:187|28:193,1,75,10|0,0:0|0:0,0:0:0:0:
200,156,5708,1,0,0:0:0:0:
200,156,5826,2,0,P|237:162|267:184,1,75,10|0,0:0|0:0,0:0:0:0:
330,268,6063,2,0,P|367:261|397:239,1,75,10|0,0:0|0:0,0:0:0:0:
446,16,6299,6,0,P|489:157|453:301,1,300,4|0,1:0|0:0,0:0:0:0:
314,70,6889,2,0,P|387:61|446:16,1,150,2|0,0:0|0:0,0:0:0:0:
29,8,7362,6,0,L|51:156,1,150,2|0,0:0|0:0,0:0:0:0:
21,257,7716,1,0,0:0:0:0:
21,257,7834,2,0,L|170:235,1,150,10|0,0:0|0:0,0:0:0:0:
256,71,8307,6,0,B|216:183|296:183|257:290,2,225,4|10|10,1:0|0:0|0:0,0:0:0:0:
384,183,9251,6,0,B|256:137|256:233|121:185,2,269.999991760254,10|10|10,0:0|0:0|0:0,0:0:0:0:
258,42,10196,6,0,L|407:28,1,150,4|0,1:0|0:0,0:0:0:0:
121,185,10669,1,10,0:0:0:0:
273,345,10905,1,0,0:0:0:0:
309,283,11023,1,2,0:0:0:0:
264,229,11141,1,0,0:0:0:0:
198,256,11259,1,2,0:0:0:0:
202,327,11377,1,0,0:0:0:0:
35,105,11614,1,10,0:0:0:0:
53,312,11850,1,0,0:0:0:0:
431,88,12086,6,0,P|351:89|275:110,1,157.499995193482,4|0,1:0|0:0,0:0:0:0:
304,207,12559,6,0,P|225:200|155:167,1,157.499995193482,2|0,0:0|0:0,0:0:0:0:
277,109,13504,5,10,0:0:0:0:
279,123,13622,1,10,0:0:0:0:
282,137,13740,1,10,0:0:0:0:
512,15,13976,6,0,P|437:14|371:49,1,150,4|0,1:0|0:0,0:0:0:0:
352,155,14330,1,10,0:0:0:0:
352,155,14448,2,0,P|314:154|282:137,1,75
202,31,14685,2,0,P|92:36|23:120,1,225,10|0,0:0|0:0,0:0:0:0:
48,258,15157,1,0,0:0:0:0:
228,124,15393,1,10,0:0:0:0:
24,121,15629,5,0,0:0:0:0:
16,194,15747,1,0,0:0:0:0:
48,258,15866,2,0,P|121:262|180:218,1,150,4|0,1:0|0:0,0:0:0:0:
250,140,16220,1,10,0:0:0:0:
250,140,16338,2,0,P|286:142|319:164,1,75
414,86,16574,2,0,P|322:26|211:28,1,225,10|0,0:0|0:0,0:0:0:0:
106,96,17047,1,0,0:0:0:0:
360,175,17283,2,0,B|248:127|256:231|145:178,1,225,10|0,0:0|0:0,0:0:0:0:
307,259,17755,5,4,1:0:0:0:
207,77,17992,1,0,0:0:0:0:
207,77,18110,1,0,0:0:0:0:
207,77,18228,1,2,0:0:0:0:
158,329,18464,2,0,L|145:179,1,150,10|0,0:0|0:0,0:0:0:0:
310,38,18936,1,0,0:0:0:0:
249,229,19173,5,2,0:0:0:0:
119,19,19409,1,10,0:0:0:0:
119,19,19527,1,0,0:0:0:0:
119,19,19645,2,0,P|177:63|250:61,1,150,4|0,1:0|0:0,0:0:0:0:
343,10,19999,1,0,0:0:0:0:
343,10,20118,1,2,0:0:0:0:
132,93,20354,5,10,0:0:0:0:
132,93,20472,2,0,B|114:59|114:59|119:22,1,75
329,80,20708,1,10,0:0:0:0:
329,80,20826,2,0,B|347:46|347:46|342:9,1,75
252,227,21062,6,0,L|238:153,1,75,10|0,0:0|0:0,0:0:0:0:
245,341,21299,1,10,0:0:0:0:
298,290,21417,1,0,0:0:0:0:
316,361,21535,5,4,1:0:0:0:
143,337,21771,1,0,0:0:0:0:
416,267,22007,2,0,L|299:290,1,120,10|0,0:0|0:0,0:0:0:0:
441,384,22362,2,0,L|475:207,1,180,10|10,0:0|0:0,0:0:0:0:
182,267,22952,2,0,L|299:290,1,120,10|2,0:0|0:0,0:0:0:0:
160,193,23425,6,0,P|105:256|142:333,1,180,10|10,0:0|0:0,0:0:0:0:
182,267,23897,1,0,0:0:0:0:
21,217,24133,1,10,0:0:0:0:
59,374,24370,2,0,L|0:381,2,60,0|0|2,0:0|0:0|0:0,0:0:0:0:
160,193,24842,2,0,L|149:312,1,120,10|0,0:0|0:0,0:0:0:0:
348,353,25314,5,4,1:0:0:0:
279,214,25551,1,0,0:0:0:0:
147,308,25787,2,0,P|87:306|36:276,1,120,10|0,0:0|0:0,0:0:0:0:
179,378,26141,2,0,P|260:341|348:353,1,180,10|10,0:0|0:0,0:0:0:0:
36,276,26732,2,0,P|7:223|8:164,1,120,10|0,0:0|0:0,0:0:0:0:
157,268,27204,6,0,P|71:262|30:337,1,180,10|0,0:0|0:0,0:0:0:0:
109,332,27677,1,2,0:0:0:0:
224,238,27913,2,0,P|175:217|157:268,1,120,10|0,0:0|0:0,0:0:0:0:
289,371,28385,2,0,P|272:320|222:340,1,120,2|10,0:0|0:0,0:0:0:0:
337,233,28858,1,0,0:0:0:0:
161,384,29094,5,4,1:0:0:0:
44,280,29330,1,0,0:0:0:0:
269,237,29566,2,0,P|210:237|163:272,1,120,10|0,0:0|0:0,0:0:0:0:
329,323,29921,2,0,P|371:246|343:163,1,180,10|10,0:0|0:0,0:0:0:0:
163,272,30511,2,0,P|143:327|160:383,1,120,10|0,0:0|0:0,0:0:0:0:
343,163,30984,6,0,B|247:203|263:123|170:159,1,180,10|10,0:0|0:0,0:0:0:0:
212,224,31456,1,0,0:0:0:0:
108,337,31692,2,0,P|167:336|216:368,1,120,10|0,0:0|0:0,0:0:0:0:
31,384,32165,1,0,0:0:0:0:
0,174,32401,5,10,0:0:0:0:
108,337,32637,1,0,0:0:0:0:
256,144,32873,6,0,L|256:346,2,202.499993820191,4|10|10,1:0|0:0|0:0,0:0:0:0:
156,248,33818,6,0,B|256:296|256:208|350:245,2,202.499993820191,10|10|10,0:0|0:0|0:0,0:0:0:0:
213,181,34645,1,0,0:0:0:0:
213,181,34763,1,0,1:0:0:0:
94,369,34999,1,0,0:0:0:0:
94,369,35118,1,0,0:0:0:0:
93,368,35236,6,0,P|66:307|59:240,1,134.999995880127,10|0,0:0|0:0,0:0:0:0:
219,140,35708,2,0,L|286:145,2,67.4999979400635,0|10|0,0:0|0:0|0:0,0:0:0:0:
60,241,36181,1,10,0:0:0:0:
204,362,36417,1,0,0:0:0:0:
256,67,36653,6,0,B|219:161|307:161|259:261,2,202.499993820191,4|10|10,1:0|0:0|0:0,0:0:0:0:
425,152,37598,1,8,0:0:0:0:
259,262,37834,1,0,0:0:0:0:
256,24,38070,6,0,L|256:9,4,14.9999995422363,10|0|0|0|0,0:0|0:0|0:0|0:0|0:0,0:0:0:0:
259,262,38543,6,0,P|321:269|292:325,1,150,4|0,1:0|0:0,0:0:0:0:
255,135,38897,2,0,P|191:127|207:190,1,150,4|0,1:0|0:0,0:0:0:0:
256,24,39251,1,4,1:0:0:0:
12,120,39488,5,10,0:0:0:0:
205,189,39724,1,8,0:0:0:0:
113,359,39960,1,10,0:0:0:0:
45,332,40078,1,8,0:0:0:0:
6,269,40196,2,0,P|4:228|14:196,1,75,8|0,0:0|0:0,0:0:0:0:
12,120,40433,6,0,B|47:186|47:186|193:217,1,225,4|0,1:0|0:0,0:0:0:0:
108,5,40905,2,0,L|11:120,1,150,10|0,0:0|0:0,0:0:0:0:
257,81,41377,2,0,B|250:6,1,75,10|0,0:0|0:0,0:0:0:0:
369,128,41614,1,0,0:0:0:0:
369,128,41732,2,0,L|362:202,1,75,10|0,0:0|0:0,0:0:0:0:
282,300,41968,2,0,L|288:374,1,75,2|0,0:0|0:0,0:0:0:0:
150,109,42204,6,0,B|208:170|208:170|190:384,1,300,4|0,1:0|0:0,0:0:0:0:
0,97,42795,2,0,L|150:109,1,150,10|0,0:0|0:0,0:0:0:0:
7,325,43267,2,0,L|1:251,1,75,10|0,0:0|0:0,0:0:0:0:
115,378,43503,1,0,0:0:0:0:
115,378,43622,2,0,L|189:384,1,75,10|0,0:0|0:0,0:0:0:0:
300,312,43858,2,0,L|374:305,1,75,2|0,0:0|0:0,0:0:0:0:
154,190,44094,6,0,B|210:248|210:248|427:227,1,300,4|0,1:0|0:0,0:0:0:0:
194,45,44685,2,0,L|154:190,1,150,2|0,0:0|0:0,0:0:0:0:
339,384,45157,1,0,0:0:0:0:
346,309,45275,1,10,0:0:0:0:
353,234,45393,1,0,0:0:0:0:
182,42,45629,1,10,0:0:0:0:
256,240,45866,1,0,0:0:0:0:
293,22,46102,6,0,B|389:14|389:14|413:30|413:30|512:22,2,225,4|10|10,1:0|0:0|0:0,0:0:0:0:
256,189,47047,6,0,B|105:134|142:266|0:214,2,269.999991760254,10|10|10,0:0|0:0|0:0,0:0:0:0:
419,333,47992,6,0,P|323:295|265:382,1,225,4|10,1:0|0:0,0:0:0:0:
348,375,48464,1,0,0:0:0:0:
256,189,48700,1,10,0:0:0:0:
114,370,48936,1,2,0:0:0:0:
48,348,49054,1,10,0:0:0:0:
48,278,49172,1,0,0:0:0:0:
114,257,49290,1,0,0:0:0:0:
155,314,49408,1,10,0:0:0:0:
10,145,49645,1,10,0:0:0:0:
256,32,49881,6,0,L|256:189,1,157.499995193482,4|0,1:0|0:0,0:0:0:0:
256,292,50354,6,0,B|240:228|272:252|256:189,1,105,2|0,0:0|0:0,0:0:0:0:
256,32,51299,5,10,0:0:0:0:
399,102,51535,1,2,0:0:0:0:
105,145,51771,6,0,P|195:115|256:188,1,202.499993820191,4|0,1:0|0:0,0:0:0:0:
173,197,52244,1,2,0:0:0:0:
393,53,52480,6,0,B|324:14|324:14|347:209,1,269.999991760254,10|0,0:0|0:0,0:0:0:0:
487,307,53188,2,0,P|489:248|433:264,1,134.999995880127,2|0,0:0|0:0,0:0:0:0:
286,360,53661,5,4,1:0:0:0:
286,360,53779,2,0,L|353:365,1,67.4999979400635,0|0,0:0|0:0,0:0:0:0:
243,281,54015,2,0,B|208:278|208:278|183:299,1,67.4999979400635,10|0,0:0|0:0,0:0:0:0:
112,362,54251,2,0,B|77:364|77:364|52:343,1,67.4999979400635,2|0,0:0|0:0,0:0:0:0:
106,201,54488,2,0,P|112:259|53:256,1,134.999995880127,2|8,0:0|0:0,0:0:0:0:
27,165,54842,1,2,0:0:0:0:
183,298,55078,1,10,0:0:0:0:
302,101,55314,1,0,0:0:0:0:
454,306,55551,6,0,P|363:281|311:369,1,202.499993820191,4|0,1:0|0:0,0:0:0:0:
392,358,56023,1,2,0:0:0:0:
162,229,56259,6,0,B|231:190|231:190|208:385,1,269.999991760254,10|0,0:0|0:0,0:0:0:0:
40,328,56968,2,0,P|90:294|106:348,1,134.999995880127,2|0,0:0|0:0,0:0:0:0:
81,116,57440,5,4,1:0:0:0:
293,157,57677,1,0,0:0:0:0:
252,369,57913,1,4,1:0:0:0:
40,328,58149,1,4,1:0:0:0:
256,192,58267,12,0,62401,0:0:0:0:
