osu file format v14

[General]
AudioFilename: audio.mp3
AudioLeadIn: 0
PreviewTime: 748
Countdown: 0
SampleSet: Soft
StackLeniency: 0.7
Mode: 0
LetterboxInBreaks: 0
WidescreenStoryboard: 1

[Editor]
Bookmarks: 2637,21535,32873,39488,51771,62401
DistanceSpacing: 1
BeatDivisor: 4
GridSize: 8
TimelineZoom: 1

[Metadata]
Title:Kaze no Legendz (TV Size)
TitleUnicode:風のレジェンズ (TV Size)
Artist:KYOKO
ArtistUnicode:KYOKO
Creator:CookieBite
Version:Easy
Source:レジェンズ甦る竜王伝説
Tags:legends tale of the dragon kings yomigaeru ryuuou densetsu studio gallop fuji bandai 大地丙太郎 太田美知彦 leo16834 ezek exected
BeatmapID:1817451
BeatmapSetID:867740

[Difficulty]
HPDrainRate:3
CircleSize:3
OverallDifficulty:2
ApproachRate:3
SliderMultiplier:1
SliderTickRate:1

[Events]
//Background and Video events
Video,2650,"op.mp4"
0,0,"bg.jpg",0,0
//Break Periods
//Storyboard Layer 0 (Background)
//Storyboard Layer 1 (Fail)
//Storyboard Layer 2 (Pass)
//Storyboard Layer 3 (Foreground)
//Storyboard Sound Samples

[TimingPoints]
748,472.44094488189,4,2,1,80,1,0
2637,-100,4,2,1,70,0,0
4881,-100,4,2,1,40,0,0
4999,-100,4,2,1,70,0,0
6771,-100,4,2,1,40,0,0
6889,-100,4,2,1,70,0,0
8779,-100,4,2,1,40,0,0
8897,-100,4,2,1,70,0,0
9724,-100,4,2,1,40,0,0
9842,-100,4,2,1,70,0,0
12559,-100,4,2,2,50,0,0
13503,-100,4,2,2,60,0,0
13976,-100,4,2,1,70,0,0
21535,-100,4,2,1,50,0,0
32873,-100,4,2,1,60,0,0
38070,-100,4,2,1,65,0,0
38543,-100,4,2,1,80,0,0
40433,-100,4,2,1,70,0,1
42677,-100,4,2,1,40,0,1
42795,-100,4,2,1,70,0,1
44566,-100,4,2,1,40,0,1
44685,-100,4,2,1,70,0,1
46574,-100,4,2,1,40,0,1
46692,-100,4,2,1,70,0,1
47519,-100,4,2,1,40,0,1
47637,-100,4,2,1,70,0,1
49881,-100,4,2,2,60,0,1
50354,-100,4,2,2,50,0,0
51299,-100,4,2,1,55,0,0
51771,-100,4,2,1,60,0,0
59330,-100,4,2,1,55,0,0
59803,-100,4,2,1,50,0,0
60275,-100,4,2,1,40,0,0
60748,-100,4,2,1,30,0,0
61220,-100,4,2,1,20,0,0
61692,-100,4,2,1,10,0,0
62401,-100,4,2,1,5,0,0

[Colours]
Combo1 : 60,87,240
Combo2 : 124,171,241
Combo3 : 243,95,99
Combo4 : 234,205,130

[HitObjects]
406,150,748,6,0,B|340:110|340:110|310:179,1,150,4|4,1:0|1:0,0:0:0:0:
62,194,2637,6,0,P|110:198|153:172,1,100,4|10,1:0|0:0,0:0:0:0:
211,89,3582,2,0,P|272:86|322:121,1,125,10|2,0:0|0:0,0:0:0:0:
357,159,4409,2,0,P|418:161|468:126,1,125,4|10,1:0|0:0,0:0:0:0:
391,61,5472,6,0,L|266:50,1,125,10|0,0:0|0:0,0:0:0:0:
230,15,6299,2,0,L|105:25,1,125,4|2,1:0|0:0,0:0:0:0:
58,112,7362,2,0,P|94:124|131:121,2,75,10|10|10,0:0|0:0|0:0,0:0:0:0:
19,79,8307,2,0,L|33:228,1,150,4|10,1:0|0:0,0:0:0:0:
82,221,9251,2,0,L|96:370,1,150,10|10,0:0|0:0,0:0:0:0:
145,377,10196,6,0,P|194:370|235:343,1,100,4|2,1:0|0:0,0:0:0:0:
297,263,11141,2,0,P|387:230|466:288,1,200,2|4,0:0|1:0,0:0:0:0:
373,329,12559,1,2,0:0:0:0:
222,196,13503,1,8,0:0:0:0:
272,109,13976,6,0,P|199:98|139:140,2,150,4|10|10,1:0|0:0|0:0,0:0:0:0:
319,196,15866,2,0,P|378:238|451:227,2,150,4|10|10,1:0|0:0|0:0,0:0:0:0:
398,151,17755,6,0,L|389:51,1,100,4|10,1:0|0:0,0:0:0:0:
432,26,18464,2,0,L|282:12,1,150,10|10,0:0|0:0,0:0:0:0:
295,111,19645,2,0,L|175:121,1,100,4|10,1:0|0:0,0:0:0:0:
170,163,20354,2,0,B|94:156|94:156|59:88,1,150,10|10,0:0|0:0,0:0:0:0:
3,172,21535,6,0,L|20:371,1,200,4|0,1:0|0:0,0:0:0:0:
110,328,22952,1,10,0:0:0:0:
200,284,23425,2,0,L|299:292,1,100,0|10,0:0|0:0,0:0:0:0:
375,357,24370,1,0,0:0:0:0:
454,296,24842,1,10,0:0:0:0:
402,210,25314,6,0,L|202:192,1,200,4|0,1:0|0:0,0:0:0:0:
113,146,26732,1,10,0:0:0:0:
46,220,27204,2,0,L|54:320,1,100,0|10,0:0|0:0,0:0:0:0:
147,354,28149,1,0,0:0:0:0:
220,294,28622,1,10,0:0:0:0:
158,215,29094,6,0,P|252:199|317:270,1,200,4|0,1:0|0:0,0:0:0:0:
355,362,30511,1,10,0:0:0:0:
448,325,30984,2,0,L|440:226,1,100,0|10,0:0|0:0,0:0:0:0:
346,261,31929,2,0,L|247:253,1,100,0|10,0:0|0:0,0:0:0:0:
154,290,32873,5,4,1:0:0:0:
205,148,33582,1,10,0:0:0:0:
256,6,34291,1,8,0:0:0:0:
340,59,34763,2,0,L|340:359,1,300,0|10,1:0|0:0,0:0:0:0:
256,304,36653,6,0,L|256:153,2,150,4|10|10,1:0|0:0|0:0,0:0:0:0:
172,359,38543,5,4,1:0:0:0:
18,230,39488,2,0,P|2:184|18:137,1,100,10|10,0:0|0:0,0:0:0:0:
105,88,40433,6,0,L|204:96,1,100,4|10,1:0|0:0,0:0:0:0:
287,39,41377,2,0,B|349:54|349:54|371:110,1,125,10|2,0:0|0:0,0:0:0:0:
405,147,42204,2,0,B|343:162|343:162|320:218,1,125,4|10,1:0|0:0,0:0:0:0:
357,311,43267,6,0,B|307:350|307:350|247:333,1,125,10|2,0:0|0:0,0:0:0:0:
224,289,44094,2,0,B|174:250|174:250|114:266,1,125,4|10,1:0|0:0,0:0:0:0:
15,261,45157,6,0,P|20:297|38:331,2,75,10|10|10,0:0|0:0|0:0,0:0:0:0:
41,218,46102,2,0,L|190:205,1,150,4|10,1:0|0:0,0:0:0:0:
216,162,47047,2,0,L|365:174,1,150,10|10,0:0|0:0,0:0:0:0:
390,130,47992,6,0,L|398:229,1,100,4|10,1:0|0:0,0:0:0:0:
470,298,48936,2,0,P|395:274|305:354,1,200,10|4,0:0|1:0,0:0:0:0:
404,374,50354,1,2,0:0:0:0:
350,181,51299,1,10,0:0:0:0:
268,238,51771,6,0,P|193:233|132:170,2,150,4|10|2,1:0|0:0|0:0,0:0:0:0:
350,181,53661,2,0,P|405:132|478:127,2,150,4|0|10,1:0|0:0|0:0,0:0:0:0:
255,149,55551,6,0,L|255:-1,2,150,4|10|2,1:0|0:0|0:0,0:0:0:0:
256,248,57440,2,0,B|238:292|238:292|273:332|273:332|255:377,1,150,4|4,1:0|1:0,0:0:0:0:
256,192,58385,12,0,62401,0:0:0:0:
