osu file format v14

[General]
AudioFilename: audio.mp3
AudioLeadIn: 0
PreviewTime: 14566
Countdown: 1
SampleSet: Soft
StackLeniency: 0.7
Mode: 0
LetterboxInBreaks: 0
WidescreenStoryboard: 0

[Editor]
DistanceSpacing: 1.1
BeatDivisor: 4
GridSize: 4
TimelineZoom: 2.1

[Metadata]
Title:Ninjya Re Bang Bang
TitleUnicode:にんじゃりばんばん(au TVCM ソング)
Artist:KYARY PAMYU PAMYU
ArtistUnicode:きゃりーぱみゅぱみゅ
Creator:Kashima
Version:Extra
Source:
Tags:Kiriko Takemura Caroline Charonplop Full Control Tokyo
BeatmapID:1578816
BeatmapSetID:749567

[Difficulty]
HPDrainRate:5.5
CircleSize:4.3
OverallDifficulty:7.8
ApproachRate:8.8
SliderMultiplier:2
SliderTickRate:1

[Events]
//Background and Video events
0,0,"47917842.png",0,0
//Break Periods
2,60227,73245
//Storyboard Layer 0 (Background)
//Storyboard Layer 1 (Fail)
//Storyboard Layer 2 (Pass)
//Storyboard Layer 3 (Foreground)
//Storyboard Sound Samples

[TimingPoints]
951,461.538461538462,4,2,1,40,1,0
1874,-100,4,2,1,45,0,0
2797,-100,4,2,1,50,0,0
3720,-100,4,2,1,55,0,0
4643,-100,4,2,1,60,0,0
5566,-90.9090909090909,4,2,1,60,0,0
7412,-82.6446280991736,4,2,1,60,0,0
8335,-100,4,2,1,40,0,0
9258,-90.9090909090909,4,2,1,45,0,0
10181,-82.6446280991736,4,2,1,50,0,0
11104,-75.187969924812,4,2,1,55,0,0
12027,-75.187969924812,4,2,1,60,0,0
14566,-100,4,2,0,60,0,0
15720,-83.3333333333333,4,2,1,60,0,1
35681,-83.3333333333333,4,2,1,5,0,1
35797,-83.3333333333333,4,2,1,60,0,1
35912,-83.3333333333333,4,2,1,5,0,1
36027,-83.3333333333333,4,2,1,60,0,1
36143,-83.3333333333333,4,2,1,5,0,1
36258,-83.3333333333333,4,2,1,60,0,1
36374,-83.3333333333333,4,2,1,5,0,1
36489,-83.3333333333333,4,2,1,60,0,1
36604,-83.3333333333333,4,2,1,5,0,1
36720,-83.3333333333333,4,2,1,60,0,1
36835,-83.3333333333333,4,2,1,5,0,1
36951,-83.3333333333333,4,2,1,60,0,1
43066,-83.3333333333333,4,2,1,5,0,1
43181,-83.3333333333333,4,2,1,60,0,1
43297,-83.3333333333333,4,2,1,5,0,1
43412,-83.3333333333333,4,2,1,60,0,1
43527,-83.3333333333333,4,2,1,5,0,1
43643,-83.3333333333333,4,2,1,60,0,1
43758,-83.3333333333333,4,2,1,5,0,1
43874,-83.3333333333333,4,2,1,60,0,1
43989,-83.3333333333333,4,2,1,5,0,1
44104,-83.3333333333333,4,2,1,60,0,1
44220,-83.3333333333333,4,2,1,5,0,1
44335,-83.3333333333333,4,2,1,60,0,1
45258,-83.3333333333333,4,2,1,60,0,0
51951,-83.3333333333333,4,2,0,60,0,0
52643,-83.3333333333333,4,2,1,60,0,0
52874,-66.6666666666667,4,2,1,60,0,0
53104,-83.3333333333333,4,2,1,60,0,0
53335,-66.6666666666667,4,2,1,60,0,0
53566,-83.3333333333333,4,2,1,60,0,0
53797,-66.6666666666667,4,2,1,60,0,0
54027,-83.3333333333333,4,2,1,60,0,0
54258,-66.6666666666667,4,2,1,60,0,0
54489,-83.3333333333333,4,2,1,60,0,0
54720,-66.6666666666667,4,2,1,60,0,0
54951,-83.3333333333333,4,2,1,60,0,0
55181,-66.6666666666667,4,2,1,60,0,0
55412,-83.3333333333333,4,2,1,60,0,0
55643,-66.6666666666667,4,2,1,60,0,0
55874,-83.3333333333333,4,2,1,60,0,0
56104,-66.6666666666667,4,2,1,60,0,0
56335,-83.3333333333333,4,2,1,60,0,0
56566,-66.6666666666667,4,2,1,60,0,0
56797,-83.3333333333333,4,2,1,60,0,0
57027,-66.6666666666667,4,2,1,60,0,0
57258,-83.3333333333333,4,2,1,60,0,0
57489,-66.6666666666667,4,2,1,60,0,0
57720,-83.3333333333333,4,2,1,60,0,0
57951,-66.6666666666667,4,2,1,60,0,0
59912,-66.6666666666667,4,2,1,5,0,0
60027,-100,4,2,0,50,0,0
73874,-100,4,2,0,50,0,0
74335,-83.3333333333333,4,2,0,50,0,0
74797,-100,4,2,1,50,0,0
85874,-111.111111111111,4,2,1,50,0,0
88181,-100,4,2,1,50,0,0
89566,-83.3333333333333,4,2,1,60,0,1
94758,-83.3333333333333,4,2,1,5,0,1
94874,-83.3333333333333,4,2,1,60,0,1
94989,-83.3333333333333,4,2,1,5,0,1
95104,-83.3333333333333,4,2,1,60,0,1
95220,-83.3333333333333,4,2,1,5,0,1
95335,-83.3333333333333,4,2,1,60,0,1
95451,-83.3333333333333,4,2,1,5,0,1
95566,-83.3333333333333,4,2,1,60,0,1
95681,-83.3333333333333,4,2,1,5,0,1
95797,-83.3333333333333,4,2,1,60,0,1
95912,-83.3333333333333,4,2,1,5,0,1
96027,-83.3333333333333,4,2,1,60,0,1
102143,-83.3333333333333,4,2,1,5,0,1
102258,-83.3333333333333,4,2,1,60,0,1
102374,-83.3333333333333,4,2,1,5,0,1
102489,-83.3333333333333,4,2,1,60,0,1
102604,-83.3333333333333,4,2,1,5,0,1
102720,-83.3333333333333,4,2,1,60,0,1
102835,-83.3333333333333,4,2,1,5,0,1
102951,-83.3333333333333,4,2,1,60,0,1
103066,-83.3333333333333,4,2,1,5,0,1
103181,-83.3333333333333,4,2,1,60,0,1
103297,-83.3333333333333,4,2,1,5,0,1
103412,-83.3333333333333,4,2,1,60,0,1
109527,-83.3333333333333,4,2,1,5,0,1
109643,-83.3333333333333,4,2,1,60,0,1
109758,-83.3333333333333,4,2,1,5,0,1
109874,-83.3333333333333,4,2,1,60,0,1
109989,-83.3333333333333,4,2,1,5,0,1
110104,-83.3333333333333,4,2,1,60,0,1
110220,-83.3333333333333,4,2,1,5,0,1
110335,-83.3333333333333,4,2,1,60,0,1
110451,-83.3333333333333,4,2,1,5,0,1
110566,-83.3333333333333,4,2,1,60,0,1
110681,-83.3333333333333,4,2,1,5,0,1
110797,-83.3333333333333,4,2,1,60,0,1
114027,-55.5555555555556,4,2,1,60,0,1
114258,-83.3333333333333,4,2,1,60,0,1
115181,-55.5555555555556,4,2,1,60,0,1
115412,-83.3333333333333,4,2,1,60,0,1
116912,-83.3333333333333,4,2,1,5,0,1
117027,-83.3333333333333,4,2,1,60,0,1
117143,-83.3333333333333,4,2,1,5,0,1
117258,-83.3333333333333,4,2,1,60,0,1
117374,-83.3333333333333,4,2,1,5,0,1
117489,-83.3333333333333,4,2,1,60,0,1
117604,-83.3333333333333,4,2,1,5,0,1
117720,-83.3333333333333,4,2,1,60,0,1
117835,-83.3333333333333,4,2,1,5,0,1
117951,-83.3333333333333,4,2,1,60,0,1
118066,-83.3333333333333,4,2,1,5,0,1
118181,-83.3333333333333,4,2,1,60,0,1
119104,-83.3333333333333,4,2,1,60,0,0
125797,-83.3333333333333,4,2,0,60,0,0
126489,-66.6666666666667,4,2,1,60,0,0

[HitObjects]
211,143,951,5,0,0:0:0:0:
172,234,1181,1,0,0:0:0:0:
223,319,1412,1,8,0:0:0:0:
252,314,1527,1,0,0:0:0:0:
282,310,1643,2,0,L|344:295,1,50
172,234,1874,5,0,0:0:0:0:
129,133,2104,1,0,0:0:0:0:
185,40,2335,1,8,0:0:0:0:
218,45,2450,1,0,0:0:0:0:
251,50,2566,2,0,L|319:65,1,50
129,133,2797,5,0,0:0:0:0:
81,244,3027,1,0,0:0:0:0:
143,346,3258,1,8,0:0:0:0:
179,340,3373,1,0,0:0:0:0:
215,335,3489,2,0,L|290:317,1,50
81,244,3720,5,0,0:0:0:0:
28,121,3950,1,0,0:0:0:0:
96,9,4181,1,8,0:0:0:0:
136,16,4296,1,0,0:0:0:0:
175,21,4412,2,0,L|258:39,1,50
452,86,4643,6,0,L|303:126,1,150
372,257,5104,2,0,P|359:201|372:150,1,100
105,156,5566,6,0,L|268:200,1,165.000005035401
193,344,6027,2,0,P|207:282|193:226,1,110.000003356934
452,86,6489,6,0,B|363:110,1,55.0000016784668
360,110,6720,2,0,L|307:124,1,55.0000016784668
379,261,6951,2,0,P|366:205|390:136,1,110.000003356934
113,152,7412,6,0,B|201:175,1,60.4999982921601
213,178,7643,1,8,0:3:0:0:
266,191,7758,1,8,0:3:0:0:
193,344,7874,2,0,P|207:282|179:202,1,120.99999658432,8|0,0:3|0:3,0:3:0:0:
288,272,8335,6,0,L|368:277,1,50
412,274,8566,2,0,P|440:265|467:246,1,50
491,109,8797,2,0,L|484:159,1,50
460,128,9027,2,0,L|453:178,1,50
288,48,9258,6,0,L|343:43,1,55.0000016784668
415,36,9489,2,0,L|473:32,1,55.0000016784668
293,203,9720,2,0,L|308:115,1,55.0000016784668
345,181,9951,2,0,L|360:93,1,55.0000016784668
279,341,10181,6,0,P|222:346|173:323,1,60.4999982921601
149,321,10412,2,0,P|102:288|79:239,1,60.4999982921601
66,143,10643,2,0,L|76:238,1,60.4999982921601
155,163,10874,2,0,L|165:258,1,60.4999982921601
61,46,11104,6,0,L|170:35,1,66.4999972602845
199,31,11335,2,0,L|308:20,1,66.4999972602845
148,229,11566,2,0,L|159:124,1,66.4999972602845
246,207,11797,2,0,L|257:102,1,66.4999972602845
451,62,12027,6,0,P|378:55|349:162,1,199.499991780854
380,297,12489,2,0,P|423:237|345:158,1,199.499991780854
212,117,12951,2,0,P|243:183|350:155,1,199.499991780854
301,60,13412,6,0,L|283:129,1,66.4999972602845
458,171,13643,2,0,L|408:120,1,66.4999972602845
351,230,13874,1,0,0:0:0:0:
200,216,14566,5,0,0:0:0:0:
278,200,14797,1,0,0:0:0:0:
351,230,15027,2,0,L|337:276,2,33.3333333333333
428,210,15258,1,0,0:0:0:0:
502,239,15489,1,0,0:0:0:0:
457,100,15720,6,0,P|426:52|315:72,1,179.999994506836
364,234,16181,2,0,L|381:110,1,119.999996337891,8|0,0:0|0:0,0:0:0:0:
252,25,16643,1,0,0:0:0:0:
137,79,16874,1,0,0:0:0:0:
133,114,16989,1,0,0:0:0:0:
138,149,17104,2,0,L|154:206,1,59.9999981689454,8|0,0:0|0:0,0:0:0:0:
275,120,17335,2,0,L|204:114,1,59.9999981689454
206,271,17566,6,0,L|392:245,1,179.999994506836
396,130,18027,2,0,P|376:200|389:257,1,119.999996337891,8|0,0:0|0:0,0:0:0:0:
477,95,18489,1,0,0:0:0:0:
311,121,18720,2,0,L|231:132,1,59.9999981689454
215,134,18951,1,8,0:0:0:0:
378,238,19181,1,0,0:0:0:0:
477,95,19412,6,0,P|428:62|369:66,1,119.999996337891,8|0,0:0|0:0,0:0:0:0:
299,317,19874,2,0,P|351:291|377:238,1,119.999996337891,8|0,0:0|0:0,0:0:0:0:
186,26,20335,2,0,P|181:84|214:133,1,119.999996337891,8|0,0:0|0:0,0:0:0:0:
477,95,20797,5,8,0:0:0:0:
299,316,21027,1,0,0:0:0:0:
186,26,21258,1,0,0:0:0:0:
390,44,21489,5,0,0:0:0:0:
380,242,21719,1,8,0:0:0:0:
197,124,21950,1,0,0:0:0:0:
400,140,22181,5,0,0:0:0:0:
361,343,22412,2,0,L|296:362,1,59.9999981689454
264,368,22643,1,8,0:0:0:0:
154,276,22874,1,0,0:0:0:0:
197,124,23104,6,0,B|151:175|151:175|20:156,1,179.999994506836
155,65,23566,2,0,P|227:57|269:118,1,119.999996337891,8|0,0:0|0:0,0:0:0:0:
40,159,24027,1,0,0:0:0:0:
221,178,24258,1,0,0:0:0:0:
221,178,24374,1,0,0:0:0:0:
221,178,24489,2,0,L|185:98,1,59.9999981689454,8|0,0:0|0:0,0:0:0:0:
64,232,24720,2,0,L|28:312,1,59.9999981689454
184,241,24951,6,0,P|269:235|280:138,1,179.999994506836
184,241,25412,2,0,L|183:367,1,119.999996337891,8|0,0:0|0:0,0:0:0:0:
389,278,25874,1,0,0:0:0:0:
266,289,26104,1,0,0:0:0:0:
266,289,26220,1,0,0:0:0:0:
266,289,26335,2,0,L|318:331,1,59.9999981689454,8|0,0:0|0:0,0:0:0:0:
167,172,26566,2,0,P|148:134|110:111,1,59.9999981689454,2|0,0:0|0:0,0:0:0:0:
238,161,26797,6,0,P|259:108|237:37,1,119.999996337891,2|0,0:0|0:0,0:0:0:0:
286,213,27258,2,0,P|342:204|392:150,1,119.999996337891,10|0,0:0|0:0,0:0:0:0:
275,282,27720,2,0,P|310:326|382:343,1,119.999996337891,2|0,0:0|0:0,0:0:0:0:
475,244,28181,5,8,0:0:0:0:
374,270,28412,1,0,0:0:0:0:
359,16,28643,5,0,0:0:0:0:
331,116,28874,1,0,0:0:0:0:
111,25,29104,5,8,0:0:0:0:
183,99,29335,1,0,0:0:0:0:
40,223,29566,6,0,L|158:198,1,119.999996337891
225,242,29912,1,0,0:0:0:0:
140,315,30027,6,0,L|155:278,1,39.9999987792969,10|0,0:0|0:0,0:0:0:0:
270,75,30489,6,0,P|343:39|428:78,1,179.999994506836
477,249,30951,2,0,P|460:189|480:127,1,119.999996337891,8|0,0:0|0:0,0:0:0:0:
396,142,31412,1,0,0:0:0:0:
262,172,31643,1,0,0:0:0:0:
262,172,31758,1,0,0:0:0:0:
334,186,31874,2,0,L|366:255,1,59.9999981689454,8|0,0:0|0:0,0:0:0:0:
377,284,32104,2,0,L|409:353,1,59.9999981689454
297,321,32335,6,0,B|183:335|183:335|120:292,1,179.999994506836
377,284,32797,2,0,P|440:291|496:261,1,119.999996337891,8|0,0:0|0:0,0:0:0:0:
307,241,33258,1,0,0:0:0:0:
398,363,33489,1,0,0:0:0:0:
398,363,33604,1,0,0:0:0:0:
297,321,33720,2,0,L|229:329,1,59.9999981689454,8|0,0:0|0:0,0:0:0:0:
434,291,33951,2,0,P|463:282|489:267,1,59.9999981689454
397,222,34181,6,0,P|400:163|375:110,1,119.999996337891,8|0,0:0|0:0,0:0:0:0:
330,251,34643,2,0,P|291:207|235:188,1,119.999996337891,8|0,0:0|0:0,0:0:0:0:
297,316,35104,2,0,P|238:313|185:339,1,119.999996337891,8|0,0:0|0:0,0:0:0:0:
124,261,35566,6,0,P|138:217|135:194,1,59.9999981689454,8|0,0:0|0:0,0:0:0:0:
213,229,35797,2,0,P|207:183|194:163,1,59.9999981689454
237,53,36027,2,0,P|251:97|248:120,1,59.9999981689454
326,85,36258,2,0,P|320:130|307:150,1,59.9999981689454
339,269,36489,2,0,P|353:225|350:202,1,59.9999981689454,8|0,0:0|0:0,0:0:0:0:
428,237,36720,2,0,P|422:191|409:171,1,59.9999981689454
401,103,36951,1,0,0:0:0:0:
221,68,37181,6,0,L|280:61,1,59.9999981689454
151,47,37412,2,0,L|197:42,1,39.9999987792969,2|0,0:2|0:0,0:0:0:0:
150,164,37643,1,0,0:0:0:0:
149,285,37874,6,0,P|200:229|310:220,1,179.999994506836
324,379,38335,2,0,P|323:308|365:262,1,119.999996337891,8|0,0:0|0:0,0:0:0:0:
452,322,38797,2,0,P|423:281|426:255,1,59.9999981689454
475,121,39027,1,0,0:0:0:0:
493,165,39143,1,0,0:0:0:0:
452,322,39258,2,0,P|423:281|426:255,1,59.9999981689454,8|0,0:0|0:0,0:0:0:0:
340,302,39489,2,0,P|348:252|368:236,1,59.9999981689454
475,121,39720,6,0,L|286:106,1,179.999994506836
149,48,40181,2,0,L|279:36,1,119.999996337891,8|0,0:0|0:0,0:0:0:0:
253,167,40643,1,0,0:0:0:0:
354,30,40874,1,0,0:0:0:0:
413,23,40989,1,0,0:0:0:0:
383,229,41104,2,0,L|325:212,1,59.9999981689454,8|0,0:0|0:0,0:0:0:0:
442,98,41335,2,0,L|499:81,1,59.9999981689454
479,288,41566,6,0,P|477:229|448:178,1,119.999996337891,2|0,0:0|0:0,0:0:0:0:
326,329,42027,2,0,P|366:286|382:228,1,119.999996337891,10|0,0:0|0:0,0:0:0:0:
203,221,42489,2,0,P|262:219|313:189,1,119.999996337891,2|0,0:0|0:0,0:0:0:0:
239,87,42951,6,0,P|280:110|310:111,1,59.9999981689454,8|0,0:0|0:0,0:0:0:0:
377,105,43181,2,0,L|437:94,1,59.9999981689454
299,198,43412,6,0,L|359:209,1,59.9999981689454,8|0,0:0|0:0,0:0:0:0:
443,215,43642,2,0,P|472:208|497:191,1,59.9999981689454
238,147,43874,6,0,P|223:209|228:228,1,59.9999981689454,8|0,0:0|0:0,0:0:0:0:
341,240,44104,2,0,P|294:196|275:190,1,59.9999981689454
266,267,44335,1,10,0:0:0:0:
120,47,45258,6,0,P|114:90|128:133,1,59.9999981689454
173,161,45489,2,0,L|157:218,1,59.9999981689454
194,80,45720,1,8,0:0:0:0:
231,66,45835,1,0,0:0:0:0:
271,65,45950,1,0,0:0:0:0:
309,77,46066,1,0,0:0:0:0:
401,206,46181,6,0,L|418:129,1,59.9999981689454
427,280,46412,2,0,P|439:312|435:355,1,59.9999981689454
231,279,46643,1,8,0:0:0:0:
270,275,46758,1,0,0:0:0:0:
310,271,46873,1,0,0:0:0:0:
350,267,46989,1,0,0:0:0:0:
490,170,47104,6,0,P|455:147|418:149,1,59.9999981689454
364,173,47335,2,0,L|287:180,1,59.9999981689454
166,230,47566,1,8,0:0:0:0:
149,266,47681,1,0,0:0:0:0:
151,305,47796,1,0,0:0:0:0:
170,340,47912,1,0,0:0:0:0:
228,178,48027,6,0,L|238:92,1,59.9999981689454
295,28,48258,2,0,L|305:114,1,59.9999981689454
283,233,48489,1,8,0:0:0:0:
248,252,48604,1,0,0:0:0:0:
209,252,48719,1,0,0:0:0:0:
174,233,48835,1,0,0:0:0:0:
80,68,48951,6,0,L|112:127,1,59.9999981689454
100,256,49181,2,0,P|97:222|105:197,1,59.9999981689454
174,79,49412,1,8,0:0:0:0:
213,74,49527,1,0,0:0:0:0:
253,69,49642,1,0,0:0:0:0:
293,65,49758,1,0,0:0:0:0:
407,186,49874,6,0,P|415:157|412:128,1,59.9999981689454
432,316,50104,2,0,L|403:263,1,59.9999981689454
219,319,50335,1,8,0:0:0:0:
259,315,50451,1,0,0:0:0:0:
299,310,50566,1,0,0:0:0:0:
338,305,50681,1,0,0:0:0:0:
481,201,50797,5,2,0:0:0:0:
375,47,51027,2,0,L|389:129,1,59.9999981689454
481,201,51258,1,2,0:0:0:0:
298,168,51489,2,0,L|365:216,1,59.9999981689454
481,201,51720,1,2,0:0:0:0:
331,300,51951,6,0,L|354:349,1,29.9999990844727
300,315,52066,2,0,L|310:369,1,29.9999990844727
266,323,52181,2,0,L|262:376,1,29.9999990844727
232,321,52297,2,0,L|214:372,1,29.9999990844727
199,310,52412,2,0,L|169:355,1,29.9999990844727
171,292,52527,2,0,L|129:327,1,29.9999990844727
148,267,52643,6,0,L|141:191,1,59.9999981689454
182,84,52874,2,0,P|225:95|273:88,1,75.0000028610231,8|0,0:0|0:0,0:0:0:0:
117,255,53104,6,0,L|137:181,1,59.9999981689454
212,95,53335,2,0,P|248:120|296:130,1,75.0000028610231,8|0,0:0|0:0,0:0:0:0:
93,234,53566,6,0,L|136:171,1,59.9999981689454
236,116,53797,2,0,P|262:152|303:177,1,75.0000028610231,8|0,0:0|0:0,0:0:0:0:
77,206,54027,5,0,0:0:0:0:
252,144,54258,1,8,0:0:0:0:
426,199,54489,6,0,L|454:288,1,59.9999981689454
286,56,54720,2,0,P|339:75|386:66,1,75.0000028610231,8|0,0:0|0:0,0:0:0:0:
397,218,54951,6,0,L|393:311,1,59.9999981689454
314,36,55182,2,0,P|357:72|405:79,1,75.0000028610231,8|0,0:0|0:0,0:0:0:0:
363,227,55412,6,0,L|327:313,1,59.9999981689454
348,27,55643,2,0,P|376:76|418:99,1,75.0000028610231,8|0,0:0|0:0,0:0:0:0:
329,223,55874,5,0,0:0:0:0:
382,31,56104,1,8,0:0:0:0:
227,194,56335,6,0,L|168:205,1,59.9999981689454
13,282,56566,2,0,P|66:271|109:286,1,75.0000028610231,8|0,0:0|0:0,0:0:0:0:
205,160,56797,6,0,L|153:190,1,59.9999981689454
34,315,57028,2,0,P|80:287|125:286,1,75.0000028610231,8|0,0:0|0:0,0:0:0:0:
173,136,57258,6,0,L|135:182,1,59.9999981689454
66,340,57489,2,0,P|99:298|142:281,1,75.0000028610231,8|0,0:0|0:0,0:0:0:0:
135,123,57720,5,0,0:0:0:0:
104,352,57951,1,8,0:0:0:0:
291,201,58181,6,0,P|322:177|357:167,1,75.0000028610231
247,227,58412,2,0,P|269:256|279:292,1,75.0000028610231,8|0,0:0|0:0,0:0:0:0:
221,183,58643,2,0,P|189:206|154:216,1,75.0000028610231,2|0,0:0|0:0,0:0:0:0:
263,156,58874,2,0,P|241:126|231:91,1,75.0000028610231,8|0,0:0|0:0,0:0:0:0:
256,192,59104,12,0,59912,0:0:0:0:
224,147,60027,5,4,0:0:0:0:
322,70,73874,6,0,P|424:103|417:168,1,150
359,130,74335,2,0,L|334:317,1,179.999994506836
328,348,74797,5,0,0:0:0:0:
249,334,75027,1,0,0:0:0:0:
171,314,75258,1,0,0:0:0:0:
328,348,75489,5,8,0:0:0:0:
367,340,75604,1,0,0:0:0:0:
406,332,75720,2,0,L|481:312,1,50,8|0,0:0|0:0,0:0:0:0:
328,348,75951,2,0,L|233:327,1,50
171,314,76181,1,0,0:0:0:0:
328,348,76643,5,0,0:0:0:0:
314,269,76874,1,0,0:0:0:0:
332,191,77104,1,0,0:0:0:0:
328,348,77335,1,8,0:0:0:0:
289,358,77451,1,0,0:0:0:0:
249,350,77566,2,0,L|180:329,1,50,8|0,0:0|0:0,0:0:0:0:
314,269,77797,2,0,L|334:190,1,50
402,331,78027,1,0,0:0:0:0:
430,74,78489,5,0,0:0:0:0:
351,91,78720,1,0,0:0:0:0:
274,113,78951,1,0,0:0:0:0:
351,91,79181,5,8,0:0:0:0:
370,125,79297,1,0,0:0:0:0:
391,157,79412,2,0,L|433:231,1,50,8|0,0:0|0:0,0:0:0:0:
274,113,79643,2,0,L|178:137,1,50
430,74,79874,1,0,0:0:0:0:
311,194,80104,1,0,0:0:0:0:
475,331,80335,6,0,P|493:270|478:180,1,150
409,300,80797,2,0,P|378:244|304:191,1,150
365,357,81258,2,0,P|304:339|214:354,1,150
434,367,81720,1,0,0:0:0:0:
348,258,82181,6,0,B|328:157|415:146|386:65|345:36|259:43|257:125,1,300,10|0,1:2|0:0,0:0:0:0:
348,258,83104,2,0,B|275:184|217:250|166:181|165:131|219:63|288:108,1,300,10|0,1:2|0:0,0:0:0:0:
404,177,84027,6,0,P|464:279|347:257,1,300,10|0,0:0|0:0,0:0:0:0:
460,96,84951,2,0,P|342:73|403:176,1,300,10|0,0:0|0:0,0:0:0:0:
282,255,85874,6,0,B|316:276|316:276|263:296|263:296|242:349|242:349|207:305|207:305|149:301|149:301|181:253|181:253|166:198|166:198|222:213|222:213|265:182|265:182|279:261,1,539.999983520508,4|0,0:0|0:0,0:0:0:0:
320,354,87489,1,0,0:0:0:0:
99,240,87720,1,4,0:1:0:0:
99,240,88412,5,0,0:0:0:0:
76,163,88643,1,0,0:0:0:0:
139,114,88873,2,0,L|146:73,2,33.3333333333333
202,160,89104,1,0,0:0:0:0:
180,235,89335,1,0,0:0:0:0:
14,285,89566,6,0,P|73:345|153:316,1,179.999994506836
180,235,90027,2,0,L|218:106,1,119.999996337891,8|0,0:0|0:0,0:0:0:0:
101,16,90489,1,0,0:0:0:0:
37,142,90720,1,0,0:0:0:0:
83,129,90835,1,0,0:0:0:0:
129,116,90950,2,0,L|215:96,1,59.9999981689454,8|0,0:0|0:0,0:0:0:0:
217,234,91181,2,0,P|202:196|218:138,1,59.9999981689454
422,141,91412,6,0,B|367:105|367:105|250:126,1,179.999994506836
217,234,91874,2,0,L|343:211,1,119.999996337891,8|0,0:0|0:0,0:0:0:0:
254,125,92335,1,0,0:0:0:0:
393,201,92566,2,0,L|315:216,1,59.9999981689454
254,125,92797,2,0,L|332:110,1,59.9999981689454,8|0,0:0|0:0,0:0:0:0:
217,234,93027,2,0,L|139:249,1,59.9999981689454
477,95,93258,6,0,P|428:62|369:66,1,119.999996337891,8|0,0:0|0:0,0:0:0:0:
299,317,93720,2,0,P|351:291|377:238,1,119.999996337891,8|0,0:0|0:0,0:0:0:0:
181,18,94181,2,0,P|176:76|209:125,1,119.999996337891,8|0,0:0|0:0,0:0:0:0:
445,125,94643,6,0,L|498:97,1,59.9999981689454,8|0,0:0|0:0,0:0:0:0:
290,264,94874,2,0,L|260:316,1,59.9999981689454
232,51,95105,2,0,L|181:18,1,59.9999981689454
228,186,95336,6,0,P|211:162|214:133,1,59.9999981689454
416,197,95566,2,0,P|403:223|377:237,1,59.9999981689454,8|0,0:0|0:0,0:0:0:0:
315,50,95797,2,0,P|344:48|369:65,1,59.9999981689454
321,150,96027,5,0,0:0:0:0:
176,229,96258,2,0,L|233:212,1,59.9999981689454
108,175,96489,1,8,0:0:0:0:
314,233,96720,1,0,0:0:0:0:
108,175,96950,6,0,B|134:118|134:118|273:107,1,179.999994506836
418,212,97412,2,0,P|370:245|313:232,1,119.999996337891,8|0,0:0|0:0,0:0:0:0:
354,41,97873,1,0,0:0:0:0:
358,176,98104,1,0,0:0:0:0:
354,41,98220,1,0,0:0:0:0:
453,120,98335,2,0,L|512:126,1,59.9999981689454,8|0,0:0|0:0,0:0:0:0:
250,108,98566,2,0,L|214:188,1,59.9999981689454
142,318,98797,6,0,P|57:312|46:215,1,179.999994506836
218,301,99258,2,0,B|281:313|281:313|335:302,1,119.999996337891,8|0,0:0|0:0,0:0:0:0:
164,244,99720,1,0,0:0:0:0:
315,184,99950,1,0,0:0:0:0:
164,244,100066,1,0,0:0:0:0:
221,123,100181,2,0,P|227:89|223:60,1,59.9999981689454,8|0,0:0|0:0,0:0:0:0:
261,298,100412,2,0,L|275:374,1,59.9999981689454
322,71,100643,6,0,P|336:128|315:184,1,119.999996337891,2|0,0:0|0:0,0:0:0:0:
63,295,101104,2,0,P|119:286|169:232,1,119.999996337891,10|0,0:0|0:0,0:0:0:0:
189,71,101566,2,0,P|175:128|197:184,1,119.999996337891,2|0,0:0|0:0,0:0:0:0:
449,295,102027,6,0,B|409:298|390:284,1,59.9999981689454
375,273,102258,2,0,P|353:252|340:225,1,59.9999981689454
189,71,102490,6,0,P|176:118|178:148,1,59.9999981689454
180,148,102720,2,0,P|193:178|211:202,1,59.9999981689454
322,71,102951,6,0,P|336:118|334:148,1,59.9999981689454
332,148,103181,2,0,P|319:178|301:202,1,59.9999981689454
63,295,103412,2,0,P|119:286|169:232,1,119.999996337891,10|0,0:0|0:0,0:0:0:0:
228,204,103758,1,0,0:0:0:0:
268,269,103874,6,0,L|253:306,1,39.9999987792969,10|0,0:0|0:0,0:0:0:0:
270,75,104335,6,0,P|345:41|435:90,1,179.999994506836
330,178,104797,2,0,P|340:115|375:170,1,119.999996337891
484,274,105258,1,0,0:0:0:0:
330,178,105489,1,0,0:0:0:0:
484,274,105604,1,0,0:0:0:0:
330,178,105720,2,0,L|362:247,1,59.9999981689454,8|0,0:0|0:0,0:0:0:0:
375,275,105950,2,0,L|407:344,1,59.9999981689454
148,312,106181,6,0,B|184:262|184:262|304:280,1,179.999994506836
512,312,106643,2,0,P|458:336|399:328,1,119.999996337891,8|0,0:0|0:0,0:0:0:0:
348,131,107104,1,0,0:0:0:0:
445,261,107335,1,0,0:0:0:0:
348,131,107450,1,0,0:0:0:0:
327,350,107566,2,0,L|259:358,1,59.9999981689454,8|0,0:0|0:0,0:0:0:0:
445,261,107797,2,0,L|500:237,1,59.9999981689454
368,101,108027,6,0,P|393:154|391:214,1,119.999996337891,8|0,0:0|0:0,0:0:0:0:
234,187,108489,2,0,P|290:206|330:251,1,119.999996337891,8|0,0:0|0:0,0:0:0:0:
184,339,108950,2,0,P|237:313|297:316,1,119.999996337891,8|0,0:0|0:0,0:0:0:0:
466,321,109412,6,0,L|480:262,1,59.9999981689454,8|0,0:0|0:0,0:0:0:0:
452,117,109643,2,0,P|450:146|464:172,1,59.9999981689454
371,361,109874,6,0,L|385:302,1,59.9999981689454,8|0,0:0|0:0,0:0:0:0:
359,168,110105,2,0,P|357:197|371:223,1,59.9999981689454
274,383,110335,6,0,L|288:324,1,59.9999981689454,8|0,0:0|0:0,0:0:0:0:
185,230,110566,2,0,L|228:271,1,59.9999981689454
300,251,110797,1,0,0:0:0:0:
280,61,111027,6,0,L|221:68,1,59.9999981689454
151,47,111258,2,0,L|197:42,1,39.9999987792969,10|0,0:0|0:0,0:0:0:0:
368,78,111489,1,0,0:0:0:0:
85,180,111720,6,0,B|124:194|176:172|176:172|230:192|265:181,1,179.999994506836
176,249,112181,2,0,P|158:300|188:361,1,119.999996337891,8|0,0:0|0:0,0:0:0:0:
436,216,112643,2,0,L|335:224,1,59.9999981689454
265,294,112873,1,0,0:0:0:0:
436,216,112989,1,0,0:0:0:0:
200,179,113104,2,0,P|230:184|260:182,1,59.9999981689454,8|0,0:0|0:0,0:0:0:0:
145,182,113335,2,0,P|114:182|85:180,1,59.9999981689454
432,105,113566,6,0,L|243:90,1,179.999994506836
85,180,114027,2,0,B|124:194|176:172|176:172|230:192|265:181,1,179.999994506836,8|0,0:0|0:0,0:0:0:0:
432,105,114489,1,0,0:0:0:0:
495,284,114720,1,0,0:0:0:0:
432,105,114835,1,0,0:0:0:0:
383,229,114950,2,0,L|314:240,1,59.9999981689454,8|0,0:0|0:0,0:0:0:0:
152,175,115181,2,0,P|205:146|204:157,1,89.9999972534181
383,229,115412,6,0,P|430:168|435:103,1,119.999996337891,2|0,0:0|0:0,0:0:0:0:
311,259,115758,1,0,0:0:0:0:
316,183,115874,2,0,P|306:107|264:57,1,119.999996337891,2|0,0:0|0:0,0:0:0:0:
311,259,116220,1,0,0:0:0:0:
248,220,116335,2,0,P|187:172|122:167,1,119.999996337891,2|0,0:0|0:0,0:0:0:0:
311,259,116797,6,0,L|351:334,1,59.9999981689454,8|0,0:0|0:0,0:0:0:0:
146,164,117027,2,0,L|206:153,1,59.9999981689454
311,259,117258,6,0,L|286:340,1,59.9999981689454,8|0,0:0|0:0,0:0:0:0:
261,75,117488,2,0,L|311:109,1,59.9999981689454
311,259,117720,6,0,L|236:298,1,59.9999981689454,8|0,0:0|0:0,0:0:0:0:
406,94,117950,2,0,L|417:154,1,59.9999981689454
402,367,118181,1,8,0:0:0:0:
395,277,119104,6,0,P|398:307|392:337,1,59.9999981689454
355,166,119335,2,0,L|339:223,1,59.9999981689454
203,307,119566,1,8,0:0:0:0:
241,319,119682,1,0,0:0:0:0:
281,318,119797,1,0,0:0:0:0:
318,304,119912,1,0,0:0:0:0:
111,178,120027,6,0,L|94:255,1,59.9999981689454
72,46,120258,2,0,P|73:76|85:104,1,59.9999981689454
281,105,120489,1,8,0:0:0:0:
242,109,120604,1,0,0:0:0:0:
202,113,120719,1,0,0:0:0:0:
162,117,120835,1,0,0:0:0:0:
74,238,120950,6,0,P|45:232|22:214,1,59.9999981689454
207,205,121181,2,0,L|148:211,1,59.9999981689454
342,44,121412,1,8,0:0:0:0:
361,79,121528,1,0,0:0:0:0:
363,118,121643,1,0,0:0:0:0:
346,154,121758,1,0,0:0:0:0:
286,269,121873,6,0,L|292:209,1,59.9999981689454
219,299,122104,2,0,L|225:358,1,59.9999981689454
346,154,122335,1,8,0:0:0:0:
311,135,122451,1,0,0:0:0:0:
272,135,122566,1,0,0:0:0:0:
237,154,122681,1,0,0:0:0:0:
432,316,122797,6,0,L|403:263,1,59.9999981689454
416,132,123027,2,0,P|419:161|411:190,1,59.9999981689454
338,305,123258,1,8,0:0:0:0:
299,310,123373,1,0,0:0:0:0:
259,315,123488,1,0,0:0:0:0:
219,319,123604,1,0,0:0:0:0:
109,121,123720,6,0,L|80:68,1,59.9999981689454
105,197,123950,2,0,P|97:226|100:256,1,59.9999981689454
293,65,124181,1,8,0:0:0:0:
253,69,124297,1,0,0:0:0:0:
213,74,124412,1,0,0:0:0:0:
174,79,124527,1,0,0:0:0:0:
31,183,124643,5,2,0:0:0:0:
238,317,124873,2,0,L|228:258,1,59.9999981689454
11,221,125104,1,2,0:0:0:0:
222,113,125335,2,0,L|173:78,1,59.9999981689454
18,258,125566,1,2,0:0:0:0:
261,215,125797,6,0,L|279:265,1,29.9999990844727
300,227,125912,2,0,L|334:268,1,29.9999990844727
340,224,126027,2,0,L|386:251,1,29.9999990844727
378,207,126143,2,0,L|431:216,1,29.9999990844727
408,179,126258,2,0,L|461:169,1,29.9999990844727
427,141,126374,2,0,L|473:114,1,29.9999990844727
429,91,126489,6,0,P|392:85|355:92,1,75.0000028610231
327,299,126720,2,0,L|352:369,1,75.0000028610231,8|0,0:0|0:0,0:0:0:0:
380,79,126951,6,0,P|344:89|314:111,1,75.0000028610231
375,310,127182,2,0,L|428:363,1,75.0000028610231,8|0,0:0|0:0,0:0:0:0:
331,89,127412,6,0,P|302:113|284:146,1,75.0000028610231
424,300,127643,2,0,L|495:326,1,75.0000028610231,8|0,0:0|0:0,0:0:0:0:
290,118,127874,1,2,0:0:0:0:
465,271,128104,1,8,0:0:0:0:
211,283,128335,6,0,L|87:301,1,75.0000028610231
394,184,128566,2,0,P|397:143|386:107,1,75.0000028610231,8|0,0:0|0:0,0:0:0:0:
199,221,128797,6,0,L|87:165,1,75.0000028610231
405,245,129028,2,0,P|431:214|443:178,1,75.0000028610231,8|0,0:0|0:0,0:0:0:0:
224,164,129258,6,0,L|165:54,1,75.0000028610231
380,302,129489,2,0,P|419:291|449:269,1,75.0000028610231,8|0,0:0|0:0,0:0:0:0:
278,132,129720,1,0,0:0:0:0:
326,334,129951,1,8,0:0:0:0:
107,71,130181,6,0,L|161:166,1,75.0000028610231,2|0,0:0|0:0,0:0:0:0:
384,243,130412,2,0,L|290:230,1,75.0000028610231,8|0,0:0|0:0,0:0:0:0:
208,0,130643,6,0,L|179:103,1,75.0000028610231,2|0,0:0|0:0,0:0:0:0:
282,315,130874,2,0,L|225:240,1,75.0000028610231,8|0,0:0|0:0,0:0:0:0:
331,18,131104,6,0,L|236:72,1,75.0000028610231
159,295,131335,2,0,L|172:201,1,75.0000028610231,8|0,0:0|0:0,0:0:0:0:
404,119,131566,1,0,0:0:0:0:
86,194,131797,1,8,0:0:0:0:
421,214,132027,6,0,P|387:228|358:252,1,75.0000028610231,2|0,0:0|0:0,0:0:0:0:
333,353,132258,2,0,P|319:319|295:291,1,75.0000028610231,8|0,0:0|0:0,0:0:0:0:
190,269,132489,2,0,P|224:255|253:231,1,75.0000028610231,2|0,0:0|0:0,0:0:0:0:
276,127,132720,2,0,P|290:161|315:190,1,75.0000028610231,8|0,0:0|0:0,0:0:0:0:
256,192,132951,12,0,133874,0:0:0:0:
256,192,133989,12,0,134797,0:0:0:0:
256,192,134912,12,0,135720,0:0:0:0:
256,192,135835,12,0,136643,0:0:0:0:
256,192,136758,12,0,137566,0:0:0:0:
