osu file format v14

[General]
AudioFilename: audio.mp3
AudioLeadIn: 0
PreviewTime: 20761
Countdown: 0
SampleSet: Soft
StackLeniency: 0.7
Mode: 0
LetterboxInBreaks: 0
WidescreenStoryboard: 1

[Editor]
Bookmarks: 10522,18506
DistanceSpacing: 4
BeatDivisor: 8
GridSize: 32
TimelineZoom: 8

[Metadata]
Title:Everlasting summer
TitleUnicode:Бесконечное лето
Artist:KVESTAR
ArtistUnicode:KVESTAR
Creator:Pr0_Br0Chane1
Version:Insane[WIP]
Source:Everlasting Summer
Tags:kvestar russian hyperpop бесконечное лето i r3ally m1ss u i really miss you
BeatmapID:3860441
BeatmapSetID:1867649

[Difficulty]
HPDrainRate:6
CircleSize:4
OverallDifficulty:7
ApproachRate:9
SliderMultiplier:2.4
SliderTickRate:1

[Events]
//Background and Video events
0,0,"maxresdefault.jpg",0,0
//Break Periods
//Storyboard Layer 0 (Background)
//Storyboard Layer 1 (Fail)
//Storyboard Layer 2 (Pass)
//Storyboard Layer 3 (Foreground)
//Storyboard Layer 4 (Overlay)
//Storyboard Sound Samples

[TimingPoints]
1772,645.161290322581,4,2,1,100,1,0
10721,645.161290322581,4,2,1,100,1,0
20761,645.161290322581,4,2,1,100,1,0
20761,-83.3333333333333,4,2,1,100,0,0
41164,645.161290322581,4,2,1,100,1,0
41164,-100,4,2,1,100,0,0
51567,-142.857142857143,4,2,1,100,0,0
62278,645.161290322581,4,2,1,100,1,0
62278,-83.3333333333333,4,2,1,100,0,0
82358,-166.666666666667,4,2,1,100,0,0

[Colours]
Combo1 : 0,102,255
Combo2 : 255,51,153
Combo3 : 0,255,255
Combo4 : 153,0,255

[HitObjects]
101,192,10521,6,0,L|176:231,1,75
285,283,10882,1,0,0:0:0:0:
416,160,11043,1,0,0:0:0:0:
256,64,11205,1,0,0:0:0:0:
157,152,11366,2,0,P|158:196|183:223,1,60,0|0,0:3|0:3,0:3:0:0:
270,298,11689,2,0,L|320:255,1,60
432,160,12011,2,0,L|385:200,1,60
256,128,12334,2,0,L|294:174,2,60
68,64,12979,1,0,0:0:0:0:
107,234,13301,6,0,L|165:261,1,60
337,301,13623,1,0,0:0:0:0:
400,117,13784,1,0,0:0:0:0:
220,68,13946,1,0,0:0:0:0:
128,192,14108,2,0,P|142:233|174:251,1,60,0|0,0:3|0:3,0:3:0:0:
298,290,14430,2,0,L|334:234,1,60
416,112,14752,2,0,L|382:164,1,60
465,274,15075,2,0,L|416:240,1,60
256,240,15560,1,0,0:0:0:0:
371,68,15882,6,0,L|380:143,1,60
240,176,16205,1,0,0:0:0:0:
112,48,16367,1,0,0:0:0:0:
240,48,16528,1,0,0:0:0:0:
128,176,16689,1,0,0:0:0:0:
176,304,16850,2,0,P|194:329|267:340,1,90
278,345,17172,1,0,0:0:0:0:
400,272,17332,1,0,0:0:0:0:
416,144,17494,1,0,0:0:0:0:
319,48,17655,1,0,0:0:0:0:
160,112,17817,2,0,L|212:82,1,60
80,224,18139,1,0,0:0:0:0:
80,224,18220,1,0,0:0:0:0:
80,224,18301,2,0,L|158:271,1,90,0|0,2:0|2:0,2:0:0:0:
173,282,18624,6,0,L|238:318,1,60
243,318,18866,1,0,0:0:0:0:
248,326,18947,1,0,0:0:0:0:
248,326,19027,1,0,0:0:0:0:
336,288,19189,2,0,P|372:238|375:221,1,60
394,137,19511,1,0,0:0:0:0:
308,72,19753,2,0,P|242:58|191:108,1,120,0|0,0:3|0:3,0:3:0:0:
142,185,20237,1,0,0:0:0:0:
269,302,20398,2,0,P|313:292|344:251,1,90
368,112,20761,6,0,L|290:57,1,71.9999978027344
144,112,21083,2,0,L|222:57,1,71.9999978027344
201,258,21406,2,0,P|240:218|308:288,1,143.999995605469
355,324,21890,5,0,0:0:0:0:
421,196,22051,1,0,0:0:0:0:
362,65,22212,1,0,0:0:0:0:
214,73,22373,2,0,L|122:121,2,71.9999978027344
301,217,22857,2,0,P|274:239|240:232,2,71.9999978027344
312,102,23341,6,0,P|287:71|236:73,1,71.9999978027344
136,127,23664,2,0,P|110:168|138:206,1,71.9999978027344
220,267,23986,1,0,0:0:0:0:
368,112,24309,6,0,L|316:54,2,71.9999978027344
464,192,24793,1,0,0:0:0:0:
368,272,24954,2,0,L|319:325,2,71.9999978027344
256,192,25438,2,0,L|187:139,2,71.9999978027344
416,272,25922,6,0,L|405:155,1,107.999996704102
386,127,26244,1,0,0:0:0:0:
256,64,26406,1,0,0:0:0:0:
160,208,26567,2,0,P|162:262|206:303,1,107.999996704102
226,311,26890,6,0,P|263:312|303:275,1,71.9999978027344
371,185,27212,1,0,0:0:0:0:
326,90,27373,1,0,0:0:0:0:
211,41,27535,1,0,0:0:0:0:
91,92,27696,2,0,P|59:125|71:172,1,71.9999978027344
124,245,28019,2,0,L|191:307,1,71.9999978027344
356,324,28341,6,0,L|417:204,1,107.999996704102
416,208,28664,2,0,P|411:161|370:124,1,71.9999978027344
304,48,28986,1,0,0:0:0:0:
160,64,29148,1,0,0:0:0:0:
104,175,29309,2,0,L|67:254,2,71.9999978027344
160,64,29793,5,0,0:0:0:0:
304,48,29954,1,0,0:0:0:0:
397,141,30115,2,0,P|415:172|416:208,1,71.9999978027344
372,299,30438,2,0,P|338:337|287:332,1,71.9999978027344
223,278,30841,6,0,P|184:241|180:210,1,71.9999978027344
213,105,31163,2,0,P|239:76|290:82,1,71.9999978027344
387,146,31486,2,0,P|408:189|377:224,1,71.9999978027344
290,277,31808,1,0,0:0:0:0:
156,110,32131,6,0,L|212:56,2,71.9999978027344
54,182,32615,1,0,0:0:0:0:
143,270,32777,2,0,L|187:327,2,71.9999978027344
261,200,33261,2,0,L|334:153,2,71.9999978027344
96,272,33744,6,0,L|107:155,1,107.999996704102
126,127,34066,1,0,0:0:0:0:
256,64,34228,1,0,0:0:0:0:
352,208,34389,2,0,P|350:262|306:303,1,107.999996704102
286,311,34712,6,0,P|249:312|209:275,1,71.9999978027344
141,185,35034,1,0,0:0:0:0:
186,90,35195,1,0,0:0:0:0:
301,41,35357,1,0,0:0:0:0:
421,92,35518,2,0,P|452:125|440:172,1,71.9999978027344
388,245,35841,2,0,L|321:307,1,71.9999978027344
160,320,36164,6,0,P|134:268|158:243,1,71.9999978027344
256,64,36486,1,0,0:0:0:0:
352,320,36647,1,0,0:0:0:0:
112,160,36808,1,0,0:0:0:0:
400,160,36969,1,0,0:0:0:0:
160,320,37130,1,0,0:0:0:0:
256,64,37292,1,0,0:0:0:0:
352,320,37453,6,0,L|286:240,1,71.9999978027344
256,192,37777,1,0,0:0:0:0:
160,64,37937,6,0,L|219:144,1,71.9999978027344
256,192,38261,1,0,0:0:0:0:
352,320,38744,6,0,P|377:268|353:243,1,71.9999978027344
256,64,39067,1,0,0:0:0:0:
160,320,39228,1,0,0:0:0:0:
400,160,39389,1,0,0:0:0:0:
112,160,39550,1,0,0:0:0:0:
352,320,39711,1,0,0:0:0:0:
256,64,39873,1,0,0:0:0:0:
160,320,40035,1,0,0:0:0:0:
256,192,40357,12,0,40922,0:0:0:0:
400,192,41164,6,0,L|377:111,1,60
128,64,41486,1,0,0:0:0:0:
256,192,41647,1,0,0:0:0:0:
64,192,41809,1,0,0:0:0:0:
160,320,41970,6,0,P|185:335|227:327,2,60
64,192,42454,1,0,0:0:0:0:
155,80,42615,6,0,P|186:65|222:71,2,60
64,192,43099,1,0,0:0:0:0:
160,320,43260,1,0,0:0:0:0:
316,280,43422,1,0,0:0:0:0:
325,151,43583,6,0,P|314:123|292:102,2,60
316,280,44067,1,0,0:0:0:0:
160,320,44228,1,0,0:0:0:0:
61,190,44389,1,0,0:0:0:0:
135,73,44551,6,0,P|152:48|180:37,2,60
61,190,45034,1,0,0:0:0:0:
160,320,45196,6,0,P|185:336|215:337,2,60
61,190,45680,1,0,0:0:0:0:
163,68,45841,1,0,0:0:0:0:
306,81,46002,1,0,0:0:0:0:
444,180,46164,6,0,P|455:219|442:245,2,60
331,175,46647,2,0,P|296:178|260:245,1,90
256,240,46970,2,0,P|213:212|215:182,1,60
321,82,47293,2,0,L|385:146,1,90
407,160,47615,2,0,P|428:181|428:211,1,60
258,286,47938,6,0,L|201:225,2,60
400,320,48422,1,0,0:0:0:0:
420,192,48583,2,0,P|404:143|345:100,1,120
329,81,48986,5,0,0:0:0:0:
215,64,49148,1,0,0:0:0:0:
131,144,49309,1,0,0:0:0:0:
140,258,49470,1,0,0:0:0:0:
236,323,49632,1,0,0:0:0:0:
346,288,49793,1,0,0:0:0:0:
386,179,49954,2,0,P|385:123|349:87,1,90
329,81,50276,5,0,0:0:0:0:
215,64,50438,1,0,0:0:0:0:
131,144,50599,1,0,0:0:0:0:
140,258,50761,1,0,0:0:0:0:
288,288,50922,2,0,L|324:238,2,60
320,96,51567,6,0,P|176:48|124:210,1,356.999989105225
198,320,53260,6,0,P|352:310|370:222,1,251.999992309571
320,96,54551,6,0,P|176:48|100:190,1,335.999989746094
143,302,56325,6,0,P|254:354|401:273,1,293.999991027832
416,176,57776,2,0,L|418:86,2,83.9999974365235
359,325,58744,5,0,0:0:0:0:
192,348,59066,1,0,0:0:0:0:
88,215,59389,1,0,0:0:0:0:
224,64,60034,5,0,0:0:0:0:
332,69,60196,1,0,0:0:0:0:
416,160,60357,1,0,0:0:0:0:
320,320,60680,5,0,0:0:0:0:
205,320,60841,1,0,0:0:0:0:
128,224,61002,1,0,0:0:0:0:
190,78,61325,5,0,0:0:0:0:
320,78,61486,1,0,0:0:0:0:
386,191,61647,1,0,0:0:0:0:
320,304,61809,1,0,0:0:0:0:
190,304,61970,1,0,0:0:0:0:
125,192,62131,1,0,0:0:0:0:
144,112,62278,6,0,L|222:57,1,71.9999978027344
368,112,62600,2,0,L|290:57,1,71.9999978027344
311,258,62923,2,0,P|272:218|204:288,1,143.999995605469
157,324,63407,5,0,0:0:0:0:
91,196,63568,1,0,0:0:0:0:
150,65,63729,1,0,0:0:0:0:
298,73,63890,2,0,L|390:121,2,71.9999978027344
211,217,64374,6,0,P|238:239|272:232,2,71.9999978027344
200,102,64858,6,0,P|225:71|276:73,1,71.9999978027344
376,127,65181,2,0,P|402:168|374:206,1,71.9999978027344
292,267,65503,1,0,0:0:0:0:
144,112,65826,6,0,L|196:54,2,71.9999978027344
48,192,66310,1,0,0:0:0:0:
144,272,66471,2,0,L|193:325,2,71.9999978027344
256,192,66955,2,0,L|325:139,2,71.9999978027344
96,272,67439,6,0,L|107:155,1,107.999996704102
126,127,67761,5,0,0:0:0:0:
256,64,67923,1,0,0:0:0:0:
352,208,68084,2,0,P|350:262|306:303,1,107.999996704102
286,311,68407,6,0,P|249:312|209:275,1,71.9999978027344
141,185,68729,1,0,0:0:0:0:
186,90,68890,1,0,0:0:0:0:
301,41,69052,5,0,0:0:0:0:
421,92,69213,2,0,P|453:125|441:172,1,71.9999978027344
388,245,69536,2,0,L|321:307,1,71.9999978027344
156,324,69858,6,0,L|95:204,1,107.999996704102
96,208,70181,2,0,P|101:161|142:124,1,71.9999978027344
208,48,70503,1,0,0:0:0:0:
352,64,70665,1,0,0:0:0:0:
408,175,70826,2,0,L|445:254,2,71.9999978027344
352,64,71310,5,0,0:0:0:0:
208,48,71471,1,0,0:0:0:0:
115,141,71632,2,0,P|97:172|96:208,1,71.9999978027344
140,299,71955,2,0,P|174:337|225:332,1,71.9999978027344
289,278,72358,6,0,P|328:241|332:210,1,71.9999978027344
299,105,72680,2,0,P|273:76|222:82,1,71.9999978027344
125,146,73003,2,0,P|104:189|135:224,1,71.9999978027344
222,277,73325,1,0,0:0:0:0:
356,110,73648,6,0,L|300:56,2,71.9999978027344
458,182,74132,1,0,0:0:0:0:
369,270,74294,2,0,L|325:327,2,71.9999978027344
251,200,74778,2,0,L|178:153,2,71.9999978027344
416,272,75261,6,0,L|405:155,1,107.999996704102
386,127,75583,1,0,0:0:0:0:
256,64,75745,1,0,0:0:0:0:
160,208,75906,2,0,P|162:262|206:303,1,107.999996704102
226,311,76229,6,0,P|263:312|303:275,1,71.9999978027344
371,185,76551,1,0,0:0:0:0:
326,90,76712,1,0,0:0:0:0:
211,41,76874,1,0,0:0:0:0:
91,92,77035,2,0,P|60:125|72:172,1,71.9999978027344
124,245,77358,6,0,L|191:307,1,71.9999978027344
352,319,77681,6,0,P|377:296|374:261,1,71.9999978027344
256,64,78003,1,0,0:0:0:0:
160,320,78164,1,0,0:0:0:0:
400,160,78325,1,0,0:0:0:0:
112,160,78486,1,0,0:0:0:0:
352,320,78647,1,0,0:0:0:0:
256,64,78809,1,0,0:0:0:0:
160,320,78970,6,0,L|205:264,1,71.9999978027344
256,192,79294,1,0,0:0:0:0:
352,64,79454,6,0,L|309:121,1,71.9999978027344
256,192,79778,1,0,0:0:0:0:
159,319,80261,6,0,P|135:295|138:260,1,71.9999978027344
256,64,80584,1,0,0:0:0:0:
352,320,80745,1,0,0:0:0:0:
112,160,80906,1,0,0:0:0:0:
400,160,81067,1,0,0:0:0:0:
160,320,81228,1,0,0:0:0:0:
256,64,81390,1,0,0:0:0:0:
352,320,81552,6,0,L|307:264,1,71.9999978027344
256,192,81874,1,0,0:0:0:0:
160,64,82036,6,0,L|203:121,1,71.9999978027344
289,120,82358,6,0,B|288:80|400:80|400:192|224:336|256:288|256:256|256:288|288:336|112:192|112:80|224:80|224:128,1,486
