osu file format v14

[General]
AudioFilename: audio.mp3
AudioLeadIn: 0
PreviewTime: 20761
Countdown: 0
SampleSet: Soft
StackLeniency: 0.7
Mode: 0
LetterboxInBreaks: 0
WidescreenStoryboard: 0

[Editor]
DistanceSpacing: 4
BeatDivisor: 1
GridSize: 16
TimelineZoom: 1.1

[Metadata]
Title:Everlasting summer
TitleUnicode:Бесконечное лето
Artist:KVESTAR
ArtistUnicode:KVESTAR
Creator:Pr0_Br0Chane1
Version:Hard
Source:Everlasting Summer
Tags:kvestar russian hyperpop бесконечное лето i r3ally m1ss u i really miss you
BeatmapID:3841927
BeatmapSetID:1867649

[Difficulty]
HPDrainRate:4
CircleSize:4
OverallDifficulty:7
ApproachRate:8
SliderMultiplier:1.8
SliderTickRate:1

[Events]
//Background and Video events
0,0,"maxresdefault.jpg",0,0
//Break Periods
//Storyboard Layer 0 (Background)
//Storyboard Layer 1 (Fail)
//Storyboard Layer 2 (Pass)
//Storyboard Layer 3 (Foreground)
//Storyboard Layer 4 (Overlay)
//Storyboard Sound Samples

[TimingPoints]
1772,645.161290322581,4,2,1,100,1,0
10721,645.161290322581,4,2,1,100,1,0
20761,645.161290322581,4,2,1,100,1,0
20761,-83.3333333333333,4,2,1,100,0,0
41164,645.161290322581,4,2,1,100,1,0
41164,-100,4,2,1,100,0,0
51567,-142.857142857143,4,2,1,100,0,0
62278,645.161290322581,4,2,1,100,1,0
62278,-83.3333333333333,4,2,1,100,0,0
82358,-125,4,2,1,100,0,0

[Colours]
Combo1 : 0,102,255
Combo2 : 255,51,153
Combo3 : 0,255,255
Combo4 : 153,0,255

[HitObjects]
192,144,10721,6,8,P|148:233|190:242,1,180
320,192,11688,1,0,0:0:0:0:
320,192,12011,2,8,P|355:286|297:277,1,180
192,240,12979,1,0,0:0:0:0:
192,240,13301,6,8,P|148:151|190:142,1,180
320,192,14269,1,0,0:0:0:0:
320,192,14591,2,8,P|355:97|297:106,1,180
320,96,15398,1,8,0:0:0:0:
176,96,15882,6,0,L|177:197|177:197,1,90,0|0,1:0|1:0,1:0:0:0:
192,256,16366,1,0,0:0:0:0:
192,256,16527,1,4,0:0:0:0:
336,288,16850,1,0,0:0:0:0:
336,288,17172,6,0,L|334:186|334:186,1,90,0|0,1:0|1:0,1:0:0:0:
320,144,17656,1,0,0:0:0:0:
320,144,17817,1,4,0:0:0:0:
256,192,18140,5,2,2:0:0:0:
256,192,18221,1,2,2:0:0:0:
256,192,18301,1,2,2:0:0:0:
361,86,18785,5,2,3:0:0:0:
256,297,19108,1,2,3:0:0:0:
160,128,19430,2,0,L|130:95,1,45,2|0,3:0|0:0,0:0:0:0:
192,48,19753,2,0,L|222:81,1,45,2|0,3:0|0:0,0:0:0:0:
256,144,20075,6,0,L|256:192,1,45,0|0,2:0|0:0,2:0:0:0:
256,240,20398,1,4,2:0:0:0:
176,144,20761,2,0,L|209:102,1,53.9999983520508,2|0,3:0|3:0,0:0:0:0:
304,96,21083,2,0,L|342:146,1,53.9999983520508,2|0,3:0|3:0,0:0:0:0:
352,256,21406,2,0,B|256:144|160:256|160:256,1,215.999993408203,8|4,3:0|3:0,0:0:0:0:
129,319,22373,5,6,1:0:0:0:
254,193,22857,1,6,1:0:0:0:
384,64,23341,2,4,P|361:161|256:190,1,215.999993408203,6|4,1:0|1:0,0:0:0:0:
208,192,24309,5,0,0:0:0:0:
160,192,24470,1,0,0:0:0:0:
112,160,24631,1,0,0:0:0:0:
96,112,24793,1,0,0:0:0:0:
96,80,24954,2,4,L|184:142|184:142,1,107.999996704102,8|4,3:0|3:0,0:0:0:0:
232,174,25599,2,6,L|291:182|291:182,1,53.9999983520508,6|0,1:0|0:0,0:0:0:0:
344,190,25922,2,6,P|321:287|216:316,1,215.999993408203,6|0,1:0|1:0,0:0:0:0:
160,287,26890,5,10,0:0:0:0:
208,144,27535,1,10,0:0:0:0:
272,64,27857,1,0,0:0:0:0:
352,95,28180,2,0,L|314:134,1,53.9999983520508,10|0,0:0|0:0,0:0:0:0:
256,192,28502,5,2,3:0:0:0:
256,192,28664,1,2,3:0:0:0:
192,128,28986,6,0,B|143:220|224:288|224:288,1,161.999995056153,8|4,3:0|3:0,0:0:0:0:
313,228,30115,6,0,L|225:297|225:297,1,107.999996704102,2|2,2:0|2:0,0:0:0:0:
128,320,30761,5,2,2:0:0:0:
128,320,31083,2,0,P|151:223|256:194,1,215.999993408203,2|0,2:0|0:0,0:0:0:0:
304,192,32051,5,0,0:0:0:0:
352,208,32212,1,0,0:0:0:0:
400,240,32373,1,0,0:0:0:0:
416,272,32535,1,0,0:0:0:0:
415,303,32696,2,0,L|327:241|327:241,1,107.999996704102,4|0,3:0|0:0,0:0:0:0:
280,210,33341,2,0,L|221:202|221:202,1,53.9999983520508,4|0,3:0|0:0,0:0:0:0:
168,194,33664,2,0,P|207:102|216:95,1,107.999996704102,4|0,3:0|0:0,0:0:0:0:
256,64,34309,1,6,0:0:0:0:
256,192,34712,5,0,0:0:0:0:
256,208,34873,1,0,0:0:0:0:
256,224,35035,1,0,0:0:0:0:
256,240,35196,1,0,0:0:0:0:
256,256,35357,1,12,2:0:0:0:
256,272,35519,1,0,0:0:0:0:
256,288,35680,1,0,0:0:0:0:
256,304,35841,1,0,0:0:0:0:
256,320,36003,2,2,L|215:278,1,53.9999983520508,12|0,2:0|0:0,0:0:0:0:
265,201,36325,5,4,0:0:0:0:
265,201,36486,1,0,0:0:0:0:
265,201,36648,1,0,0:0:0:0:
265,201,36809,1,4,0:0:0:0:
265,201,36970,1,0,0:0:0:0:
265,201,37131,1,0,0:0:0:0:
265,201,37293,1,4,0:0:0:0:
265,201,37454,1,0,0:0:0:0:
256,64,37777,6,0,L|296:105,1,53.9999983520508,12|0,2:0|0:0,0:0:0:0:
352,192,38261,1,2,3:0:0:0:
256,320,38583,2,0,L|215:278,1,53.9999983520508,8|0,0:0|0:0,0:0:0:0:
265,201,38906,5,4,0:0:0:0:
265,201,39067,1,0,0:0:0:0:
265,201,39228,1,0,0:0:0:0:
265,201,39390,1,4,0:0:0:0:
265,201,39551,1,0,0:0:0:0:
265,201,39712,1,0,0:0:0:0:
265,201,39873,1,4,0:0:0:0:
265,201,40035,1,0,0:0:0:0:
256,64,40357,6,0,L|296:105,1,53.9999983520508,12|0,2:0|0:0,0:0:0:0:
320,176,40841,5,2,3:0:0:0:
272,176,41164,1,0,0:0:0:0:
176,144,41567,6,0,P|132:233|174:242,2,180,12|2|0,2:0|2:0|0:0,0:0:0:0:
255,143,43179,6,0,L|256:240,1,90,12|0,2:0|0:0,0:0:0:0:
256,240,43825,1,2,2:0:0:0:
336,240,44147,6,0,P|394:187|330:141,4,180,12|0|2|0|12,2:0|0:0|2:0|0:0|2:0,0:0:0:0:
240,240,47050,6,0,L|163:162,1,90,4|0,3:0|0:0,0:0:0:0:
129,127,47695,1,2,3:0:0:0:
214,59,48018,1,2,3:0:0:0:
310,54,48341,1,2,3:0:0:0:
357,124,48663,1,2,3:0:0:0:
304,224,48905,5,2,0:0:0:0:
304,224,49067,1,0,0:0:0:0:
304,224,49228,1,2,0:0:0:0:
304,224,49389,1,0,0:0:0:0:
304,224,49550,1,2,0:0:0:0:
304,224,49712,1,0,0:0:0:0:
304,224,49873,1,2,0:0:0:0:
219,228,50196,5,2,0:0:0:0:
219,228,50357,1,0,0:0:0:0:
219,228,50518,1,2,0:0:0:0:
219,228,50679,1,0,0:0:0:0:
219,228,50841,1,2,0:0:0:0:
219,228,51002,1,0,0:0:0:0:
219,228,51163,1,2,0:0:0:0:
208,304,51567,5,0,0:0:0:0:
272,336,51889,2,0,B|256:328|372:412|355:206,1,188.999994232178,8|12,2:0|2:0,0:0:0:0:
336,144,53179,2,0,L|175:252|175:252,1,188.999994232178,8|12,2:0|2:0,0:0:0:0:
160,176,54470,2,0,B|144:-27|317:77|314:76,1,251.999992309571,8|12,2:0|0:0,0:0:0:0:
160,160,56405,6,0,L|280:90,1,125.999996154785,2|2,0:0|0:0,0:0:0:0:
304,160,57696,2,0,L|195:223,1,125.999996154785,2|2,0:0|0:0,0:0:0:0:
240,288,58986,2,0,L|348:224,1,125.999996154785,2|2,0:0|0:0,0:0:0:0:
304,128,60276,5,2,0:0:0:0:
224,144,60921,1,2,0:0:0:0:
208,224,61244,1,2,0:0:0:0:
288,272,61567,1,2,0:0:0:0:
352,208,61889,1,2,0:0:0:0:
352,208,62050,1,2,0:0:0:0:
336,144,62278,6,0,L|303:102,1,53.9999983520508,2|0,3:0|3:0,0:0:0:0:
208,96,62600,2,0,L|170:146,1,53.9999983520508,2|0,3:0|3:0,0:0:0:0:
160,256,62923,2,0,B|256:144|352:256|352:256,1,215.999993408203,8|4,3:0|3:0,0:0:0:0:
383,319,63890,5,6,1:0:0:0:
258,193,64374,1,6,1:0:0:0:
128,64,64858,2,4,P|151:161|256:190,1,215.999993408203,6|4,1:0|1:0,0:0:0:0:
304,192,65826,5,0,0:0:0:0:
352,192,65987,1,0,0:0:0:0:
400,160,66148,1,0,0:0:0:0:
416,112,66310,1,0,0:0:0:0:
416,80,66471,2,4,L|328:142|328:142,1,107.999996704102,8|4,3:0|3:0,0:0:0:0:
280,174,67116,2,6,L|221:182|221:182,1,53.9999983520508,6|0,1:0|0:0,0:0:0:0:
168,190,67439,2,6,P|191:287|296:316,1,215.999993408203,6|0,1:0|1:0,0:0:0:0:
352,287,68407,5,10,0:0:0:0:
304,144,69052,1,10,0:0:0:0:
240,64,69374,1,0,0:0:0:0:
160,95,69697,2,0,L|198:134,1,53.9999983520508,10|0,0:0|0:0,0:0:0:0:
256,192,70019,5,2,3:0:0:0:
256,192,70181,1,2,3:0:0:0:
320,128,70503,6,0,B|369:220|288:288|288:288,1,161.999995056153,8|4,3:0|3:0,0:0:0:0:
199,228,71632,6,0,L|287:297|287:297,1,107.999996704102,2|2,2:0|2:0,0:0:0:0:
384,320,72278,5,2,2:0:0:0:
384,320,72600,2,0,P|361:223|256:194,1,215.999993408203,2|0,2:0|0:0,0:0:0:0:
208,192,73568,5,0,0:0:0:0:
160,208,73729,1,0,0:0:0:0:
112,240,73890,1,0,0:0:0:0:
96,272,74052,1,0,0:0:0:0:
97,303,74213,2,0,L|185:241|185:241,1,107.999996704102,4|0,3:0|0:0,0:0:0:0:
232,210,74858,2,0,L|291:202|291:202,1,53.9999983520508,4|0,3:0|0:0,0:0:0:0:
344,194,75181,2,0,P|305:102|296:95,1,107.999996704102,4|0,3:0|0:0,0:0:0:0:
256,64,75826,1,6,0:0:0:0:
256,192,76229,5,0,0:0:0:0:
256,208,76390,1,0,0:0:0:0:
256,224,76552,1,0,0:0:0:0:
256,240,76713,1,0,0:0:0:0:
256,256,76874,1,12,2:0:0:0:
256,272,77036,1,0,0:0:0:0:
256,288,77197,1,0,0:0:0:0:
256,304,77358,1,0,0:0:0:0:
256,320,77520,2,2,L|297:278,1,53.9999983520508,12|0,2:0|0:0,0:0:0:0:
247,201,77842,5,4,0:0:0:0:
247,201,78003,1,0,0:0:0:0:
247,201,78165,1,0,0:0:0:0:
247,201,78326,1,4,0:0:0:0:
247,201,78487,1,0,0:0:0:0:
247,201,78648,1,0,0:0:0:0:
247,201,78810,1,4,0:0:0:0:
247,201,78971,1,0,0:0:0:0:
256,64,79294,6,0,L|216:105,1,53.9999983520508,12|0,2:0|0:0,0:0:0:0:
160,192,79778,1,2,3:0:0:0:
256,320,80100,2,0,L|297:278,1,53.9999983520508,8|0,0:0|0:0,0:0:0:0:
265,201,80423,5,4,0:0:0:0:
265,201,80584,1,0,0:0:0:0:
265,201,80745,1,0,0:0:0:0:
265,201,80907,1,4,0:0:0:0:
265,201,81068,1,0,0:0:0:0:
265,201,81229,1,0,0:0:0:0:
265,201,81390,1,4,0:0:0:0:
265,201,81552,1,0,0:0:0:0:
197,234,81874,6,0,L|179:179,1,53.9999983520508,12|0,2:3|0:3,0:3:0:0:
224,128,82358,6,0,B|224:80|112:80|112:192|288:336|256:288|256:256|256:288|224:336|400:192|400:80|288:80|288:128,1,486
