osu file format v14

[General]
AudioFilename: audio.mp3
AudioLeadIn: 0
PreviewTime: 20761
Countdown: 0
SampleSet: Soft
StackLeniency: 0.7
Mode: 0
LetterboxInBreaks: 0
WidescreenStoryboard: 1

[Editor]
DistanceSpacing: 3.9
BeatDivisor: 8
GridSize: 16
TimelineZoom: 2.799999

[Metadata]
Title:Everlasting summer
TitleUnicode:Бесконечное лето
Artist:KVESTAR
ArtistUnicode:KVESTAR
Creator:Pr0_Br0Chane1
Version:Easy
Source:Everlasting Summer
Tags:kvestar russian hyperpop бесконечное лето i r3ally m1ss u i really miss you
BeatmapID:3841926
BeatmapSetID:1867649

[Difficulty]
HPDrainRate:3
CircleSize:3.5
OverallDifficulty:4
ApproachRate:5
SliderMultiplier:1.8
SliderTickRate:1

[Events]
//Background and Video events
0,0,"maxresdefault.jpg",0,0
//Break Periods
//Storyboard Layer 0 (Background)
//Storyboard Layer 1 (Fail)
//Storyboard Layer 2 (Pass)
//Storyboard Layer 3 (Foreground)
//Storyboard Layer 4 (Overlay)
//Storyboard Sound Samples

[TimingPoints]
1772,645.161290322581,4,2,1,100,1,0
10721,645.161290322581,4,2,1,100,1,0
20761,645.161290322581,4,2,1,100,1,0
20761,-83.3333333333333,4,2,1,100,0,0
41164,645.161290322581,4,2,1,100,1,0
41164,-100,4,2,1,100,0,0
51567,-142.857142857143,4,2,1,100,0,0
62050,-76.9230769230769,4,2,1,100,0,0
62278,645.161290322581,4,2,1,100,1,0
62278,-83.3333333333333,4,2,1,100,0,0
82358,-125,4,2,1,100,0,0

[Colours]
Combo1 : 0,102,255
Combo2 : 255,51,153
Combo3 : 0,255,255
Combo4 : 153,0,255

[HitObjects]
128,192,10721,6,0,P|254:296|259:296,1,180,8|0,2:0|0:0,0:0:0:0:
384,192,12011,2,0,P|338:117|255:88,1,180,8|0,2:0|0:0,0:0:0:0:
176,112,13301,6,0,B|114:172|242:220|188:273,1,180,8|0,2:0|2:0,2:0:0:0:
320,272,14591,6,0,B|266:220|394:172|333:111,1,180,8|0,2:0|2:0,2:0:0:0:
256,48,15882,5,0,3:0:0:0:
256,144,16527,1,8,3:0:0:0:
256,240,17172,1,0,3:0:0:0:
256,336,17817,1,8,3:0:0:0:
326,322,18140,2,0,L|372:303|358:245,1,90,0|8,0:0|3:0,0:0:0:0:
264,160,19108,1,8,3:0:0:0:
192,160,19430,2,0,P|339:281|349:273,1,270,8|4,3:0|3:0,0:0:0:0:
384,160,20761,6,0,L|299:88|299:88,2,107.999996704102,2|0|2,2:0|0:0|2:0,0:0:0:0:
236,242,22373,5,8,1:0:0:0:
144,160,22857,1,8,1:0:0:0:
200,69,23341,2,0,P|296:80|275:174,1,215.999993408203,8|4,1:0|2:0,0:0:0:0:
112,272,24954,5,8,3:0:0:0:
288,288,25599,1,12,3:0:0:0:
368,208,25922,1,8,3:0:0:0:
304,112,26890,2,0,P|230:49|168:124,2,215.999993408203,8|8|8,1:0|1:0|1:0,0:0:0:0:
320,208,28502,6,0,B|406:315|242:396|200:272,1,269.999991760254,2|0,1:0|0:0,0:0:0:0:
80,224,30115,5,8,1:0:0:0:
112,128,30599,1,8,1:0:0:0:
200,69,31083,2,0,P|295:80|274:174,1,215.999993408203,8|4,1:0|2:0,0:0:0:0:
144,160,32696,5,8,3:0:0:0:
240,256,33341,1,12,3:0:0:0:
320,224,33664,1,8,3:0:0:0:
269,137,34631,2,0,P|336:68|397:143,2,215.999993408203,8|8|12,1:0|1:0|1:0,0:0:0:0:
256,242,36324,6,8,P|299:301|423:284,2,188.999994232178,8|8|8,3:0|3:0|3:0,0:0:0:0:
208,144,37776,6,0,L|136:165|136:165,1,53.9999983520508
96,224,38260,1,4,0:0:0:0:
195,243,38905,6,8,P|238:302|362:285,2,188.999994232178,8|8|8,3:0|3:0|3:0,0:0:0:0:
150,147,40356,6,0,L|211:145,1,53.9999983520508
292,145,40841,1,4,0:0:0:0:
274,51,41567,6,0,P|282:248|270:246,1,360,8|2,3:0|2:0,0:0:0:0:
192,208,43179,5,8,3:0:0:0:
128,144,43502,1,2,2:0:0:0:
240,96,44147,6,0,P|374:230|367:238,2,270,8|2|8,3:0|2:0|3:0,0:0:0:0:
253,260,46728,6,0,P|106:303|121:151,1,360,8|2,3:0|2:0,0:0:0:0:
231,150,48341,5,2,2:0:0:0:
337,158,48663,1,8,3:0:0:0:
339,241,49308,6,0,P|195:303|174:149,1,360,8|6,3:0|2:0,0:0:0:0:
331,203,51567,5,8,2:0:0:0:
269,136,51889,2,0,P|153:234|154:258,1,188.999994232178,8|12,2:0|2:0,0:0:0:0:
245,307,53179,6,0,P|343:272|318:238,1,188.999994232178,8|12,2:0|2:0,0:0:0:0:
256,176,54470,6,0,P|245:77|326:136,1,251.999992309571,8|12,2:0|2:0,0:0:0:0:
432,144,56405,5,0,1:0:0:0:
352,48,57050,2,0,P|261:130|192:144,1,188.999994232178,0|4,1:0|3:0,0:0:0:0:
146,245,58341,6,0,P|196:311|308:321,1,188.999994232178,0|4,1:0|3:0,0:0:0:0:
400,288,59631,6,0,B|329:70|187:308|137:60,1,377.999988464356,0|14,1:0|3:0,0:0:0:0:
307,67,62278,6,0,L|413:100|413:100,2,107.999996704102,2|0|2,2:0|0:0|2:0,0:0:0:0:
192,208,63890,5,8,1:0:0:0:
112,272,64374,1,8,1:0:0:0:
200,315,64858,2,0,P|296:304|275:210,1,215.999993408203,8|4,1:0|2:0,0:0:0:0:
128,192,66471,5,8,3:0:0:0:
256,112,67116,1,12,3:0:0:0:
336,160,67439,1,8,3:0:0:0:
260,252,68407,2,0,P|334:315|397:241,2,215.999993408203,8|8|8,1:0|1:0|1:0,0:0:0:0:
205,166,70019,6,0,B|119:59|283:-22|325:102,1,269.999991760254,2|0,1:0|0:0,0:0:0:0:
432,192,71632,5,8,1:0:0:0:
384,304,72116,1,8,1:0:0:0:
272,320,72600,2,0,P|177:309|198:215,1,215.999993408203,8|4,1:0|2:0,0:0:0:0:
384,192,74213,5,8,3:0:0:0:
240,112,74858,1,12,3:0:0:0:
160,176,75181,1,8,3:0:0:0:
242,246,76148,2,0,P|175:315|115:241,2,215.999993408203,8|8|12,1:0|1:0|1:0,0:0:0:0:
299,145,77842,6,8,P|256:86|132:103,2,188.999994232178,8|8|8,3:0|3:0|3:0,0:0:0:0:
347,243,79294,6,0,L|419:222|419:222,1,53.9999983520508
459,163,79778,1,4,0:0:0:0:
360,144,80423,6,8,P|317:85|193:102,2,188.999994232178,8|8|8,3:0|3:0|3:0,0:0:0:0:
324,215,81874,6,0,L|269:188,1,53.9999983520508
224,128,82358,6,0,B|224:80|112:80|112:192|288:336|256:288|256:256|256:288|224:336|400:192|400:80|288:80|288:128,1,486
