osu file format v14

[General]
AudioFilename: audio.mp3
AudioLeadIn: 0
PreviewTime: 54233
Countdown: 0
SampleSet: Soft
StackLeniency: 0.7
Mode: 1
LetterboxInBreaks: 0
WidescreenStoryboard: 0

[Editor]
DistanceSpacing: 0.8
BeatDivisor: 16
GridSize: 4
TimelineZoom: 3.099999

[Metadata]
Title:Shippuujinrai
TitleUnicode:疾風迅雷
Artist:KUMOKIRI
ArtistUnicode:KUMOKIRI
Creator:yassu-
Version:DJ MOKOJI †LEGGENDARIA
Source:beatmania IIDX
Tags:
BeatmapID:996177
BeatmapSetID:465330

[Difficulty]
HPDrainRate:6
CircleSize:5
OverallDifficulty:7
ApproachRate:5
SliderMultiplier:1.4
SliderTickRate:1

[Events]
//Background and Video events
0,0,"9f884f4e.jpg",0,0
//Break Periods
//Storyboard Layer 0 (Background)
//Storyboard Layer 1 (Fail)
//Storyboard Layer 2 (Pass)
//Storyboard Layer 3 (Foreground)
//Storyboard Sound Samples

[TimingPoints]
900,333.333333333333,4,2,0,100,1,0
45066,-105.263157894737,4,2,0,100,0,0
45233,-111.111111111111,4,2,0,100,0,0
45399,-117.647058823529,4,2,0,100,0,0
45566,-125,4,2,0,100,0,0
45733,-133.333333333333,4,2,0,100,0,0
55733,-142.857142857143,4,2,0,100,0,0
55899,-153.846153846154,4,2,0,100,0,0
56066,-166.666666666667,4,2,0,100,0,0
56233,-181.818181818182,4,2,0,100,0,0
56399,-200,4,2,0,100,0,0
66233,-100,4,2,0,100,0,1
79538,-100,4,2,0,100,0,0
80899,-100,4,2,0,100,0,1
103566,-100,4,2,0,100,0,0
109399,-111.111111111111,4,2,0,100,0,0
109483,-117.647058823529,4,2,0,100,0,0
109566,-125,4,2,0,100,0,0
109816,-142.857142857143,4,2,0,100,0,0
110066,-166.666666666667,4,2,0,100,0,0
110399,-200,4,2,0,100,0,0
110420,-25,4,2,0,100,0,0

[HitObjects]
256,192,1566,12,0,2066,0:0:0:0:
256,192,2233,5,4,0:0:0:0:
256,192,2733,1,0,0:0:0:0:
248,188,3233,1,0,0:0:0:0:
256,192,3400,1,0,0:0:0:0:
252,188,3483,1,0,0:0:0:0:
256,192,3566,1,0,0:0:0:0:
256,192,3650,1,0,0:0:0:0:
256,192,3733,1,0,0:0:0:0:
256,188,3900,1,2,0:0:0:0:
256,188,4066,1,2,0:0:0:0:
256,188,4150,1,2,0:0:0:0:
260,188,4233,1,2,0:0:0:0:
260,188,4400,1,0,0:0:0:0:
260,188,4566,1,2,0:0:0:0:
260,188,4733,1,0,0:0:0:0:
256,188,4816,1,0,0:0:0:0:
260,192,4900,1,2,0:0:0:0:
260,188,5233,1,0,0:0:0:0:
260,192,5400,1,0,0:0:0:0:
260,192,5733,1,2,0:0:0:0:
260,192,5900,1,0,0:0:0:0:
260,192,5983,1,0,0:0:0:0:
264,192,6066,1,0,0:0:0:0:
264,192,6150,1,0,0:0:0:0:
264,192,6233,1,0,0:0:0:0:
260,192,6400,1,2,0:0:0:0:
264,196,6483,1,0,0:0:0:0:
264,196,6566,1,2,0:0:0:0:
264,196,6733,1,2,0:0:0:0:
264,196,6816,1,2,0:0:0:0:
264,196,6900,1,0,0:0:0:0:
264,196,6983,1,0,0:0:0:0:
264,192,7066,1,0,0:0:0:0:
268,196,7150,1,2,0:0:0:0:
268,196,7233,1,0,0:0:0:0:
260,192,7399,1,2,0:0:0:0:
264,196,7566,1,4,0:0:0:0:
260,200,8066,1,0,0:0:0:0:
256,200,8566,1,0,0:0:0:0:
256,196,8733,1,0,0:0:0:0:
256,196,8816,1,0,0:0:0:0:
256,196,8899,1,0,0:0:0:0:
256,196,8983,1,0,0:0:0:0:
256,196,9066,1,0,0:0:0:0:
248,200,9233,1,2,0:0:0:0:
248,200,9399,1,0,0:0:0:0:
240,204,9566,1,2,0:0:0:0:
248,200,9733,1,0,0:0:0:0:
248,200,9816,1,0,0:0:0:0:
240,196,9899,1,2,0:0:0:0:
248,200,10066,1,0,0:0:0:0:
248,200,10149,1,0,0:0:0:0:
244,192,10233,1,2,0:0:0:0:
236,196,10566,1,2,0:0:0:0:
236,196,10733,1,0,0:0:0:0:
236,196,11066,1,2,0:0:0:0:
236,196,11233,1,0,0:0:0:0:
236,196,11316,1,0,0:0:0:0:
236,196,11399,1,0,0:0:0:0:
236,196,11483,1,0,0:0:0:0:
236,196,11566,1,0,0:0:0:0:
236,196,11733,1,0,0:0:0:0:
236,196,11899,1,2,0:0:0:0:
236,196,12066,1,2,0:0:0:0:
236,196,12149,1,2,0:0:0:0:
268,184,12233,2,0,L|244:144,6,35
264,184,12899,1,4,0:0:0:0:
264,176,13066,1,0,0:0:0:0:
264,176,13233,1,2,0:0:0:0:
264,176,13399,1,0,0:0:0:0:
244,176,13566,1,0,0:0:0:0:
260,176,13733,1,0,0:0:0:0:
264,184,13899,1,2,0:0:0:0:
264,176,14066,1,0,0:0:0:0:
256,176,14149,1,2,0:0:0:0:
256,180,14233,1,0,0:0:0:0:
256,180,14399,1,0,0:0:0:0:
256,180,14566,1,2,0:0:0:0:
260,176,14733,1,0,0:0:0:0:
248,176,14899,1,2,0:0:0:0:
264,176,15066,1,0,0:0:0:0:
256,184,15233,1,2,0:0:0:0:
256,184,15399,1,2,0:0:0:0:
256,172,15483,1,2,0:0:0:0:
256,184,15566,1,0,0:0:0:0:
260,176,15733,1,0,0:0:0:0:
264,176,15899,1,2,0:0:0:0:
264,176,16066,1,0,0:0:0:0:
256,176,16233,1,0,0:0:0:0:
264,176,16399,1,0,0:0:0:0:
264,176,16566,1,2,0:0:0:0:
264,176,16733,1,2,0:0:0:0:
264,168,16816,1,2,0:0:0:0:
264,176,16899,1,0,0:0:0:0:
264,176,17066,1,0,0:0:0:0:
264,176,17233,1,2,0:0:0:0:
264,176,17399,1,0,0:0:0:0:
256,176,17566,1,2,0:0:0:0:
264,176,17733,1,0,0:0:0:0:
264,176,17816,1,0,0:0:0:0:
264,176,17899,1,2,0:0:0:0:
264,176,18066,1,2,0:0:0:0:
264,176,18149,1,2,0:0:0:0:
264,168,18233,1,0,0:0:0:0:
260,168,18399,1,0,0:0:0:0:
264,176,18566,1,2,0:0:0:0:
264,176,18733,1,0,0:0:0:0:
256,176,18899,1,0,0:0:0:0:
260,180,19066,1,0,0:0:0:0:
264,184,19233,1,2,0:0:0:0:
264,172,19316,1,0,0:0:0:0:
264,184,19399,1,2,0:0:0:0:
252,184,19483,1,2,0:0:0:0:
264,184,19566,1,0,0:0:0:0:
264,184,19733,1,0,0:0:0:0:
264,184,19899,1,2,0:0:0:0:
264,188,20066,1,0,0:0:0:0:
256,192,20149,1,0,0:0:0:0:
256,176,20233,1,2,0:0:0:0:
264,184,20399,1,0,0:0:0:0:
272,184,20566,1,2,0:0:0:0:
272,184,20649,1,2,0:0:0:0:
272,184,20733,1,2,0:0:0:0:
272,184,20816,1,2,0:0:0:0:
272,184,20899,1,0,0:0:0:0:
264,188,21066,1,0,0:0:0:0:
268,192,21233,1,2,0:0:0:0:
276,200,21316,1,2,0:0:0:0:
268,192,21399,1,0,0:0:0:0:
272,184,21566,1,2,0:0:0:0:
268,204,21733,1,0,0:0:0:0:
268,204,21816,1,0,0:0:0:0:
268,204,21899,1,2,0:0:0:0:
256,200,21983,1,0,0:0:0:0:
268,192,22066,1,2,0:0:0:0:
268,192,22149,1,2,0:0:0:0:
268,192,22233,1,0,0:0:0:0:
268,204,22399,1,0,0:0:0:0:
268,204,22566,1,2,0:0:0:0:
272,208,22622,1,2,0:0:0:0:
272,208,22677,1,2,0:0:0:0:
272,208,22733,1,0,0:0:0:0:
280,200,22816,1,0,0:0:0:0:
268,204,22899,1,2,0:0:0:0:
268,204,22955,1,2,0:0:0:0:
268,204,23011,1,2,0:0:0:0:
268,204,23066,1,0,0:0:0:0:
268,216,23149,1,0,0:0:0:0:
268,220,23233,1,2,0:0:0:0:
264,208,23288,1,2,0:0:0:0:
264,208,23344,1,2,0:0:0:0:
268,220,23399,1,0,0:0:0:0:
268,220,23483,1,0,0:0:0:0:
268,216,23566,1,2,0:0:0:0:
268,216,23733,1,0,0:0:0:0:
268,216,23816,1,0,0:0:0:0:
268,216,23899,1,2,0:0:0:0:
260,204,23983,1,0,0:0:0:0:
260,204,24066,1,0,0:0:0:0:
256,196,24149,1,0,0:0:0:0:
260,196,24233,1,0,0:0:0:0:
268,200,24399,1,2,0:0:0:0:
264,200,24455,1,0,0:0:0:0:
264,200,24511,1,0,0:0:0:0:
264,200,24566,1,2,0:0:0:0:
260,196,24649,1,2,0:0:0:0:
260,196,24733,1,0,0:0:0:0:
260,196,24816,1,0,0:0:0:0:
256,196,24899,1,2,0:0:0:0:
268,200,25066,1,2,0:0:0:0:
256,196,25149,1,2,0:0:0:0:
264,192,25233,1,0,0:0:0:0:
264,192,25316,1,0,0:0:0:0:
264,196,25399,1,0,0:0:0:0:
264,200,25483,1,0,0:0:0:0:
264,200,25566,1,0,0:0:0:0:
268,200,25733,1,2,0:0:0:0:
272,204,25788,1,2,0:0:0:0:
272,204,25844,1,0,0:0:0:0:
272,204,25899,1,0,0:0:0:0:
264,204,25983,1,0,0:0:0:0:
260,200,26066,1,2,0:0:0:0:
260,200,26149,1,0,0:0:0:0:
260,200,26233,1,0,0:0:0:0:
260,200,26316,1,0,0:0:0:0:
260,200,26399,1,2,0:0:0:0:
264,200,26483,1,2,0:0:0:0:
264,200,26566,1,2,0:0:0:0:
260,200,26649,1,0,0:0:0:0:
260,200,26733,1,0,0:0:0:0:
260,200,26816,1,0,0:0:0:0:
260,200,26899,1,0,0:0:0:0:
260,200,27066,1,2,0:0:0:0:
260,200,27122,1,0,0:0:0:0:
260,200,27177,1,0,0:0:0:0:
260,200,27233,1,2,0:0:0:0:
260,200,27316,1,2,0:0:0:0:
260,200,27399,1,0,0:0:0:0:
256,204,27483,1,0,0:0:0:0:
256,204,27566,1,2,0:0:0:0:
260,200,27649,1,2,0:0:0:0:
260,204,27733,1,0,0:0:0:0:
264,204,27788,1,0,0:0:0:0:
264,204,27844,1,0,0:0:0:0:
264,204,27899,1,2,0:0:0:0:
256,204,27983,1,0,0:0:0:0:
256,204,28066,1,0,0:0:0:0:
256,208,28149,1,0,0:0:0:0:
256,208,28233,1,2,0:0:0:0:
264,208,28399,1,2,0:0:0:0:
264,208,28483,1,2,0:0:0:0:
264,208,28566,1,0,0:0:0:0:
268,208,28649,1,0,0:0:0:0:
268,208,28733,1,0,0:0:0:0:
268,208,28816,1,0,0:0:0:0:
256,204,28899,1,2,0:0:0:0:
256,204,29066,1,0,0:0:0:0:
256,204,29149,1,0,0:0:0:0:
260,200,29233,1,2,0:0:0:0:
256,192,29316,1,0,0:0:0:0:
256,192,29399,1,0,0:0:0:0:
256,196,29483,1,2,0:0:0:0:
260,200,29566,1,2,0:0:0:0:
256,196,29649,1,2,0:0:0:0:
256,196,29733,1,0,0:0:0:0:
256,196,29816,1,0,0:0:0:0:
256,196,29899,1,2,0:0:0:0:
256,196,29983,1,0,0:0:0:0:
256,192,30066,1,0,0:0:0:0:
256,192,30149,1,2,0:0:0:0:
256,192,30233,1,2,0:0:0:0:
268,196,30399,1,0,0:0:0:0:
268,196,30483,1,2,0:0:0:0:
268,196,30566,1,0,0:0:0:0:
272,196,30649,1,0,0:0:0:0:
272,192,30733,1,0,0:0:0:0:
276,192,30816,1,2,0:0:0:0:
272,188,30899,1,2,0:0:0:0:
264,188,31066,1,2,0:0:0:0:
264,188,31233,1,0,0:0:0:0:
264,188,31399,1,0,0:0:0:0:
268,188,31566,1,2,0:0:0:0:
272,192,31733,1,0,0:0:0:0:
272,188,31816,1,2,0:0:0:0:
272,188,31899,1,0,0:0:0:0:
272,188,31983,1,0,0:0:0:0:
272,188,32066,1,0,0:0:0:0:
264,188,32149,1,2,0:0:0:0:
272,188,32233,1,0,0:0:0:0:
272,188,32399,1,2,0:0:0:0:
272,188,32566,1,2,0:0:0:0:
272,192,32733,1,0,0:0:0:0:
276,192,32899,1,2,0:0:0:0:
284,192,32955,1,2,0:0:0:0:
272,188,33011,1,0,0:0:0:0:
272,188,33066,1,0,0:0:0:0:
272,188,33122,1,2,0:0:0:0:
272,188,33177,1,2,0:0:0:0:
272,188,33233,1,0,0:0:0:0:
288,188,33288,1,0,0:0:0:0:
288,188,33344,1,2,0:0:0:0:
288,188,33399,1,2,0:0:0:0:
288,188,33455,1,0,0:0:0:0:
288,188,33511,1,0,0:0:0:0:
280,188,33566,1,0,0:0:0:0:
292,204,33649,1,0,0:0:0:0:
288,200,33733,1,2,0:0:0:0:
288,188,33816,1,2,0:0:0:0:
288,188,33899,1,0,0:0:0:0:
288,188,33983,1,0,0:0:0:0:
288,188,34066,1,0,0:0:0:0:
296,192,34233,1,4,0:0:0:0:
300,192,34483,1,2,0:0:0:0:
300,192,34566,1,0,0:0:0:0:
304,192,34733,1,2,0:0:0:0:
304,192,34899,1,0,0:0:0:0:
280,192,34983,1,0,0:0:0:0:
304,192,35149,1,2,0:0:0:0:
308,192,35233,1,0,0:0:0:0:
308,192,35399,1,2,0:0:0:0:
300,192,35566,1,0,0:0:0:0:
304,192,35649,1,0,0:0:0:0:
304,192,35733,1,2,0:0:0:0:
304,192,35816,1,2,0:0:0:0:
304,192,35899,1,0,0:0:0:0:
280,184,36066,1,2,0:0:0:0:
284,184,36122,1,2,0:0:0:0:
284,184,36177,1,2,0:0:0:0:
284,184,36233,1,0,0:0:0:0:
272,192,36316,1,0,0:0:0:0:
284,188,36483,1,2,0:0:0:0:
284,188,36566,1,0,0:0:0:0:
284,188,36733,1,2,0:0:0:0:
284,188,36899,1,0,0:0:0:0:
288,192,37149,1,2,0:0:0:0:
288,192,37233,1,0,0:0:0:0:
284,188,37399,1,2,0:0:0:0:
284,188,37566,1,0,0:0:0:0:
284,188,37649,1,0,0:0:0:0:
284,188,37816,1,2,0:0:0:0:
280,192,37899,1,0,0:0:0:0:
280,192,38066,1,2,0:0:0:0:
280,192,38233,1,0,0:0:0:0:
280,192,38316,1,0,0:0:0:0:
280,192,38399,1,2,0:0:0:0:
280,192,38483,1,2,0:0:0:0:
280,192,38566,1,0,0:0:0:0:
276,196,38733,1,0,0:0:0:0:
276,196,38816,1,2,0:0:0:0:
280,192,38899,1,0,0:0:0:0:
280,192,38983,1,2,0:0:0:0:
280,192,39066,1,2,0:0:0:0:
280,192,39149,1,0,0:0:0:0:
280,192,39233,1,2,0:0:0:0:
272,192,39399,1,2,0:0:0:0:
268,188,39566,1,4,0:0:0:0:
264,196,39733,1,0,0:0:0:0:
264,180,39816,1,2,0:0:0:0:
264,180,39899,1,0,0:0:0:0:
264,180,40066,1,2,0:0:0:0:
264,180,40233,1,0,0:0:0:0:
264,180,40316,1,0,0:0:0:0:
264,200,40399,1,0,0:0:0:0:
264,180,40483,1,2,0:0:0:0:
264,180,40566,1,0,0:0:0:0:
264,180,40733,1,2,0:0:0:0:
260,184,40899,1,0,0:0:0:0:
260,184,40983,1,0,0:0:0:0:
260,184,41066,1,2,0:0:0:0:
260,184,41149,1,2,0:0:0:0:
260,184,41233,1,0,0:0:0:0:
264,180,41399,1,2,0:0:0:0:
264,180,41566,1,0,0:0:0:0:
264,180,41649,1,2,0:0:0:0:
264,180,41733,1,0,0:0:0:0:
260,184,41816,1,0,0:0:0:0:
260,184,41899,1,2,0:0:0:0:
260,184,42066,1,2,0:0:0:0:
260,184,42233,1,0,0:0:0:0:
264,200,42316,1,0,0:0:0:0:
252,192,42399,1,0,0:0:0:0:
256,184,42483,1,2,0:0:0:0:
256,184,42566,1,0,0:0:0:0:
256,184,42733,1,2,0:0:0:0:
252,192,42816,1,2,0:0:0:0:
260,184,42899,1,0,0:0:0:0:
260,184,42983,1,0,0:0:0:0:
264,200,43066,1,0,0:0:0:0:
260,184,43149,1,2,0:0:0:0:
260,184,43233,1,0,0:0:0:0:
256,184,43344,1,2,0:0:0:0:
256,184,43455,1,2,0:0:0:0:
256,192,43566,1,0,0:0:0:0:
256,192,43649,1,0,0:0:0:0:
256,192,43733,1,2,0:0:0:0:
256,192,43816,1,0,0:0:0:0:
256,192,43899,1,0,0:0:0:0:
256,188,43955,1,2,0:0:0:0:
256,188,44011,1,0,0:0:0:0:
256,188,44066,1,0,0:0:0:0:
260,184,44108,1,2,0:0:0:0:
260,184,44149,1,0,0:0:0:0:
260,184,44191,1,0,0:0:0:0:
264,192,44233,1,2,0:0:0:0:
256,196,44288,1,2,0:0:0:0:
256,196,44344,1,0,0:0:0:0:
260,192,44399,1,0,0:0:0:0:
264,192,44455,1,2,0:0:0:0:
264,192,44511,1,2,0:0:0:0:
264,192,44566,1,0,0:0:0:0:
264,192,44622,1,0,0:0:0:0:
264,192,44677,1,2,0:0:0:0:
264,192,44733,1,2,0:0:0:0:
264,192,44788,1,0,0:0:0:0:
264,192,44844,1,0,0:0:0:0:
264,192,44899,1,0,0:0:0:0:
264,196,45066,1,0,0:0:0:0:
264,196,45233,1,0,0:0:0:0:
264,196,45399,1,2,0:0:0:0:
260,200,45566,1,0,0:0:0:0:
264,192,45733,1,2,0:0:0:0:
264,204,45816,1,2,0:0:0:0:
260,200,45899,1,2,0:0:0:0:
264,196,46066,1,0,0:0:0:0:
264,196,46233,1,2,0:0:0:0:
260,192,46399,1,0,0:0:0:0:
260,200,46566,1,2,0:0:0:0:
260,200,46733,1,0,0:0:0:0:
256,200,46899,1,2,0:0:0:0:
256,200,47066,1,2,0:0:0:0:
264,204,47149,1,2,0:0:0:0:
264,196,47233,1,0,0:0:0:0:
260,200,47399,1,2,0:0:0:0:
260,200,47566,1,0,0:0:0:0:
260,200,47733,1,0,0:0:0:0:
260,200,47899,1,0,0:0:0:0:
256,200,48066,1,2,0:0:0:0:
260,200,48233,1,0,0:0:0:0:
260,200,48399,1,2,0:0:0:0:
264,208,48566,1,0,0:0:0:0:
252,192,48649,1,0,0:0:0:0:
260,200,48733,1,2,0:0:0:0:
264,208,48899,1,0,0:0:0:0:
256,200,49066,1,2,0:0:0:0:
260,200,49233,1,2,0:0:0:0:
260,200,49399,1,0,0:0:0:0:
264,208,49566,1,2,0:0:0:0:
264,208,49733,1,0,0:0:0:0:
264,208,49899,1,0,0:0:0:0:
256,200,49983,1,2,0:0:0:0:
256,200,50066,1,0,0:0:0:0:
260,200,50233,1,2,0:0:0:0:
260,200,50399,1,2,0:0:0:0:
256,200,50483,1,2,0:0:0:0:
256,200,50566,1,2,0:0:0:0:
260,204,50733,1,2,0:0:0:0:
260,204,50899,1,2,0:0:0:0:
260,204,50983,1,2,0:0:0:0:
264,208,51066,1,0,0:0:0:0:
260,208,51233,1,2,0:0:0:0:
260,208,51274,1,2,0:0:0:0:
260,208,51316,1,2,0:0:0:0:
260,208,51358,1,2,0:0:0:0:
260,208,51399,1,2,0:0:0:0:
268,208,51566,1,0,0:0:0:0:
260,212,51816,1,0,0:0:0:0:
260,204,51899,1,2,0:0:0:0:
256,200,52066,1,0,0:0:0:0:
264,200,52233,1,0,0:0:0:0:
264,200,52316,1,0,0:0:0:0:
264,200,52399,1,0,0:0:0:0:
264,200,52483,1,0,0:0:0:0:
264,200,52566,1,0,0:0:0:0:
260,204,52733,1,2,0:0:0:0:
260,192,52899,1,0,0:0:0:0:
256,200,53066,1,2,0:0:0:0:
264,200,53149,1,2,0:0:0:0:
264,200,53233,1,2,0:0:0:0:
264,208,53399,1,0,0:0:0:0:
264,208,53483,1,0,0:0:0:0:
264,208,53566,1,2,0:0:0:0:
264,208,53649,1,2,0:0:0:0:
264,208,53733,1,2,0:0:0:0:
260,192,53899,1,2,0:0:0:0:
256,188,54066,1,0,0:0:0:0:
272,200,54233,1,4,0:0:0:0:
264,192,54399,1,6,0:0:0:0:
252,192,54566,1,6,0:0:0:0:
252,192,54733,1,6,0:0:0:0:
252,192,54899,1,6,0:0:0:0:
264,204,55066,1,6,0:0:0:0:
264,208,55233,1,6,0:0:0:0:
260,208,55399,1,6,0:0:0:0:
256,204,55566,1,4,0:0:0:0:
256,200,55733,1,0,0:0:0:0:
264,204,55899,1,0,0:0:0:0:
264,204,56066,1,2,0:0:0:0:
264,224,56233,1,2,0:0:0:0:
268,208,56399,1,2,0:0:0:0:
264,208,56566,1,0,0:0:0:0:
268,212,56733,1,0,0:0:0:0:
272,216,56899,1,2,0:0:0:0:
268,208,57233,1,2,0:0:0:0:
268,208,57399,1,0,0:0:0:0:
268,212,57566,1,2,0:0:0:0:
268,212,57733,1,2,0:0:0:0:
272,216,57899,1,0,0:0:0:0:
272,212,58066,1,2,0:0:0:0:
276,212,58233,1,2,0:0:0:0:
276,216,58399,1,0,0:0:0:0:
276,216,58566,1,0,0:0:0:0:
272,216,58733,1,2,0:0:0:0:
272,216,58899,1,0,0:0:0:0:
272,212,59066,1,0,0:0:0:0:
272,216,59233,1,2,0:0:0:0:
276,216,59399,1,0,0:0:0:0:
272,228,59566,1,2,0:0:0:0:
272,224,59733,1,0,0:0:0:0:
272,224,59899,1,0,0:0:0:0:
276,228,60066,1,2,0:0:0:0:
276,228,60233,1,0,0:0:0:0:
276,224,60399,1,0,0:0:0:0:
272,228,60566,1,0,0:0:0:0:
272,224,60733,1,2,0:0:0:0:
272,224,60899,1,2,0:0:0:0:
272,216,61233,1,0,0:0:0:0:
264,212,61566,1,2,0:0:0:0:
264,216,61899,1,2,0:0:0:0:
264,212,62066,1,2,0:0:0:0:
264,212,62149,1,2,0:0:0:0:
264,212,62233,1,0,0:0:0:0:
260,200,62483,1,0,0:0:0:0:
256,196,62566,1,2,0:0:0:0:
256,192,62733,1,0,0:0:0:0:
264,196,62899,1,2,0:0:0:0:
256,196,63066,1,2,0:0:0:0:
272,200,63149,1,2,0:0:0:0:
256,196,63233,1,0,0:0:0:0:
256,196,63399,1,2,0:0:0:0:
256,196,63566,1,0,0:0:0:0:
260,192,63733,1,2,0:0:0:0:
260,192,63899,1,0,0:0:0:0:
260,192,64066,1,2,0:0:0:0:
260,188,64233,1,0,0:0:0:0:
256,184,64399,1,0,0:0:0:0:
256,184,64566,1,2,0:0:0:0:
256,184,64733,1,0,0:0:0:0:
260,192,64899,1,0,0:0:0:0:
264,200,65066,1,6,0:0:0:0:
264,200,65233,1,6,0:0:0:0:
264,200,65399,1,6,0:0:0:0:
264,200,65566,1,6,0:0:0:0:
264,200,65733,1,6,0:0:0:0:
264,200,65899,1,6,0:0:0:0:
264,200,66066,1,6,0:0:0:0:
256,200,66233,1,2,0:0:0:0:
256,192,66288,1,0,0:0:0:0:
256,192,66344,1,0,0:0:0:0:
256,192,66399,1,0,0:0:0:0:
256,192,66483,1,2,0:0:0:0:
256,192,66566,1,0,0:0:0:0:
256,192,66622,1,0,0:0:0:0:
256,192,66677,1,0,0:0:0:0:
256,192,66733,1,2,0:0:0:0:
256,192,66816,1,2,0:0:0:0:
248,192,66899,1,0,0:0:0:0:
248,196,66955,1,0,0:0:0:0:
248,196,67011,1,0,0:0:0:0:
248,192,67066,1,2,0:0:0:0:
248,188,67149,1,0,0:0:0:0:
256,192,67233,1,2,0:0:0:0:
256,192,67316,1,0,0:0:0:0:
256,192,67399,1,0,0:0:0:0:
248,188,67455,1,0,0:0:0:0:
248,188,67511,1,0,0:0:0:0:
248,188,67566,1,2,0:0:0:0:
260,188,67608,1,2,0:0:0:0:
260,188,67649,1,0,0:0:0:0:
260,188,67733,1,0,0:0:0:0:
260,188,67816,1,2,0:0:0:0:
256,184,67872,1,0,0:0:0:0:
256,184,67927,1,0,0:0:0:0:
260,188,67983,1,2,0:0:0:0:
260,188,68066,1,0,0:0:0:0:
260,188,68149,1,2,0:0:0:0:
260,188,68233,1,2,0:0:0:0:
260,184,68288,1,2,0:0:0:0:
260,184,68344,1,2,0:0:0:0:
260,188,68399,1,0,0:0:0:0:
260,188,68483,1,0,0:0:0:0:
260,188,68566,1,2,0:0:0:0:
260,184,68622,1,2,0:0:0:0:
260,184,68677,1,2,0:0:0:0:
260,188,68733,1,0,0:0:0:0:
260,188,68774,1,2,0:0:0:0:
260,188,68816,1,0,0:0:0:0:
260,188,68899,1,2,0:0:0:0:
260,188,68983,1,0,0:0:0:0:
260,188,69038,1,0,0:0:0:0:
260,188,69094,1,0,0:0:0:0:
260,188,69149,1,2,0:0:0:0:
260,188,69233,1,0,0:0:0:0:
260,188,69316,1,0,0:0:0:0:
260,188,69399,1,2,0:0:0:0:
264,184,69455,1,2,0:0:0:0:
260,188,69511,1,2,0:0:0:0:
260,188,69566,1,2,0:0:0:0:
260,188,69649,1,0,0:0:0:0:
260,188,69733,1,2,0:0:0:0:
260,188,69788,1,2,0:0:0:0:
260,188,69844,1,2,0:0:0:0:
260,188,69899,1,2,0:0:0:0:
260,188,69983,1,0,0:0:0:0:
260,188,70066,1,2,0:0:0:0:
252,180,70122,1,2,0:0:0:0:
252,184,70177,1,2,0:0:0:0:
260,188,70233,1,0,0:0:0:0:
260,188,70288,1,2,0:0:0:0:
260,188,70344,1,2,0:0:0:0:
256,192,70399,1,2,0:0:0:0:
260,188,70483,1,0,0:0:0:0:
260,188,70566,1,2,0:0:0:0:
248,176,70622,1,2,0:0:0:0:
256,192,70677,1,2,0:0:0:0:
260,188,70733,1,0,0:0:0:0:
260,188,70816,1,2,0:0:0:0:
260,188,70899,1,0,0:0:0:0:
248,180,70955,1,0,0:0:0:0:
260,188,71011,1,0,0:0:0:0:
260,192,71066,1,2,0:0:0:0:
260,192,71149,1,0,0:0:0:0:
256,196,71233,1,2,0:0:0:0:
260,188,71288,1,2,0:0:0:0:
260,188,71344,1,2,0:0:0:0:
256,192,71399,1,0,0:0:0:0:
256,192,71483,1,2,0:0:0:0:
248,196,71566,1,0,0:0:0:0:
252,200,71622,1,0,0:0:0:0:
248,200,71677,1,0,0:0:0:0:
248,196,71733,1,2,0:0:0:0:
248,200,71816,1,0,0:0:0:0:
252,192,71872,1,0,0:0:0:0:
252,192,71927,1,0,0:0:0:0:
248,200,71983,1,2,0:0:0:0:
252,200,72066,1,0,0:0:0:0:
260,192,72122,1,0,0:0:0:0:
256,192,72177,1,0,0:0:0:0:
256,192,72233,1,2,0:0:0:0:
256,192,72288,1,2,0:0:0:0:
256,192,72344,1,0,0:0:0:0:
256,192,72399,1,0,0:0:0:0:
256,192,72455,1,2,0:0:0:0:
256,192,72511,1,2,0:0:0:0:
256,192,72566,1,0,0:0:0:0:
256,192,72622,1,0,0:0:0:0:
256,192,72677,1,2,0:0:0:0:
256,192,72733,1,2,0:0:0:0:
256,192,72788,1,0,0:0:0:0:
256,192,72844,1,0,0:0:0:0:
260,192,72899,1,2,0:0:0:0:
248,200,72941,1,2,0:0:0:0:
260,188,72983,1,0,0:0:0:0:
248,188,73024,1,0,0:0:0:0:
260,188,73066,1,0,0:0:0:0:
260,184,73108,1,0,0:0:0:0:
268,192,73149,1,2,0:0:0:0:
268,192,73233,1,0,0:0:0:0:
248,188,73274,1,0,0:0:0:0:
268,192,73316,1,0,0:0:0:0:
260,184,73358,1,0,0:0:0:0:
268,192,73399,1,2,0:0:0:0:
268,192,73483,1,0,0:0:0:0:
268,204,73524,1,0,0:0:0:0:
268,192,73566,1,2,0:0:0:0:
272,192,73649,1,0,0:0:0:0:
272,192,73691,1,0,0:0:0:0:
272,192,73733,1,0,0:0:0:0:
272,200,73788,1,0,0:0:0:0:
272,192,73844,1,0,0:0:0:0:
272,192,73899,1,2,0:0:0:0:
272,192,73983,1,0,0:0:0:0:
272,200,74024,1,0,0:0:0:0:
264,192,74066,1,2,0:0:0:0:
276,196,74149,1,2,0:0:0:0:
272,192,74191,1,2,0:0:0:0:
272,192,74233,1,0,0:0:0:0:
268,204,74288,1,0,0:0:0:0:
268,192,74344,1,0,0:0:0:0:
272,192,74399,1,2,0:0:0:0:
272,192,74483,1,2,0:0:0:0:
264,200,74524,1,0,0:0:0:0:
272,200,74566,1,0,0:0:0:0:
284,192,74608,1,0,0:0:0:0:
276,200,74649,1,2,0:0:0:0:
284,192,74691,1,2,0:0:0:0:
276,200,74733,1,0,0:0:0:0:
272,204,74816,1,0,0:0:0:0:
272,192,74858,1,0,0:0:0:0:
276,200,74899,1,2,0:0:0:0:
272,192,74955,1,2,0:0:0:0:
272,192,75011,1,2,0:0:0:0:
280,200,75066,1,0,0:0:0:0:
280,200,75149,1,0,0:0:0:0:
272,200,75191,1,0,0:0:0:0:
280,200,75233,1,2,0:0:0:0:
276,196,75288,1,2,0:0:0:0:
276,196,75344,1,2,0:0:0:0:
280,200,75399,1,0,0:0:0:0:
260,200,75441,1,2,0:0:0:0:
272,204,75483,1,0,0:0:0:0:
272,204,75566,1,2,0:0:0:0:
260,200,75608,1,2,0:0:0:0:
280,204,75649,1,0,0:0:0:0:
284,192,75691,1,0,0:0:0:0:
280,204,75733,1,0,0:0:0:0:
284,200,75774,1,0,0:0:0:0:
280,204,75816,1,2,0:0:0:0:
280,204,75899,1,0,0:0:0:0:
284,192,75941,1,0,0:0:0:0:
280,204,75983,1,0,0:0:0:0:
284,200,76024,1,0,0:0:0:0:
280,200,76066,1,2,0:0:0:0:
280,200,76122,1,2,0:0:0:0:
280,200,76177,1,2,0:0:0:0:
280,200,76233,1,2,0:0:0:0:
276,204,76316,1,0,0:0:0:0:
292,200,76358,1,0,0:0:0:0:
276,204,76399,1,2,0:0:0:0:
284,204,76455,1,2,0:0:0:0:
280,200,76511,1,2,0:0:0:0:
276,204,76566,1,2,0:0:0:0:
280,204,76649,1,0,0:0:0:0:
284,192,76691,1,0,0:0:0:0:
280,204,76733,1,2,0:0:0:0:
284,200,76774,1,2,0:0:0:0:
276,200,76816,1,0,0:0:0:0:
272,208,76899,1,0,0:0:0:0:
272,208,76955,1,2,0:0:0:0:
280,204,77011,1,2,0:0:0:0:
280,200,77066,1,2,0:0:0:0:
280,200,77149,1,0,0:0:0:0:
280,208,77191,1,0,0:0:0:0:
280,200,77233,1,2,0:0:0:0:
276,204,77288,1,2,0:0:0:0:
276,204,77344,1,2,0:0:0:0:
276,204,77399,1,0,0:0:0:0:
276,204,77483,1,0,0:0:0:0:
280,208,77524,1,0,0:0:0:0:
276,204,77566,1,2,0:0:0:0:
280,204,77622,1,2,0:0:0:0:
280,204,77677,1,2,0:0:0:0:
280,204,77733,1,0,0:0:0:0:
280,204,77816,1,2,0:0:0:0:
272,200,77858,1,2,0:0:0:0:
280,204,77899,1,0,0:0:0:0:
280,204,77955,1,0,0:0:0:0:
280,204,78011,1,0,0:0:0:0:
280,200,78066,1,2,0:0:0:0:
280,200,78108,1,2,0:0:0:0:
280,200,78149,1,0,0:0:0:0:
276,208,78233,1,2,0:0:0:0:
284,208,78274,1,2,0:0:0:0:
276,208,78316,1,0,0:0:0:0:
276,204,78372,1,0,0:0:0:0:
276,204,78427,1,0,0:0:0:0:
276,208,78483,1,2,0:0:0:0:
276,208,78566,1,0,0:0:0:0:
268,204,78622,1,0,0:0:0:0:
268,204,78677,1,0,0:0:0:0:
276,208,78733,1,2,0:0:0:0:
264,200,78774,1,2,0:0:0:0:
276,208,78816,1,0,0:0:0:0:
276,208,78899,1,2,0:0:0:0:
284,196,78941,1,2,0:0:0:0:
276,208,78983,1,0,0:0:0:0:
280,208,79038,1,0,0:0:0:0:
280,208,79094,1,0,0:0:0:0:
276,208,79149,1,2,0:0:0:0:
284,200,79191,1,2,0:0:0:0:
276,208,79233,1,0,0:0:0:0:
280,212,79288,1,0,0:0:0:0:
276,208,79344,1,0,0:0:0:0:
280,208,79399,1,2,0:0:0:0:
280,208,79441,1,2,0:0:0:0:
272,200,79483,1,2,0:0:0:0:
272,200,79511,1,2,0:0:0:0:
272,200,79538,1,2,0:0:0:0:
264,204,79733,1,0,0:0:0:0:
268,208,79788,1,0,0:0:0:0:
268,208,79844,1,0,0:0:0:0:
264,204,79899,1,2,0:0:0:0:
264,200,79955,1,2,0:0:0:0:
264,200,80011,1,2,0:0:0:0:
264,208,80066,1,0,0:0:0:0:
268,208,80122,1,0,0:0:0:0:
264,200,80177,1,2,0:0:0:0:
260,216,80233,1,0,0:0:0:0:
260,200,80399,1,6,0:0:0:0:
260,200,80566,1,6,0:0:0:0:
260,200,80733,1,6,0:0:0:0:
260,200,80899,1,4,0:0:0:0:
260,200,81066,1,2,0:0:0:0:
260,200,81149,1,2,0:0:0:0:
260,200,81233,1,0,0:0:0:0:
260,200,81288,1,2,0:0:0:0:
260,200,81344,1,2,0:0:0:0:
260,200,81399,1,0,0:0:0:0:
256,200,81483,1,0,0:0:0:0:
256,200,81566,1,2,0:0:0:0:
256,200,81622,1,0,0:0:0:0:
256,200,81677,1,0,0:0:0:0:
256,200,81733,1,2,0:0:0:0:
248,200,81816,1,0,0:0:0:0:
248,200,81899,1,2,0:0:0:0:
248,200,81983,1,2,0:0:0:0:
248,200,82066,1,2,0:0:0:0:
256,196,82233,1,0,0:0:0:0:
240,192,82274,1,0,0:0:0:0:
240,192,82316,1,0,0:0:0:0:
236,192,82358,1,0,0:0:0:0:
232,192,82399,1,2,0:0:0:0:
256,200,82483,1,2,0:0:0:0:
256,200,82566,1,0,0:0:0:0:
256,200,82622,1,2,0:0:0:0:
256,200,82677,1,2,0:0:0:0:
256,200,82733,1,0,0:0:0:0:
256,196,82816,1,2,0:0:0:0:
256,196,82899,1,0,0:0:0:0:
248,192,82941,1,0,0:0:0:0:
248,192,82983,1,0,0:0:0:0:
248,192,83024,1,0,0:0:0:0:
256,196,83066,1,2,0:0:0:0:
252,196,83149,1,2,0:0:0:0:
252,208,83233,1,0,0:0:0:0:
252,208,83288,1,2,0:0:0:0:
252,208,83344,1,2,0:0:0:0:
260,200,83399,1,0,0:0:0:0:
256,200,83483,1,0,0:0:0:0:
256,200,83566,1,2,0:0:0:0:
264,204,83816,1,2,0:0:0:0:
264,204,83899,1,0,0:0:0:0:
256,204,84066,1,2,0:0:0:0:
260,200,84122,1,0,0:0:0:0:
260,200,84177,1,0,0:0:0:0:
260,200,84233,1,2,0:0:0:0:
264,204,84316,1,0,0:0:0:0:
260,200,84399,1,2,0:0:0:0:
264,200,84455,1,0,0:0:0:0:
264,200,84511,1,0,0:0:0:0:
264,204,84566,1,2,0:0:0:0:
264,204,84649,1,2,0:0:0:0:
264,204,84733,1,2,0:0:0:0:
264,204,84899,1,0,0:0:0:0:
264,204,84955,1,2,0:0:0:0:
264,208,85011,1,2,0:0:0:0:
264,208,85066,1,0,0:0:0:0:
256,192,85149,1,2,0:0:0:0:
264,196,85233,1,0,0:0:0:0:
264,196,85288,1,2,0:0:0:0:
264,204,85344,1,2,0:0:0:0:
264,200,85399,1,0,0:0:0:0:
264,204,85483,1,0,0:0:0:0:
264,204,85566,1,2,0:0:0:0:
264,204,85622,1,2,0:0:0:0:
264,204,85677,1,0,0:0:0:0:
264,204,85733,1,0,0:0:0:0:
264,204,85816,1,2,0:0:0:0:
264,204,85899,1,2,0:0:0:0:
264,204,85955,1,2,0:0:0:0:
264,200,86011,1,0,0:0:0:0:
264,200,86066,1,0,0:0:0:0:
264,208,86149,1,0,0:0:0:0:
264,208,86233,1,2,0:0:0:0:
264,208,86483,1,2,0:0:0:0:
264,208,86566,1,0,0:0:0:0:
264,208,86733,1,2,0:0:0:0:
264,208,86816,1,2,0:0:0:0:
264,208,86899,1,0,0:0:0:0:
252,200,86941,1,0,0:0:0:0:
256,200,86983,1,0,0:0:0:0:
256,200,87024,1,0,0:0:0:0:
256,200,87066,1,2,0:0:0:0:
260,212,87149,1,2,0:0:0:0:
260,212,87233,1,0,0:0:0:0:
260,212,87316,1,0,0:0:0:0:
260,212,87399,1,2,0:0:0:0:
264,200,87483,1,2,0:0:0:0:
264,200,87566,1,0,0:0:0:0:
264,208,87649,1,0,0:0:0:0:
264,208,87733,1,2,0:0:0:0:
260,200,87816,1,0,0:0:0:0:
256,208,87899,1,0,0:0:0:0:
264,208,87955,1,0,0:0:0:0:
268,208,88011,1,2,0:0:0:0:
268,208,88066,1,2,0:0:0:0:
272,200,88149,1,0,0:0:0:0:
260,212,88233,1,0,0:0:0:0:
268,200,88288,1,2,0:0:0:0:
264,200,88344,1,2,0:0:0:0:
264,200,88399,1,0,0:0:0:0:
272,196,88483,1,2,0:0:0:0:
272,192,88566,1,0,0:0:0:0:
272,196,88733,1,0,0:0:0:0:
272,192,88816,1,0,0:0:0:0:
272,200,88899,1,2,0:0:0:0:
260,200,88955,1,2,0:0:0:0:
260,200,89011,1,2,0:0:0:0:
272,200,89066,1,0,0:0:0:0:
272,200,89149,1,2,0:0:0:0:
272,200,89233,1,0,0:0:0:0:
284,184,89316,1,0,0:0:0:0:
280,204,89399,1,0,0:0:0:0:
284,200,89441,1,0,0:0:0:0:
272,188,89483,1,0,0:0:0:0:
272,192,89524,1,0,0:0:0:0:
272,196,89566,1,2,0:0:0:0:
272,192,89649,1,2,0:0:0:0:
280,192,89733,1,0,0:0:0:0:
280,192,89788,1,2,0:0:0:0:
280,192,89844,1,2,0:0:0:0:
280,192,89899,1,2,0:0:0:0:
268,180,89983,1,0,0:0:0:0:
276,192,90066,1,0,0:0:0:0:
276,192,90122,1,2,0:0:0:0:
276,192,90177,1,2,0:0:0:0:
276,192,90233,1,0,0:0:0:0:
264,192,90399,1,6,0:0:0:0:
264,192,90566,1,6,0:0:0:0:
264,192,90733,1,6,0:0:0:0:
264,192,90899,1,6,0:0:0:0:
264,192,91066,1,6,0:0:0:0:
264,192,91233,1,6,0:0:0:0:
264,192,91399,1,6,0:0:0:0:
272,192,91566,1,4,0:0:0:0:
276,184,91733,1,2,0:0:0:0:
272,184,91816,1,2,0:0:0:0:
272,184,91899,1,0,0:0:0:0:
272,184,91983,1,2,0:0:0:0:
272,184,92066,1,0,0:0:0:0:
268,168,92233,1,2,0:0:0:0:
264,192,92316,1,0,0:0:0:0:
268,184,92399,1,0,0:0:0:0:
268,184,92483,1,2,0:0:0:0:
268,184,92566,1,0,0:0:0:0:
272,192,92733,1,4,0:0:0:0:
260,192,92816,1,2,0:0:0:0:
272,192,92899,1,4,0:0:0:0:
260,192,92983,1,0,0:0:0:0:
272,184,93066,1,2,0:0:0:0:
272,180,93233,1,2,0:0:0:0:
272,180,93316,1,2,0:0:0:0:
272,180,93399,1,0,0:0:0:0:
272,180,93483,1,2,0:0:0:0:
272,180,93566,1,0,0:0:0:0:
272,180,93733,1,0,0:0:0:0:
272,180,93816,1,2,0:0:0:0:
272,180,93899,1,0,0:0:0:0:
260,184,93983,1,2,0:0:0:0:
272,192,94066,1,4,0:0:0:0:
272,192,94149,1,4,0:0:0:0:
272,192,94233,1,4,0:0:0:0:
264,188,94316,1,2,0:0:0:0:
268,180,94399,1,2,0:0:0:0:
268,180,94483,1,0,0:0:0:0:
268,180,94566,1,2,0:0:0:0:
272,192,94733,1,4,0:0:0:0:
272,192,94816,1,4,0:0:0:0:
272,192,94899,1,4,0:0:0:0:
256,188,94983,1,2,0:0:0:0:
276,180,95066,1,2,0:0:0:0:
272,192,95149,1,4,0:0:0:0:
276,180,95233,1,2,0:0:0:0:
280,192,95316,1,2,0:0:0:0:
268,196,95399,1,4,0:0:0:0:
268,196,95483,1,4,0:0:0:0:
268,196,95566,1,4,0:0:0:0:
256,192,95733,1,2,0:0:0:0:
256,192,95816,1,2,0:0:0:0:
256,192,95899,1,0,0:0:0:0:
264,184,95983,1,2,0:0:0:0:
256,192,96066,1,0,0:0:0:0:
256,192,96149,1,2,0:0:0:0:
268,204,96233,1,4,0:0:0:0:
260,200,96344,1,4,0:0:0:0:
264,204,96455,1,4,0:0:0:0:
268,196,96566,1,0,0:0:0:0:
272,200,96649,1,0,0:0:0:0:
256,192,96733,1,0,0:0:0:0:
264,196,96774,1,0,0:0:0:0:
264,196,96816,1,0,0:0:0:0:
264,196,96858,1,0,0:0:0:0:
264,196,96899,1,2,0:0:0:0:
272,196,96983,1,0,0:0:0:0:
272,196,97066,1,2,0:0:0:0:
268,196,97233,1,2,0:0:0:0:
268,196,97316,1,2,0:0:0:0:
272,188,97399,1,0,0:0:0:0:
252,200,97455,1,2,0:0:0:0:
252,200,97511,1,2,0:0:0:0:
248,200,97566,1,0,0:0:0:0:
260,200,97677,1,0,0:0:0:0:
260,200,97733,1,2,0:0:0:0:
260,200,97788,1,0,0:0:0:0:
260,200,97899,1,0,0:0:0:0:
260,200,97983,1,0,0:0:0:0:
260,200,98066,1,0,0:0:0:0:
264,192,98122,1,2,0:0:0:0:
260,208,98177,1,2,0:0:0:0:
264,192,98233,1,0,0:0:0:0:
260,204,98344,1,0,0:0:0:0:
260,196,98399,1,2,0:0:0:0:
260,204,98455,1,0,0:0:0:0:
260,204,98566,1,0,0:0:0:0:
260,200,98649,1,0,0:0:0:0:
256,192,98733,1,0,0:0:0:0:
260,192,98788,1,2,0:0:0:0:
260,192,98844,1,2,0:0:0:0:
260,192,98899,1,0,0:0:0:0:
260,188,98962,1,2,0:0:0:0:
256,192,99045,1,2,0:0:0:0:
268,192,99122,1,0,0:0:0:0:
256,184,99191,1,2,0:0:0:0:
256,188,99274,1,2,0:0:0:0:
268,192,99344,1,0,0:0:0:0:
260,192,99399,1,2,0:0:0:0:
264,192,99455,1,2,0:0:0:0:
264,192,99511,1,2,0:0:0:0:
268,192,99566,1,0,0:0:0:0:
256,192,99733,1,2,0:0:0:0:
260,192,99816,1,0,0:0:0:0:
268,196,99899,1,2,0:0:0:0:
268,196,99983,1,0,0:0:0:0:
268,196,100066,1,2,0:0:0:0:
272,200,100122,1,2,0:0:0:0:
268,200,100177,1,2,0:0:0:0:
268,196,100233,1,0,0:0:0:0:
268,192,100316,1,0,0:0:0:0:
268,196,100399,1,2,0:0:0:0:
264,200,100483,1,2,0:0:0:0:
260,208,100524,1,2,0:0:0:0:
264,200,100566,1,0,0:0:0:0:
264,200,100649,1,0,0:0:0:0:
264,196,100733,1,2,0:0:0:0:
264,192,100788,1,2,0:0:0:0:
268,196,100844,1,2,0:0:0:0:
268,196,100899,1,0,0:0:0:0:
268,204,100941,1,2,0:0:0:0:
268,204,100983,1,2,0:0:0:0:
268,204,101066,1,0,0:0:0:0:
268,204,101108,1,2,0:0:0:0:
268,204,101149,1,2,0:0:0:0:
268,204,101233,1,0,0:0:0:0:
268,204,101274,1,2,0:0:0:0:
268,204,101316,1,2,0:0:0:0:
268,204,101399,1,0,0:0:0:0:
268,204,101441,1,2,0:0:0:0:
268,204,101483,1,2,0:0:0:0:
268,204,101566,1,0,0:0:0:0:
264,208,101608,1,2,0:0:0:0:
264,208,101649,1,2,0:0:0:0:
268,204,101733,1,0,0:0:0:0:
264,196,101774,1,2,0:0:0:0:
264,196,101816,1,2,0:0:0:0:
268,204,101899,1,0,0:0:0:0:
264,212,101941,1,2,0:0:0:0:
264,192,101983,1,2,0:0:0:0:
268,204,102066,1,0,0:0:0:0:
256,188,102108,1,2,0:0:0:0:
256,188,102149,1,2,0:0:0:0:
260,208,102233,1,0,0:0:0:0:
264,200,102274,1,0,0:0:0:0:
272,208,102316,1,0,0:0:0:0:
260,208,102358,1,2,0:0:0:0:
264,200,102399,1,2,0:0:0:0:
264,204,102462,1,0,0:0:0:0:
264,200,102504,1,0,0:0:0:0:
268,204,102545,1,0,0:0:0:0:
264,208,102587,1,2,0:0:0:0:
268,204,102629,1,2,0:0:0:0:
268,204,102691,1,0,0:0:0:0:
268,204,102733,1,0,0:0:0:0:
268,204,102774,1,0,0:0:0:0:
268,204,102816,1,2,0:0:0:0:
268,204,102858,1,2,0:0:0:0:
268,204,102920,1,0,0:0:0:0:
268,204,102962,1,0,0:0:0:0:
268,204,103004,1,0,0:0:0:0:
268,204,103045,1,2,0:0:0:0:
268,204,103087,1,2,0:0:0:0:
264,176,103129,1,2,0:0:0:0:
268,176,103170,1,2,0:0:0:0:
260,192,103233,1,0,0:0:0:0:
260,184,103274,1,2,0:0:0:0:
260,192,103316,1,0,0:0:0:0:
260,184,103358,1,2,0:0:0:0:
260,192,103399,1,0,0:0:0:0:
260,184,103441,1,2,0:0:0:0:
260,192,103483,1,0,0:0:0:0:
260,184,103524,1,2,0:0:0:0:
260,192,103566,1,4,0:0:0:0:
260,192,103733,1,0,0:0:0:0:
260,192,103816,1,0,0:0:0:0:
260,192,103899,1,2,0:0:0:0:
264,196,103983,1,0,0:0:0:0:
264,196,104066,1,0,0:0:0:0:
264,196,104149,1,0,0:0:0:0:
264,196,104233,1,2,0:0:0:0:
264,196,104316,1,0,0:0:0:0:
264,196,104399,1,2,0:0:0:0:
264,196,104483,1,0,0:0:0:0:
260,192,104566,1,2,0:0:0:0:
260,192,104649,1,2,0:0:0:0:
260,192,104733,1,0,0:0:0:0:
260,192,104816,1,2,0:0:0:0:
260,192,104899,1,0,0:0:0:0:
264,196,104983,1,0,0:0:0:0:
264,196,105066,1,0,0:0:0:0:
264,196,105149,1,0,0:0:0:0:
264,196,105233,1,2,0:0:0:0:
264,196,105316,1,0,0:0:0:0:
264,196,105399,1,0,0:0:0:0:
264,196,105483,1,0,0:0:0:0:
260,192,105566,1,0,0:0:0:0:
260,192,105649,1,0,0:0:0:0:
260,192,105733,1,2,0:0:0:0:
260,192,105816,1,0,0:0:0:0:
260,192,105899,1,2,0:0:0:0:
264,196,105983,1,0,0:0:0:0:
264,196,106066,1,2,0:0:0:0:
264,196,106149,1,2,0:0:0:0:
264,196,106233,1,0,0:0:0:0:
264,196,106274,1,0,0:0:0:0:
264,196,106316,1,0,0:0:0:0:
264,196,106399,1,2,0:0:0:0:
264,192,106483,1,0,0:0:0:0:
260,192,106524,1,0,0:0:0:0:
264,192,106566,1,0,0:0:0:0:
272,188,106649,1,2,0:0:0:0:
272,188,106733,1,0,0:0:0:0:
264,188,106816,1,0,0:0:0:0:
264,184,106899,1,2,0:0:0:0:
264,204,106941,1,2,0:0:0:0:
264,184,106983,1,2,0:0:0:0:
264,184,107066,1,0,0:0:0:0:
264,184,107149,1,2,0:0:0:0:
264,204,107191,1,2,0:0:0:0:
264,184,107233,1,2,0:0:0:0:
264,184,107316,1,0,0:0:0:0:
260,180,107399,1,2,0:0:0:0:
264,184,107483,1,0,0:0:0:0:
264,184,107566,1,2,0:0:0:0:
276,196,107608,1,2,0:0:0:0:
264,192,107649,1,0,0:0:0:0:
276,196,107691,1,0,0:0:0:0:
264,192,107733,1,0,0:0:0:0:
264,188,107816,1,0,0:0:0:0:
264,192,107899,1,2,0:0:0:0:
276,196,107941,1,2,0:0:0:0:
264,192,107983,1,0,0:0:0:0:
276,196,108024,1,0,0:0:0:0:
264,192,108066,1,2,0:0:0:0:
264,192,108149,1,0,0:0:0:0:
264,184,108233,1,0,0:0:0:0:
276,176,108288,1,0,0:0:0:0:
260,176,108344,1,0,0:0:0:0:
264,184,108399,1,2,0:0:0:0:
260,176,108455,1,2,0:0:0:0:
260,176,108511,1,2,0:0:0:0:
260,176,108566,1,0,0:0:0:0:
256,192,108608,1,0,0:0:0:0:
256,192,108649,1,2,0:0:0:0:
256,192,108691,1,2,0:0:0:0:
256,192,108733,1,0,0:0:0:0:
256,192,108774,1,0,0:0:0:0:
232,188,108816,1,2,0:0:0:0:
248,184,108844,1,2,0:0:0:0:
244,184,108872,1,2,0:0:0:0:
244,184,108899,1,2,0:0:0:0:
260,176,109399,1,4,0:0:0:0:
256,192,109483,1,4,0:0:0:0:
256,192,109566,1,4,0:0:0:0:
256,188,109816,1,4,0:0:0:0:
248,188,110066,1,4,0:0:0:0:
256,192,110399,1,4,0:0:0:0:
256,192,110420,12,0,112899,0:0:0:0:
