osu file format v14

[General]
AudioFilename: audio.mp3
AudioLeadIn: 0
PreviewTime: 79680
Countdown: 0
SampleSet: Normal
StackLeniency: 0.7
Mode: 1
LetterboxInBreaks: 0
WidescreenStoryboard: 0

[Editor]
Bookmarks: 2233,12899,23566,34274,44899,55566,66233,80899,91566,103566,112899
DistanceSpacing: 0.8
BeatDivisor: 4
GridSize: 32
TimelineZoom: 2.799999

[Metadata]
Title:Shippuujinrai
TitleUnicode:疾風迅雷
Artist:KUMOKIRI
ArtistUnicode:KUMOKIRI
Creator:_DUSK_
Version:Oni
Source:beatmania IIDX 21 SPADA
Tags:electronic instrumental video game oriental core oster project genjuro
BeatmapID:2456689
BeatmapSetID:1159251

[Difficulty]
HPDrainRate:5
CircleSize:5
OverallDifficulty:5.5
ApproachRate:9
SliderMultiplier:1.4
SliderTickRate:1

[Events]
//Background and Video events
0,0,"shippuu.jpg",0,0
//Break Periods
//Storyboard Layer 0 (Background)
//Storyboard Layer 1 (Fail)
//Storyboard Layer 2 (Pass)
//Storyboard Layer 3 (Foreground)
//Storyboard Layer 4 (Overlay)
//Storyboard Sound Samples

[TimingPoints]
931,333.333333333333,4,1,0,100,1,0
2264,-100,4,1,0,100,0,0
3389,-100,4,1,0,70,0,0
7555,-100,4,1,0,100,0,0
8722,-100,4,1,0,70,0,0
12889,-100,4,1,0,100,0,0
46264,-100,4,1,0,70,0,0
55555,-100,4,1,0,80,0,0
66222,-100,4,1,0,100,0,0
66264,-100,4,1,0,100,0,1
79597,-100,4,1,0,100,0,0
80930,-100,4,1,0,100,0,1
91597,-100,4,1,0,100,0,0
96930,-100,4,1,0,100,0,1
103597,-100,4,1,0,100,0,0
111514,-100,4,1,0,80,0,0

[HitObjects]
256,192,2264,5,4,0:0:0:0:
256,192,2764,1,0,0:0:0:0:
256,192,3430,1,0,0:0:0:0:
256,192,3597,1,8,0:0:0:0:
256,192,3680,1,8,0:0:0:0:
256,192,3764,1,8,0:0:0:0:
256,192,4264,1,8,0:0:0:0:
256,192,4430,1,0,0:0:0:0:
256,192,4597,1,8,0:0:0:0:
256,192,4764,1,0,0:0:0:0:
256,192,4930,1,8,0:0:0:0:
256,192,5430,1,0,0:0:0:0:
256,192,5930,1,8,0:0:0:0:
256,192,6097,1,8,0:0:0:0:
256,192,6264,1,0,0:0:0:0:
256,192,6764,1,8,0:0:0:0:
256,192,6930,1,8,0:0:0:0:
256,192,7097,1,0,0:0:0:0:
256,192,7264,1,0,0:0:0:0:
256,192,7597,1,12,0:0:0:0:
256,192,8097,1,0,0:0:0:0:
256,192,8764,1,0,0:0:0:0:
256,192,8930,1,8,0:0:0:0:
256,192,9014,1,8,0:0:0:0:
256,192,9097,1,8,0:0:0:0:
256,192,9430,1,0,0:0:0:0:
256,192,9764,1,8,0:0:0:0:
256,192,9930,1,0,0:0:0:0:
256,192,10097,1,8,0:0:0:0:
256,192,10180,1,8,0:0:0:0:
256,192,10264,1,0,0:0:0:0:
256,192,10764,1,0,0:0:0:0:
256,192,11264,1,8,0:0:0:0:
256,192,11430,1,8,0:0:0:0:
256,192,11597,1,8,0:0:0:0:
256,192,11764,1,0,0:0:0:0:
256,192,12097,1,8,0:0:0:0:
256,192,12264,12,0,12764,0:0:0:0:
256,192,12930,5,4,0:0:0:0:
256,192,13430,1,8,0:0:0:0:
256,192,13930,1,8,0:0:0:0:
256,192,14264,1,0,0:0:0:0:
256,192,14597,1,0,0:0:0:0:
256,192,14764,1,8,0:0:0:0:
256,192,15097,1,0,0:0:0:0:
256,192,15264,1,8,0:0:0:0:
256,192,15597,1,0,0:0:0:0:
256,192,15930,1,0,0:0:0:0:
256,192,16097,1,8,0:0:0:0:
256,192,16597,1,8,0:0:0:0:
256,192,16930,1,0,0:0:0:0:
256,192,17264,1,0,0:0:0:0:
256,192,17430,1,8,0:0:0:0:
256,192,17764,1,8,0:0:0:0:
256,192,17930,1,0,0:0:0:0:
256,192,18097,1,8,0:0:0:0:
256,192,18264,1,0,0:0:0:0:
256,192,18597,1,0,0:0:0:0:
256,192,18764,1,8,0:0:0:0:
256,192,19264,1,8,0:0:0:0:
256,192,19597,1,0,0:0:0:0:
256,192,19930,1,0,0:0:0:0:
256,192,20097,1,8,0:0:0:0:
256,192,20430,1,0,0:0:0:0:
256,192,20597,1,8,0:0:0:0:
256,192,20930,1,0,0:0:0:0:
256,192,21264,1,0,0:0:0:0:
256,192,21430,1,8,0:0:0:0:
256,192,21930,1,8,0:0:0:0:
256,192,22264,1,0,0:0:0:0:
256,192,22597,1,0,0:0:0:0:
256,192,22680,1,0,0:0:0:0:
256,192,22764,1,8,0:0:0:0:
256,192,22930,1,8,0:0:0:0:
256,192,23014,1,8,0:0:0:0:
256,192,23097,1,0,0:0:0:0:
256,192,23180,1,0,0:0:0:0:
256,192,23264,1,8,0:0:0:0:
256,192,23430,1,0,0:0:0:0:
256,192,23597,1,12,0:0:0:0:
256,192,23764,1,0,0:0:0:0:
256,192,23930,1,8,0:0:0:0:
256,192,24430,1,8,0:0:0:0:
256,192,24514,1,0,0:0:0:0:
256,192,24597,1,8,0:0:0:0:
256,192,24764,1,0,0:0:0:0:
256,192,24930,1,8,0:0:0:0:
256,192,25014,1,0,0:0:0:0:
256,192,25097,1,0,0:0:0:0:
256,192,25180,1,0,0:0:0:0:
256,192,25264,1,8,0:0:0:0:
256,192,25764,1,8,0:0:0:0:
256,192,25847,1,8,0:0:0:0:
256,192,25930,1,0,0:0:0:0:
256,192,26014,1,0,0:0:0:0:
256,192,26097,1,0,0:0:0:0:
256,192,26264,1,0,0:0:0:0:
256,192,26430,1,8,0:0:0:0:
256,192,26514,1,0,0:0:0:0:
256,192,26597,1,8,0:0:0:0:
256,192,27097,1,0,0:0:0:0:
256,192,27180,1,0,0:0:0:0:
256,192,27264,1,8,0:0:0:0:
256,192,27430,1,8,0:0:0:0:
256,192,27514,1,8,0:0:0:0:
256,192,27597,1,0,0:0:0:0:
256,192,27764,1,8,0:0:0:0:
256,192,27847,1,0,0:0:0:0:
256,192,27930,1,0,0:0:0:0:
256,192,28097,1,0,0:0:0:0:
256,192,28264,1,8,0:0:0:0:
256,192,28430,1,0,0:0:0:0:
256,192,28597,1,8,0:0:0:0:
256,192,28764,1,0,0:0:0:0:
256,192,28930,1,8,0:0:0:0:
256,192,29014,1,0,0:0:0:0:
256,192,29180,1,8,0:0:0:0:
256,192,29430,1,8,0:0:0:0:
256,192,29597,1,0,0:0:0:0:
256,192,29680,1,0,0:0:0:0:
256,192,29847,1,8,0:0:0:0:
256,192,29930,1,0,0:0:0:0:
256,192,30014,1,0,0:0:0:0:
256,192,30097,1,0,0:0:0:0:
256,192,30264,1,8,0:0:0:0:
256,192,30347,1,0,0:0:0:0:
256,192,30430,1,8,0:0:0:0:
256,192,30930,1,8,0:0:0:0:
256,192,31097,1,8,0:0:0:0:
256,192,31264,1,8,0:0:0:0:
256,192,31430,1,8,0:0:0:0:
256,192,31597,1,0,0:0:0:0:
256,192,31930,1,0,0:0:0:0:
256,192,32014,1,0,0:0:0:0:
256,192,32097,1,8,0:0:0:0:
256,192,32264,1,8,0:0:0:0:
256,192,32430,1,0,0:0:0:0:
256,192,32514,1,8,0:0:0:0:
256,192,32597,1,8,0:0:0:0:
256,192,32764,1,0,0:0:0:0:
256,192,32930,1,8,0:0:0:0:
256,192,33264,1,0,0:0:0:0:
256,192,33597,1,8,0:0:0:0:
256,192,33764,1,8,0:0:0:0:
256,192,33847,1,8,0:0:0:0:
256,192,33930,1,0,0:0:0:0:
256,192,34014,1,0,0:0:0:0:
256,192,34097,1,0,0:0:0:0:
256,192,34264,1,12,0:0:0:0:
256,192,34597,1,0,0:0:0:0:
256,192,34764,1,8,0:0:0:0:
256,192,34930,1,0,0:0:0:0:
256,192,35180,1,8,0:0:0:0:
256,192,35264,1,0,0:0:0:0:
256,192,35430,1,8,0:0:0:0:
256,192,35597,1,0,0:0:0:0:
256,192,35930,1,0,0:0:0:0:
256,192,36097,1,8,0:0:0:0:
256,192,36264,1,0,0:0:0:0:
256,192,36430,1,8,0:0:0:0:
256,192,36514,1,8,0:0:0:0:
256,192,36597,1,0,0:0:0:0:
256,192,36764,1,8,0:0:0:0:
256,192,36930,1,0,0:0:0:0:
256,192,37264,1,0,0:0:0:0:
256,192,37430,1,8,0:0:0:0:
256,192,37597,1,0,0:0:0:0:
256,192,37847,1,8,0:0:0:0:
256,192,37930,1,0,0:0:0:0:
256,192,38097,1,8,0:0:0:0:
256,192,38264,1,0,0:0:0:0:
256,192,38597,1,0,0:0:0:0:
256,192,38764,1,0,0:0:0:0:
256,192,38930,1,8,0:0:0:0:
256,192,39014,1,0,0:0:0:0:
256,192,39097,1,0,0:0:0:0:
256,192,39264,1,8,0:0:0:0:
256,192,39430,1,8,0:0:0:0:
256,192,39597,1,0,0:0:0:0:
256,192,39847,1,8,0:0:0:0:
256,192,39930,1,0,0:0:0:0:
256,192,40097,1,8,0:0:0:0:
256,192,40264,1,0,0:0:0:0:
256,192,40597,1,8,0:0:0:0:
256,192,40764,1,0,0:0:0:0:
256,192,40930,1,0,0:0:0:0:
256,192,41180,1,8,0:0:0:0:
256,192,41264,1,0,0:0:0:0:
256,192,41430,1,8,0:0:0:0:
256,192,41597,1,0,0:0:0:0:
256,192,41680,1,0,0:0:0:0:
256,192,41764,1,0,0:0:0:0:
256,192,41930,1,8,0:0:0:0:
256,192,42097,1,0,0:0:0:0:
256,192,42264,1,0,0:0:0:0:
256,192,42514,1,8,0:0:0:0:
256,192,42597,1,0,0:0:0:0:
256,192,42764,1,8,0:0:0:0:
256,192,42930,1,0,0:0:0:0:
256,192,43264,1,8,0:0:0:0:
256,192,43430,1,8,0:0:0:0:
256,192,43597,1,0,0:0:0:0:
256,192,43847,1,8,0:0:0:0:
256,192,43930,1,0,0:0:0:0:
256,192,44097,1,0,0:0:0:0:
256,192,44264,12,0,44764,0:0:0:0:
256,192,44930,5,4,0:0:0:0:
256,192,46597,1,8,0:0:0:0:
256,192,47264,1,0,0:0:0:0:
256,192,47597,1,0,0:0:0:0:
256,192,47764,1,8,0:0:0:0:
256,192,48097,1,8,0:0:0:0:
256,192,49430,1,0,0:0:0:0:
256,192,50097,1,0,0:0:0:0:
256,192,50264,1,8,0:0:0:0:
256,192,51430,1,8,0:0:0:0:
256,192,51930,1,0,0:0:0:0:
256,192,52514,1,0,0:0:0:0:
256,192,52597,1,0,0:0:0:0:
256,192,52930,1,0,0:0:0:0:
256,192,53430,1,0,0:0:0:0:
256,192,53930,1,8,0:0:0:0:
256,192,54264,12,0,55264,0:0:0:0:
256,192,55597,5,4,0:0:0:0:
256,192,56264,1,8,0:0:0:0:
256,192,56930,1,0,0:0:0:0:
256,192,57264,1,0,0:0:0:0:
256,192,57597,1,8,0:0:0:0:
256,192,58097,1,0,0:0:0:0:
256,192,58264,1,0,0:0:0:0:
256,192,58930,1,8,0:0:0:0:
256,192,59930,1,0,0:0:0:0:
256,192,60264,1,8,0:0:0:0:
256,192,60430,1,0,0:0:0:0:
256,192,60930,1,0,0:0:0:0:
256,192,61597,1,8,0:0:0:0:
256,192,62097,1,0,0:0:0:0:
256,192,62180,1,0,0:0:0:0:
256,192,62264,1,0,0:0:0:0:
256,192,62514,1,0,0:0:0:0:
256,192,62764,1,0,0:0:0:0:
256,192,62930,1,8,0:0:0:0:
256,192,63597,1,0,0:0:0:0:
256,192,64930,1,0,0:0:0:0:
256,192,65097,1,0,0:0:0:0:
256,192,65264,1,8,0:0:0:0:
256,192,65430,1,0,0:0:0:0:
256,192,65597,1,8,0:0:0:0:
256,192,65764,1,8,0:0:0:0:
256,192,65930,1,0,0:0:0:0:
256,192,66097,1,0,0:0:0:0:
256,192,66264,1,12,0:0:0:0:
256,192,66430,1,0,0:0:0:0:
256,192,66514,1,0,0:0:0:0:
256,192,66597,1,8,0:0:0:0:
256,192,66764,1,0,0:0:0:0:
256,192,66930,1,8,0:0:0:0:
256,192,67014,1,8,0:0:0:0:
256,192,67097,1,0,0:0:0:0:
256,192,67264,1,8,0:0:0:0:
256,192,67430,1,0,0:0:0:0:
256,192,67597,1,8,0:0:0:0:
256,192,67680,1,0,0:0:0:0:
256,192,67764,1,8,0:0:0:0:
256,192,67847,1,0,0:0:0:0:
256,192,67930,1,8,0:0:0:0:
256,192,68097,1,8,0:0:0:0:
256,192,68180,1,8,0:0:0:0:
256,192,68264,1,0,0:0:0:0:
256,192,68430,1,0,0:0:0:0:
256,192,68597,1,8,0:0:0:0:
256,192,68764,1,8,0:0:0:0:
256,192,68930,1,0,0:0:0:0:
256,192,69264,1,0,0:0:0:0:
256,192,69430,1,8,0:0:0:0:
256,192,69597,1,0,0:0:0:0:
256,192,69680,1,0,0:0:0:0:
256,192,69764,1,8,0:0:0:0:
256,192,69847,1,0,0:0:0:0:
256,192,69930,1,8,0:0:0:0:
256,192,70097,1,0,0:0:0:0:
256,192,70264,1,8,0:0:0:0:
256,192,70430,1,8,0:0:0:0:
256,192,70514,1,8,0:0:0:0:
256,192,70597,1,0,0:0:0:0:
256,192,70764,1,0,0:0:0:0:
256,192,70930,1,8,0:0:0:0:
256,192,71097,1,0,0:0:0:0:
256,192,71264,1,8,0:0:0:0:
256,192,71347,1,8,0:0:0:0:
256,192,71430,1,8,0:0:0:0:
256,192,71597,1,0,0:0:0:0:
256,192,71680,1,0,0:0:0:0:
256,192,71764,1,8,0:0:0:0:
256,192,71847,1,8,0:0:0:0:
256,192,71930,1,0,0:0:0:0:
256,192,72097,1,8,0:0:0:0:
256,192,72264,1,0,0:0:0:0:
256,192,72430,1,0,0:0:0:0:
256,192,72597,1,8,0:0:0:0:
256,192,72764,1,8,0:0:0:0:
256,192,72930,1,4,0:0:0:0:
256,192,73264,1,8,0:0:0:0:
256,192,73430,1,8,0:0:0:0:
256,192,73514,1,8,0:0:0:0:
256,192,73597,1,0,0:0:0:0:
256,192,73680,1,0,0:0:0:0:
256,192,73764,1,0,0:0:0:0:
256,192,73930,1,8,0:0:0:0:
256,192,74014,1,0,0:0:0:0:
256,192,74097,1,8,0:0:0:0:
256,192,74264,1,0,0:0:0:0:
256,192,74430,1,0,0:0:0:0:
256,192,74514,1,0,0:0:0:0:
256,192,74597,1,8,0:0:0:0:
256,192,74764,1,8,0:0:0:0:
256,192,74847,1,8,0:0:0:0:
256,192,74930,1,0,0:0:0:0:
256,192,75014,1,0,0:0:0:0:
256,192,75097,1,8,0:0:0:0:
256,192,75264,1,0,0:0:0:0:
256,192,75430,1,8,0:0:0:0:
256,192,75514,1,8,0:0:0:0:
256,192,75597,1,0,0:0:0:0:
256,192,75764,1,0,0:0:0:0:
256,192,75930,1,8,0:0:0:0:
256,192,76097,1,0,0:0:0:0:
256,192,76180,1,0,0:0:0:0:
256,192,76264,1,8,0:0:0:0:
256,192,76430,1,8,0:0:0:0:
256,192,76514,1,8,0:0:0:0:
256,192,76597,1,8,0:0:0:0:
256,192,76764,1,0,0:0:0:0:
256,192,76930,1,8,0:0:0:0:
256,192,77014,1,0,0:0:0:0:
256,192,77097,1,8,0:0:0:0:
256,192,77264,1,0,0:0:0:0:
256,192,77347,1,8,0:0:0:0:
256,192,77430,1,0,0:0:0:0:
256,192,77597,1,8,0:0:0:0:
256,192,77680,1,0,0:0:0:0:
256,192,77764,1,0,0:0:0:0:
256,192,77847,1,0,0:0:0:0:
256,192,77930,1,8,0:0:0:0:
256,192,78097,1,0,0:0:0:0:
256,192,78264,1,8,0:0:0:0:
256,192,78430,1,0,0:0:0:0:
256,192,78514,1,0,0:0:0:0:
256,192,78597,1,8,0:0:0:0:
256,192,78764,1,8,0:0:0:0:
256,192,78930,1,0,0:0:0:0:
256,192,79097,1,0,0:0:0:0:
256,192,79264,1,8,0:0:0:0:
256,192,79347,1,8,0:0:0:0:
256,192,79430,1,8,0:0:0:0:
256,192,79514,1,8,0:0:0:0:
256,192,80264,1,0,0:0:0:0:
256,192,80430,1,8,0:0:0:0:
256,192,80597,1,8,0:0:0:0:
256,192,80764,1,8,0:0:0:0:
256,192,80930,1,4,0:0:0:0:
256,192,81180,1,8,0:0:0:0:
256,192,81264,1,0,0:0:0:0:
256,192,81347,1,0,0:0:0:0:
256,192,81430,1,8,0:0:0:0:
256,192,81597,1,8,0:0:0:0:
256,192,81764,1,0,0:0:0:0:
256,192,81847,1,8,0:0:0:0:
256,192,81930,1,0,0:0:0:0:
256,192,82097,1,8,0:0:0:0:
256,192,82264,1,0,0:0:0:0:
256,192,82347,1,0,0:0:0:0:
256,192,82430,1,8,0:0:0:0:
256,192,82597,1,8,0:0:0:0:
256,192,82764,1,0,0:0:0:0:
256,192,82930,1,0,0:0:0:0:
256,192,83014,1,8,0:0:0:0:
256,192,83097,1,0,0:0:0:0:
256,192,83264,1,0,0:0:0:0:
256,192,83430,1,8,0:0:0:0:
256,192,83514,1,8,0:0:0:0:
256,192,83597,1,0,0:0:0:0:
256,192,83930,1,8,0:0:0:0:
256,192,84097,1,0,0:0:0:0:
256,192,84180,1,0,0:0:0:0:
256,192,84264,1,8,0:0:0:0:
256,192,84430,1,8,0:0:0:0:
256,192,84597,1,8,0:0:0:0:
256,192,84680,1,8,0:0:0:0:
256,192,84764,1,8,0:0:0:0:
256,192,84930,1,0,0:0:0:0:
256,192,85014,1,8,0:0:0:0:
256,192,85097,1,0,0:0:0:0:
256,192,85180,1,0,0:0:0:0:
256,192,85264,1,8,0:0:0:0:
256,192,85430,1,0,0:0:0:0:
256,192,85514,1,0,0:0:0:0:
256,192,85597,1,8,0:0:0:0:
256,192,85680,1,0,0:0:0:0:
256,192,85847,1,0,0:0:0:0:
256,192,85930,1,8,0:0:0:0:
256,192,86097,1,0,0:0:0:0:
256,192,86264,1,8,0:0:0:0:
256,192,86764,1,8,0:0:0:0:
256,192,86930,1,0,0:0:0:0:
256,192,87097,1,0,0:0:0:0:
256,192,87180,1,0,0:0:0:0:
256,192,87264,1,8,0:0:0:0:
256,192,87347,1,8,0:0:0:0:
256,192,87430,1,0,0:0:0:0:
256,192,87597,1,0,0:0:0:0:
256,192,87764,1,8,0:0:0:0:
256,192,87847,1,0,0:0:0:0:
256,192,87930,1,8,0:0:0:0:
256,192,88097,1,0,0:0:0:0:
256,192,88264,1,0,0:0:0:0:
256,192,88347,1,8,0:0:0:0:
256,192,88430,1,0,0:0:0:0:
256,192,88597,1,8,0:0:0:0:
256,192,88764,1,8,0:0:0:0:
256,192,88847,1,8,0:0:0:0:
256,192,88930,1,0,0:0:0:0:
256,192,89264,1,8,0:0:0:0:
256,192,89430,1,0,0:0:0:0:
256,192,89514,1,0,0:0:0:0:
256,192,89597,1,8,0:0:0:0:
256,192,89764,1,0,0:0:0:0:
256,192,89930,1,8,0:0:0:0:
256,192,90014,1,0,0:0:0:0:
256,192,90097,1,8,0:0:0:0:
256,192,90264,1,0,0:0:0:0:
256,192,90430,1,8,0:0:0:0:
256,192,90597,1,0,0:0:0:0:
256,192,90764,1,8,0:0:0:0:
256,192,90930,1,8,0:0:0:0:
256,192,91014,1,8,0:0:0:0:
256,192,91097,1,8,0:0:0:0:
256,192,91180,1,8,0:0:0:0:
256,192,91264,1,0,0:0:0:0:
256,192,91430,1,8,0:0:0:0:
256,192,91597,1,4,0:0:0:0:
256,192,92764,1,4,0:0:0:0:
256,192,92930,1,4,0:0:0:0:
256,192,94097,1,0,0:0:0:0:
256,192,94180,1,0,0:0:0:0:
256,192,94264,1,0,0:0:0:0:
256,192,94764,1,0,0:0:0:0:
256,192,94847,1,0,0:0:0:0:
256,192,94930,1,0,0:0:0:0:
256,192,95180,1,0,0:0:0:0:
256,192,95430,1,0,0:0:0:0:
256,192,95514,1,0,0:0:0:0:
256,192,95597,1,0,0:0:0:0:
256,192,96264,1,0,0:0:0:0:
256,192,96486,1,0,0:0:0:0:
256,192,96597,1,0,0:0:0:0:
256,192,96708,1,8,0:0:0:0:
256,192,96819,1,8,0:0:0:0:
256,192,96930,1,0,0:0:0:0:
256,192,97264,1,8,0:0:0:0:
256,192,97430,1,8,0:0:0:0:
256,192,97597,1,0,0:0:0:0:
256,192,97708,1,0,0:0:0:0:
256,192,97819,1,0,0:0:0:0:
256,192,97930,1,0,0:0:0:0:
256,192,98264,1,0,0:0:0:0:
256,192,98375,1,0,0:0:0:0:
256,192,98486,1,0,0:0:0:0:
256,192,98597,1,8,0:0:0:0:
256,192,98819,1,8,0:0:0:0:
256,192,98930,1,0,0:0:0:0:
256,192,99153,1,0,0:0:0:0:
256,192,99375,1,0,0:0:0:0:
256,192,99597,1,12,0:0:0:0:
256,192,99930,1,8,0:0:0:0:
256,192,100097,1,8,0:0:0:0:
256,192,100180,1,8,0:0:0:0:
256,192,100264,1,0,0:0:0:0:
256,192,100430,1,0,0:0:0:0:
256,192,100597,1,8,0:0:0:0:
256,192,100764,1,0,0:0:0:0:
256,192,100847,1,0,0:0:0:0:
256,192,100930,1,8,0:0:0:0:
256,192,101097,1,0,0:0:0:0:
256,192,101264,1,8,0:0:0:0:
256,192,101430,1,0,0:0:0:0:
256,192,101514,1,0,0:0:0:0:
256,192,101597,1,8,0:0:0:0:
256,192,101764,1,0,0:0:0:0:
256,192,101930,1,8,0:0:0:0:
256,192,102014,1,8,0:0:0:0:
256,192,102097,1,0,0:0:0:0:
256,192,102264,1,0,0:0:0:0:
256,192,102430,1,8,0:0:0:0:
256,192,102514,1,8,0:0:0:0:
256,192,102597,1,0,0:0:0:0:
256,192,102680,1,0,0:0:0:0:
256,192,102764,1,8,0:0:0:0:
256,192,102847,1,8,0:0:0:0:
256,192,102930,1,0,0:0:0:0:
256,192,103097,1,8,0:0:0:0:
256,192,103180,1,8,0:0:0:0:
256,192,103264,1,0,0:0:0:0:
256,192,103347,1,0,0:0:0:0:
256,192,103430,1,8,0:0:0:0:
256,192,103597,1,4,0:0:0:0:
256,192,104930,1,0,0:0:0:0:
256,192,105097,1,0,0:0:0:0:
256,192,105430,1,0,0:0:0:0:
256,192,105514,1,0,0:0:0:0:
256,192,105597,1,0,0:0:0:0:
256,192,105764,1,8,0:0:0:0:
256,192,105930,1,8,0:0:0:0:
256,192,106097,1,8,0:0:0:0:
256,192,106264,1,8,0:0:0:0:
256,192,106597,1,0,0:0:0:0:
256,192,106764,1,0,0:0:0:0:
256,192,106847,1,0,0:0:0:0:
256,192,106930,1,8,0:0:0:0:
256,192,107097,1,0,0:0:0:0:
256,192,107264,1,0,0:0:0:0:
256,192,107597,1,8,0:0:0:0:
256,192,107764,1,8,0:0:0:0:
256,192,107847,1,8,0:0:0:0:
256,192,107930,1,0,0:0:0:0:
256,192,108097,1,0,0:0:0:0:
256,192,108264,1,8,0:0:0:0:
256,192,108347,1,8,0:0:0:0:
256,192,108430,1,8,0:0:0:0:
256,192,108514,1,8,0:0:0:0:
256,192,108597,1,0,0:0:0:0:
256,192,108680,1,0,0:0:0:0:
256,192,108764,1,0,0:0:0:0:
256,192,108847,1,0,0:0:0:0:
256,192,108930,1,8,0:0:0:0:
256,192,109430,1,0,0:0:0:0:
256,192,109514,1,0,0:0:0:0:
256,192,109597,1,8,0:0:0:0:
256,192,109847,1,8,0:0:0:0:
256,192,110097,1,0,0:0:0:0:
256,192,110430,1,4,0:0:0:0:
256,192,110597,12,0,112930,0:0:0:0:
