osu file format v14

[General]
AudioFilename: audio.mp3
AudioLeadIn: 0
PreviewTime: 79680
Countdown: 0
SampleSet: Normal
StackLeniency: 0.2
Mode: 1
LetterboxInBreaks: 0
WidescreenStoryboard: 0

[Editor]
DistanceSpacing: 0.8
BeatDivisor: 8
GridSize: 32
TimelineZoom: 3.049999

[Metadata]
Title:Shippuujinrai
TitleUnicode:疾風迅雷
Artist:KUMOKIRI
ArtistUnicode:KUMOKIRI
Creator:_DUSK_
Version:Genjuro's Inner Oni
Source:beatmania IIDX 21 SPADA
Tags:electronic instrumental video game oriental core oster project genjuro
BeatmapID:2422658
BeatmapSetID:1159251

[Difficulty]
HPDrainRate:6
CircleSize:2
OverallDifficulty:6
ApproachRate:10
SliderMultiplier:1.4
SliderTickRate:1

[Events]
//Background and Video events
0,0,"shippuu.jpg",0,0
//Break Periods
//Storyboard Layer 0 (Background)
//Storyboard Layer 1 (Fail)
//Storyboard Layer 2 (Pass)
//Storyboard Layer 3 (Foreground)
//Storyboard Layer 4 (Overlay)
//Storyboard Sound Samples

[TimingPoints]
931,333.333333333333,4,1,0,100,1,0
931,-133.333333333333,4,1,0,100,0,0
2264,-133.333333333333,4,1,0,100,0,0
12930,-114.285714285714,4,1,0,100,0,0
23597,-100,4,1,0,100,0,0
44972,-133.333333333333,4,1,0,5,0,0
45722,-133.333333333333,4,1,0,50,0,0
45805,-133.333333333333,4,1,0,5,0,0
46055,-133.333333333333,4,1,0,50,0,0
46139,-133.333333333333,4,1,0,5,0,0
46389,-133.333333333333,4,1,0,50,0,0
46555,-133.333333333333,4,1,0,75,0,0
46722,-133.333333333333,4,1,0,50,0,0
46805,-133.333333333333,4,1,0,5,0,0
47222,-133.333333333333,4,1,0,50,0,0
47305,-133.333333333333,4,1,0,5,0,0
47555,-133.333333333333,4,1,0,75,0,0
47805,-133.333333333333,4,1,0,5,0,0
48055,-133.333333333333,4,1,0,25,0,0
48139,-133.333333333333,4,1,0,5,0,0
48389,-133.333333333333,4,1,0,25,0,0
48472,-133.333333333333,4,1,0,5,0,0
48722,-133.333333333333,4,1,0,25,0,0
48805,-133.333333333333,4,1,0,5,0,0
49055,-133.333333333333,4,1,0,25,0,0
49389,-133.333333333333,4,1,0,50,0,0
49472,-133.333333333333,4,1,0,5,0,0
50055,-133.333333333333,4,1,0,50,0,0
50222,-133.333333333333,4,1,0,75,0,0
50305,-133.333333333333,4,1,0,5,0,0
50722,-133.333333333333,4,1,0,50,0,0
50805,-133.333333333333,4,1,0,5,0,0
51055,-133.333333333333,4,1,0,50,0,0
51139,-133.333333333333,4,1,0,5,0,0
51389,-133.333333333333,4,1,0,50,0,0
51472,-133.333333333333,4,1,0,5,0,0
51722,-133.333333333333,4,1,0,50,0,0
51889,-133.333333333333,4,1,0,75,0,0
52055,-133.333333333333,4,1,0,50,0,0
52139,-133.333333333333,4,1,0,5,0,0
52389,-133.333333333333,4,1,0,100,0,0
52639,-133.333333333333,4,1,0,5,0,0
52889,-133.333333333333,4,1,0,75,0,0
53139,-133.333333333333,4,1,0,5,0,0
53389,-133.333333333333,4,1,0,75,0,0
53472,-133.333333333333,4,1,0,5,0,0
54222,-133.333333333333,4,1,0,100,0,0
56264,-200,4,1,0,100,0,0
66264,-100,4,1,0,100,0,1
79542,-100,4,1,0,100,0,0
80930,-100,4,1,0,100,0,1
91597,-100,4,1,0,100,0,0
92764,-133.333333333333,4,1,0,100,0,0
97264,-100,4,1,0,100,0,1
103597,-100,4,1,0,100,0,0
104597,-133.333333333333,4,1,0,100,0,0
106264,-100,4,1,0,100,0,0

[HitObjects]
256,192,2264,5,4,0:0:0:0:
256,192,2764,1,0,0:0:0:0:
256,192,3264,1,0,0:0:0:0:
256,192,3430,1,0,0:0:0:0:
256,192,3514,1,0,0:0:0:0:
256,192,3597,1,8,0:0:0:0:
256,192,3680,1,8,0:0:0:0:
256,192,3764,1,8,0:0:0:0:
256,192,4264,1,0,0:0:0:0:
256,192,4430,1,8,0:0:0:0:
256,192,4597,1,0,0:0:0:0:
256,192,4764,1,8,0:0:0:0:
256,192,4847,1,8,0:0:0:0:
256,192,4930,1,0,0:0:0:0:
256,192,5430,1,0,0:0:0:0:
256,192,5764,1,8,0:0:0:0:
256,192,5930,1,0,0:0:0:0:
256,192,6097,1,8,0:0:0:0:
256,192,6180,1,8,0:0:0:0:
256,192,6264,1,8,0:0:0:0:
256,192,6764,1,0,0:0:0:0:
256,192,6930,1,8,0:0:0:0:
256,192,7014,1,0,0:0:0:0:
256,192,7097,1,0,0:0:0:0:
256,192,7180,1,0,0:0:0:0:
256,192,7264,1,8,0:0:0:0:
256,192,7597,1,4,0:0:0:0:
256,192,8097,1,0,0:0:0:0:
256,192,8597,1,0,0:0:0:0:
256,192,8764,1,0,0:0:0:0:
256,192,8847,1,0,0:0:0:0:
256,192,8930,1,0,0:0:0:0:
256,192,9014,1,8,0:0:0:0:
256,192,9097,1,8,0:0:0:0:
256,192,9430,1,0,0:0:0:0:
256,192,9764,1,8,0:0:0:0:
256,192,9930,1,0,0:0:0:0:
256,192,10097,1,8,0:0:0:0:
256,192,10180,1,8,0:0:0:0:
256,192,10264,1,0,0:0:0:0:
256,192,10764,1,0,0:0:0:0:
256,192,11264,1,8,0:0:0:0:
256,192,11430,1,8,0:0:0:0:
256,192,11514,1,8,0:0:0:0:
256,192,11597,1,8,0:0:0:0:
256,192,11764,1,0,0:0:0:0:
256,192,12264,1,0,0:0:0:0:
256,192,12597,1,8,0:0:0:0:
256,192,12680,1,0,0:0:0:0:
256,192,12764,1,0,0:0:0:0:
256,192,12930,1,4,0:0:0:0:
256,192,13264,1,8,0:0:0:0:
256,192,13430,1,0,0:0:0:0:
256,192,13764,1,0,0:0:0:0:
256,192,13930,1,8,0:0:0:0:
256,192,14264,1,0,0:0:0:0:
256,192,14597,1,8,0:0:0:0:
256,192,14764,1,0,0:0:0:0:
256,192,15097,1,0,0:0:0:0:
256,192,15264,1,8,0:0:0:0:
256,192,15430,1,8,0:0:0:0:
256,192,15597,1,0,0:0:0:0:
256,192,15930,1,8,0:0:0:0:
256,192,16097,1,0,0:0:0:0:
256,192,16430,1,0,0:0:0:0:
256,192,16597,1,8,0:0:0:0:
256,192,16930,1,0,0:0:0:0:
256,192,17264,1,8,0:0:0:0:
256,192,17430,1,0,0:0:0:0:
256,192,17764,1,0,0:0:0:0:
256,192,17930,1,8,0:0:0:0:
256,192,18097,1,8,0:0:0:0:
256,192,18180,1,8,0:0:0:0:
256,192,18264,1,0,0:0:0:0:
256,192,18597,1,8,0:0:0:0:
256,192,18764,1,0,0:0:0:0:
256,192,19097,1,0,0:0:0:0:
256,192,19264,1,8,0:0:0:0:
256,192,19430,1,8,0:0:0:0:
256,192,19597,1,0,0:0:0:0:
256,192,19930,1,0,0:0:0:0:
256,192,20097,1,8,0:0:0:0:
256,192,20264,1,0,0:0:0:0:
256,192,20430,1,0,0:0:0:0:
256,192,20597,1,8,0:0:0:0:
256,192,20930,1,0,0:0:0:0:
256,192,21264,1,8,0:0:0:0:
256,192,21430,1,0,0:0:0:0:
256,192,21764,1,0,0:0:0:0:
256,192,21930,1,8,0:0:0:0:
256,192,22097,1,8,0:0:0:0:
256,192,22264,1,0,0:0:0:0:
256,192,22597,1,8,0:0:0:0:
256,192,22680,1,0,0:0:0:0:
256,192,22764,1,0,0:0:0:0:
256,192,22847,1,0,0:0:0:0:
256,192,22930,1,8,0:0:0:0:
256,192,23097,1,0,0:0:0:0:
256,192,23180,1,0,0:0:0:0:
256,192,23264,1,8,0:0:0:0:
256,192,23347,1,8,0:0:0:0:
256,192,23430,1,0,0:0:0:0:
256,192,23597,1,12,0:0:0:0:
256,192,23764,1,0,0:0:0:0:
256,192,23847,1,0,0:0:0:0:
256,192,23930,1,8,0:0:0:0:
256,192,24097,1,8,0:0:0:0:
256,192,24264,1,0,0:0:0:0:
256,192,24430,1,8,0:0:0:0:
256,192,24514,1,8,0:0:0:0:
256,192,24597,1,0,0:0:0:0:
256,192,24764,1,0,0:0:0:0:
256,192,24847,1,0,0:0:0:0:
256,192,24930,1,8,0:0:0:0:
256,192,25014,1,8,0:0:0:0:
256,192,25180,1,0,0:0:0:0:
256,192,25264,1,8,0:0:0:0:
256,192,25347,1,0,0:0:0:0:
256,192,25430,1,8,0:0:0:0:
256,192,25514,1,8,0:0:0:0:
256,192,25597,1,0,0:0:0:0:
256,192,25764,1,0,0:0:0:0:
256,192,25847,1,0,0:0:0:0:
256,192,25930,1,8,0:0:0:0:
256,192,26097,1,8,0:0:0:0:
256,192,26264,1,0,0:0:0:0:
256,192,26430,1,8,0:0:0:0:
256,192,26514,1,0,0:0:0:0:
256,192,26597,1,8,0:0:0:0:
256,192,26680,1,8,0:0:0:0:
256,192,26847,1,0,0:0:0:0:
256,192,26930,1,8,0:0:0:0:
256,192,27097,1,0,0:0:0:0:
256,192,27180,1,0,0:0:0:0:
256,192,27264,1,8,0:0:0:0:
256,192,27430,1,8,0:0:0:0:
256,192,27514,1,8,0:0:0:0:
256,192,27597,1,0,0:0:0:0:
256,192,27764,1,8,0:0:0:0:
256,192,27930,1,8,0:0:0:0:
256,192,28014,1,8,0:0:0:0:
256,192,28097,1,8,0:0:0:0:
256,192,28180,1,8,0:0:0:0:
256,192,28264,1,0,0:0:0:0:
256,192,28430,1,0,0:0:0:0:
256,192,28514,1,0,0:0:0:0:
256,192,28597,1,8,0:0:0:0:
256,192,28680,1,0,0:0:0:0:
256,192,28764,1,8,0:0:0:0:
256,192,28930,1,0,0:0:0:0:
256,192,29014,1,8,0:0:0:0:
256,192,29180,1,8,0:0:0:0:
256,192,29264,1,8,0:0:0:0:
256,192,29347,1,8,0:0:0:0:
256,192,29430,1,0,0:0:0:0:
256,192,29597,1,8,0:0:0:0:
256,192,29680,1,0,0:0:0:0:
256,192,29764,1,0,0:0:0:0:
256,192,29847,1,8,0:0:0:0:
256,192,29930,1,8,0:0:0:0:
256,192,30097,1,0,0:0:0:0:
256,192,30264,1,8,0:0:0:0:
256,192,30430,1,0,0:0:0:0:
256,192,30514,1,8,0:0:0:0:
256,192,30680,1,8,0:0:0:0:
256,192,30764,1,0,0:0:0:0:
256,192,30930,1,8,0:0:0:0:
256,192,31097,1,0,0:0:0:0:
256,192,31264,1,8,0:0:0:0:
256,192,31430,1,8,0:0:0:0:
256,192,31597,1,0,0:0:0:0:
256,192,31764,1,0,0:0:0:0:
256,192,31847,1,0,0:0:0:0:
256,192,31930,1,8,0:0:0:0:
256,192,32014,1,8,0:0:0:0:
256,192,32097,1,8,0:0:0:0:
256,192,32264,1,8,0:0:0:0:
256,192,32347,1,8,0:0:0:0:
256,192,32430,1,0,0:0:0:0:
256,192,32514,1,8,0:0:0:0:
256,192,32597,1,0,0:0:0:0:
256,192,32680,1,0,0:0:0:0:
256,192,32764,1,8,0:0:0:0:
256,192,32930,1,0,0:0:0:0:
256,192,33014,1,8,0:0:0:0:
256,192,33180,1,8,0:0:0:0:
256,192,33264,1,8,0:0:0:0:
256,192,33347,1,0,0:0:0:0:
256,192,33430,1,0,0:0:0:0:
256,192,33597,1,8,0:0:0:0:
256,192,33764,1,8,0:0:0:0:
256,192,33819,1,8,0:0:0:0:
256,192,33875,1,8,0:0:0:0:
256,192,33930,1,0,0:0:0:0:
256,192,34014,1,0,0:0:0:0:
256,192,34097,1,8,0:0:0:0:
256,192,34264,1,4,0:0:0:0:
256,192,34514,1,8,0:0:0:0:
256,192,34597,1,0,0:0:0:0:
256,192,34764,1,8,0:0:0:0:
256,192,34930,1,0,0:0:0:0:
256,192,35014,1,8,0:0:0:0:
256,192,35180,1,8,0:0:0:0:
256,192,35264,1,0,0:0:0:0:
256,192,35430,1,8,0:0:0:0:
256,192,35597,1,0,0:0:0:0:
256,192,35847,1,8,0:0:0:0:
256,192,35930,1,0,0:0:0:0:
256,192,36097,1,8,0:0:0:0:
256,192,36264,1,0,0:0:0:0:
256,192,36347,1,8,0:0:0:0:
256,192,36430,1,8,0:0:0:0:
256,192,36514,1,8,0:0:0:0:
256,192,36597,1,0,0:0:0:0:
256,192,36764,1,8,0:0:0:0:
256,192,36930,1,0,0:0:0:0:
256,192,37180,1,8,0:0:0:0:
256,192,37264,1,0,0:0:0:0:
256,192,37430,1,8,0:0:0:0:
256,192,37597,1,0,0:0:0:0:
256,192,37680,1,8,0:0:0:0:
256,192,37847,1,8,0:0:0:0:
256,192,37930,1,0,0:0:0:0:
256,192,38097,1,8,0:0:0:0:
256,192,38264,1,0,0:0:0:0:
256,192,38514,1,8,0:0:0:0:
256,192,38597,1,0,0:0:0:0:
256,192,38764,1,8,0:0:0:0:
256,192,38930,1,0,0:0:0:0:
256,192,39014,1,8,0:0:0:0:
256,192,39097,1,8,0:0:0:0:
256,192,39180,1,8,0:0:0:0:
256,192,39264,1,0,0:0:0:0:
256,192,39347,1,0,0:0:0:0:
256,192,39430,1,8,0:0:0:0:
256,192,39597,1,0,0:0:0:0:
256,192,39847,1,8,0:0:0:0:
256,192,39930,1,0,0:0:0:0:
256,192,40097,1,8,0:0:0:0:
256,192,40264,1,0,0:0:0:0:
256,192,40347,1,8,0:0:0:0:
256,192,40430,1,0,0:0:0:0:
256,192,40597,1,8,0:0:0:0:
256,192,40764,1,8,0:0:0:0:
256,192,40930,1,0,0:0:0:0:
256,192,41180,1,8,0:0:0:0:
256,192,41264,1,0,0:0:0:0:
256,192,41430,1,8,0:0:0:0:
256,192,41597,1,0,0:0:0:0:
256,192,41680,1,8,0:0:0:0:
256,192,41764,1,0,0:0:0:0:
256,192,41847,1,0,0:0:0:0:
256,192,41930,1,8,0:0:0:0:
256,192,42097,1,8,0:0:0:0:
256,192,42264,1,0,0:0:0:0:
256,192,42514,1,8,0:0:0:0:
256,192,42597,1,0,0:0:0:0:
256,192,42764,1,8,0:0:0:0:
256,192,42930,1,0,0:0:0:0:
256,192,43014,1,8,0:0:0:0:
256,192,43097,1,0,0:0:0:0:
256,192,43264,1,8,0:0:0:0:
256,192,43430,1,8,0:0:0:0:
256,192,43597,1,0,0:0:0:0:
256,192,43847,1,8,0:0:0:0:
256,192,43930,1,0,0:0:0:0:
256,192,44097,1,8,0:0:0:0:
256,192,44264,1,0,0:0:0:0:
256,192,44347,1,8,0:0:0:0:
256,192,44430,1,0,0:0:0:0:
256,192,44514,1,0,0:0:0:0:
256,192,44597,1,8,0:0:0:0:
256,192,44680,1,0,0:0:0:0:
256,192,44764,1,8,0:0:0:0:
256,192,44930,1,4,0:0:0:0:
256,192,45764,1,0,0:0:0:0:
256,192,46097,1,0,0:0:0:0:
256,192,46430,1,0,0:0:0:0:
256,192,46597,1,8,0:0:0:0:
256,192,46764,1,8,0:0:0:0:
256,192,47264,1,0,0:0:0:0:
256,192,47597,1,8,0:0:0:0:
256,192,47764,1,0,0:0:0:0:
256,192,48097,1,8,0:0:0:0:
256,192,48430,1,8,0:0:0:0:
256,192,48764,1,8,0:0:0:0:
256,192,49097,1,8,0:0:0:0:
256,192,49264,1,8,0:0:0:0:
256,192,49430,1,0,0:0:0:0:
256,192,50097,1,0,0:0:0:0:
256,192,50264,1,8,0:0:0:0:
256,192,50764,1,0,0:0:0:0:
256,192,51097,1,0,0:0:0:0:
256,192,51430,1,0,0:0:0:0:
256,192,51764,1,0,0:0:0:0:
256,192,51930,1,8,0:0:0:0:
256,192,52097,1,8,0:0:0:0:
256,192,52430,1,0,0:0:0:0:
256,192,52514,1,0,0:0:0:0:
256,192,52597,1,0,0:0:0:0:
256,192,52930,1,8,0:0:0:0:
256,192,53097,1,0,0:0:0:0:
256,192,53430,1,8,0:0:0:0:
256,192,54264,1,0,0:0:0:0:
256,192,54430,1,8,0:0:0:0:
256,192,54597,1,8,0:0:0:0:
256,192,54764,1,8,0:0:0:0:
256,192,54930,1,8,0:0:0:0:
256,192,55097,1,8,0:0:0:0:
256,192,55264,1,8,0:0:0:0:
256,192,55430,1,8,0:0:0:0:
256,192,55597,1,4,0:0:0:0:
256,192,56264,1,8,0:0:0:0:
256,192,56930,1,0,0:0:0:0:
256,192,57264,1,0,0:0:0:0:
256,192,57597,1,8,0:0:0:0:
256,192,58097,1,0,0:0:0:0:
256,192,58264,1,0,0:0:0:0:
256,192,58930,1,8,0:0:0:0:
256,192,59930,1,0,0:0:0:0:
256,192,60264,1,8,0:0:0:0:
256,192,60430,1,0,0:0:0:0:
256,192,60930,1,0,0:0:0:0:
256,192,61597,1,8,0:0:0:0:
256,192,62097,1,0,0:0:0:0:
256,192,62180,1,0,0:0:0:0:
256,192,62264,1,0,0:0:0:0:
256,192,62514,1,0,0:0:0:0:
256,192,62764,1,0,0:0:0:0:
256,192,62930,1,8,0:0:0:0:
256,192,63597,1,4,0:0:0:0:
256,192,64930,1,0,0:0:0:0:
256,192,65097,1,8,0:0:0:0:
256,192,65264,1,8,0:0:0:0:
256,192,65430,1,8,0:0:0:0:
256,192,65597,1,8,0:0:0:0:
256,192,65764,1,8,0:0:0:0:
256,192,65930,1,8,0:0:0:0:
256,192,66097,1,8,0:0:0:0:
256,192,66264,1,0,0:0:0:0:
256,192,66347,1,0,0:0:0:0:
256,192,66430,1,8,0:0:0:0:
256,192,66597,1,0,0:0:0:0:
256,192,66764,1,8,0:0:0:0:
256,192,66847,1,0,0:0:0:0:
256,192,66930,1,8,0:0:0:0:
256,192,67097,1,0,0:0:0:0:
256,192,67264,1,8,0:0:0:0:
256,192,67347,1,8,0:0:0:0:
256,192,67430,1,0,0:0:0:0:
256,192,67597,1,8,0:0:0:0:
256,192,67680,1,0,0:0:0:0:
256,192,67764,1,8,0:0:0:0:
256,192,67847,1,8,0:0:0:0:
256,192,67930,1,0,0:0:0:0:
256,192,68014,1,8,0:0:0:0:
256,192,68097,1,0,0:0:0:0:
256,192,68180,1,0,0:0:0:0:
256,192,68264,1,8,0:0:0:0:
256,192,68430,1,0,0:0:0:0:
256,192,68597,1,8,0:0:0:0:
256,192,68680,1,8,0:0:0:0:
256,192,68764,1,0,0:0:0:0:
256,192,68930,1,0,0:0:0:0:
256,192,69014,1,0,0:0:0:0:
256,192,69097,1,8,0:0:0:0:
256,192,69180,1,0,0:0:0:0:
256,192,69264,1,8,0:0:0:0:
256,192,69347,1,8,0:0:0:0:
256,192,69430,1,0,0:0:0:0:
256,192,69597,1,8,0:0:0:0:
256,192,69680,1,0,0:0:0:0:
256,192,69764,1,8,0:0:0:0:
256,192,69847,1,8,0:0:0:0:
256,192,69930,1,0,0:0:0:0:
256,192,70014,1,8,0:0:0:0:
256,192,70097,1,0,0:0:0:0:
256,192,70264,1,8,0:0:0:0:
256,192,70430,1,8,0:0:0:0:
256,192,70597,1,8,0:0:0:0:
256,192,70680,1,8,0:0:0:0:
256,192,70764,1,0,0:0:0:0:
256,192,70930,1,0,0:0:0:0:
256,192,71014,1,8,0:0:0:0:
256,192,71097,1,0,0:0:0:0:
256,192,71180,1,0,0:0:0:0:
256,192,71264,1,8,0:0:0:0:
256,192,71347,1,8,0:0:0:0:
256,192,71430,1,0,0:0:0:0:
256,192,71597,1,8,0:0:0:0:
256,192,71764,1,0,0:0:0:0:
256,192,71847,1,0,0:0:0:0:
256,192,71930,1,8,0:0:0:0:
256,192,72097,1,0,0:0:0:0:
256,192,72264,1,8,0:0:0:0:
256,192,72347,1,0,0:0:0:0:
256,192,72430,1,0,0:0:0:0:
256,192,72514,1,0,0:0:0:0:
256,192,72597,1,8,0:0:0:0:
256,192,72764,1,0,0:0:0:0:
256,192,72930,1,8,0:0:0:0:
256,192,73014,1,8,0:0:0:0:
256,192,73097,1,0,0:0:0:0:
256,192,73180,1,8,0:0:0:0:
256,192,73264,1,0,0:0:0:0:
256,192,73347,1,0,0:0:0:0:
256,192,73430,1,8,0:0:0:0:
256,192,73514,1,0,0:0:0:0:
256,192,73597,1,8,0:0:0:0:
256,192,73680,1,8,0:0:0:0:
256,192,73764,1,0,0:0:0:0:
256,192,73847,1,8,0:0:0:0:
256,192,73930,1,8,0:0:0:0:
256,192,74014,1,8,0:0:0:0:
256,192,74097,1,0,0:0:0:0:
256,192,74264,1,8,0:0:0:0:
256,192,74347,1,0,0:0:0:0:
256,192,74430,1,8,0:0:0:0:
256,192,74514,1,8,0:0:0:0:
256,192,74597,1,0,0:0:0:0:
256,192,74680,1,8,0:0:0:0:
256,192,74764,1,0,0:0:0:0:
256,192,74847,1,0,0:0:0:0:
256,192,74930,1,8,0:0:0:0:
256,192,75014,1,8,0:0:0:0:
256,192,75097,1,8,0:0:0:0:
256,192,75180,1,0,0:0:0:0:
256,192,75264,1,8,0:0:0:0:
256,192,75347,1,8,0:0:0:0:
256,192,75430,1,0,0:0:0:0:
256,192,75597,1,8,0:0:0:0:
256,192,75680,1,8,0:0:0:0:
256,192,75764,1,0,0:0:0:0:
256,192,75847,1,8,0:0:0:0:
256,192,75930,1,0,0:0:0:0:
256,192,76014,1,0,0:0:0:0:
256,192,76097,1,8,0:0:0:0:
256,192,76180,1,0,0:0:0:0:
256,192,76264,1,8,0:0:0:0:
256,192,76347,1,8,0:0:0:0:
256,192,76430,1,8,0:0:0:0:
256,192,76514,1,0,0:0:0:0:
256,192,76597,1,8,0:0:0:0:
256,192,76680,1,8,0:0:0:0:
256,192,76764,1,8,0:0:0:0:
256,192,76847,1,0,0:0:0:0:
256,192,76930,1,8,0:0:0:0:
256,192,77014,1,0,0:0:0:0:
256,192,77097,1,8,0:0:0:0:
256,192,77180,1,8,0:0:0:0:
256,192,77264,1,0,0:0:0:0:
256,192,77347,1,8,0:0:0:0:
256,192,77430,1,0,0:0:0:0:
256,192,77514,1,0,0:0:0:0:
256,192,77597,1,8,0:0:0:0:
256,192,77680,1,8,0:0:0:0:
256,192,77764,1,0,0:0:0:0:
256,192,77847,1,8,0:0:0:0:
256,192,77930,1,8,0:0:0:0:
256,192,78014,1,8,0:0:0:0:
256,192,78097,1,0,0:0:0:0:
256,192,78264,1,8,0:0:0:0:
256,192,78347,1,8,0:0:0:0:
256,192,78430,1,0,0:0:0:0:
256,192,78514,1,0,0:0:0:0:
256,192,78597,1,8,0:0:0:0:
256,192,78680,1,0,0:0:0:0:
256,192,78764,1,8,0:0:0:0:
256,192,78847,1,0,0:0:0:0:
256,192,78930,1,8,0:0:0:0:
256,192,79014,1,8,0:0:0:0:
256,192,79097,1,0,0:0:0:0:
256,192,79180,1,0,0:0:0:0:
256,192,79264,1,8,0:0:0:0:
256,192,79319,1,8,0:0:0:0:
256,192,79375,1,8,0:0:0:0:
256,192,79430,1,8,0:0:0:0:
256,192,79486,1,8,0:0:0:0:
256,192,79542,1,8,0:0:0:0:
256,192,80264,1,0,0:0:0:0:
256,192,80430,1,8,0:0:0:0:
256,192,80597,1,8,0:0:0:0:
256,192,80764,1,8,0:0:0:0:
256,192,80930,1,4,0:0:0:0:
256,192,81180,1,8,0:0:0:0:
256,192,81264,1,0,0:0:0:0:
256,192,81430,1,8,0:0:0:0:
256,192,81597,1,0,0:0:0:0:
256,192,81764,1,8,0:0:0:0:
256,192,81847,1,8,0:0:0:0:
256,192,81930,1,0,0:0:0:0:
256,192,82014,1,0,0:0:0:0:
256,192,82097,1,8,0:0:0:0:
256,192,82264,1,0,0:0:0:0:
256,192,82430,1,8,0:0:0:0:
256,192,82514,1,0,0:0:0:0:
256,192,82597,1,8,0:0:0:0:
256,192,82680,1,8,0:0:0:0:
256,192,82764,1,0,0:0:0:0:
256,192,82930,1,0,0:0:0:0:
256,192,83014,1,8,0:0:0:0:
256,192,83180,1,8,0:0:0:0:
256,192,83264,1,0,0:0:0:0:
256,192,83347,1,0,0:0:0:0:
256,192,83430,1,8,0:0:0:0:
256,192,83597,1,8,0:0:0:0:
256,192,83847,1,0,0:0:0:0:
256,192,83930,1,8,0:0:0:0:
256,192,84097,1,0,0:0:0:0:
256,192,84180,1,0,0:0:0:0:
256,192,84264,1,8,0:0:0:0:
256,192,84430,1,0,0:0:0:0:
256,192,84514,1,0,0:0:0:0:
256,192,84597,1,8,0:0:0:0:
256,192,84680,1,8,0:0:0:0:
256,192,84764,1,8,0:0:0:0:
256,192,84930,1,8,0:0:0:0:
256,192,85097,1,0,0:0:0:0:
256,192,85180,1,8,0:0:0:0:
256,192,85264,1,8,0:0:0:0:
256,192,85347,1,0,0:0:0:0:
256,192,85430,1,0,0:0:0:0:
256,192,85597,1,8,0:0:0:0:
256,192,85680,1,8,0:0:0:0:
256,192,85764,1,0,0:0:0:0:
256,192,85930,1,8,0:0:0:0:
256,192,86014,1,8,0:0:0:0:
256,192,86097,1,0,0:0:0:0:
256,192,86264,1,8,0:0:0:0:
256,192,86514,1,0,0:0:0:0:
256,192,86597,1,8,0:0:0:0:
256,192,86764,1,8,0:0:0:0:
256,192,86930,1,0,0:0:0:0:
256,192,87097,1,8,0:0:0:0:
256,192,87180,1,8,0:0:0:0:
256,192,87264,1,0,0:0:0:0:
256,192,87347,1,0,0:0:0:0:
256,192,87430,1,8,0:0:0:0:
256,192,87597,1,0,0:0:0:0:
256,192,87764,1,0,0:0:0:0:
256,192,87847,1,8,0:0:0:0:
256,192,87930,1,0,0:0:0:0:
256,192,88097,1,8,0:0:0:0:
256,192,88264,1,8,0:0:0:0:
256,192,88347,1,8,0:0:0:0:
256,192,88430,1,8,0:0:0:0:
256,192,88514,1,0,0:0:0:0:
256,192,88597,1,8,0:0:0:0:
256,192,88764,1,0,0:0:0:0:
256,192,88930,1,8,0:0:0:0:
256,192,89097,1,0,0:0:0:0:
256,192,89180,1,8,0:0:0:0:
256,192,89347,1,0,0:0:0:0:
256,192,89430,1,8,0:0:0:0:
256,192,89514,1,8,0:0:0:0:
256,192,89597,1,0,0:0:0:0:
256,192,89764,1,0,0:0:0:0:
256,192,89847,1,0,0:0:0:0:
256,192,89930,1,8,0:0:0:0:
256,192,90097,1,8,0:0:0:0:
256,192,90180,1,8,0:0:0:0:
256,192,90264,1,0,0:0:0:0:
256,192,90430,1,8,0:0:0:0:
256,192,90597,1,8,0:0:0:0:
256,192,90764,1,8,0:0:0:0:
256,192,90930,1,8,0:0:0:0:
256,192,91014,1,0,0:0:0:0:
256,192,91097,1,8,0:0:0:0:
256,192,91180,1,0,0:0:0:0:
256,192,91264,1,8,0:0:0:0:
256,192,91347,1,0,0:0:0:0:
256,192,91430,1,8,0:0:0:0:
256,192,91597,1,4,0:0:0:0:
256,192,92764,1,0,0:0:0:0:
256,192,92930,1,0,0:0:0:0:
256,192,94097,1,0,0:0:0:0:
256,192,94180,1,0,0:0:0:0:
256,192,94264,1,0,0:0:0:0:
256,192,94764,1,0,0:0:0:0:
256,192,94847,1,0,0:0:0:0:
256,192,94930,1,0,0:0:0:0:
256,192,95180,1,0,0:0:0:0:
256,192,95430,1,0,0:0:0:0:
256,192,95514,1,0,0:0:0:0:
256,192,95597,1,0,0:0:0:0:
256,192,96264,1,0,0:0:0:0:
256,192,96375,1,0,0:0:0:0:
256,192,96486,1,0,0:0:0:0:
256,192,96597,1,8,0:0:0:0:
256,192,96708,1,8,0:0:0:0:
256,192,96819,1,8,0:0:0:0:
256,192,96930,1,0,0:0:0:0:
256,192,97264,1,12,0:0:0:0:
256,192,97597,1,0,0:0:0:0:
256,192,97708,1,0,0:0:0:0:
256,192,97819,1,0,0:0:0:0:
256,192,97930,1,8,0:0:0:0:
256,192,98153,1,8,0:0:0:0:
256,192,98264,1,0,0:0:0:0:
256,192,98375,1,8,0:0:0:0:
256,192,98486,1,8,0:0:0:0:
256,192,98597,1,0,0:0:0:0:
256,192,98819,1,8,0:0:0:0:
256,192,98930,1,0,0:0:0:0:
256,192,99153,1,8,0:0:0:0:
256,192,99375,1,8,0:0:0:0:
256,192,99597,1,0,0:0:0:0:
256,192,100097,1,8,0:0:0:0:
256,192,100180,1,8,0:0:0:0:
256,192,100264,1,0,0:0:0:0:
256,192,100597,1,8,0:0:0:0:
256,192,100764,1,8,0:0:0:0:
256,192,100847,1,8,0:0:0:0:
256,192,100930,1,0,0:0:0:0:
256,192,101097,1,0,0:0:0:0:
256,192,101264,1,8,0:0:0:0:
256,192,101430,1,8,0:0:0:0:
256,192,101597,1,0,0:0:0:0:
256,192,101764,1,0,0:0:0:0:
256,192,101930,1,8,0:0:0:0:
256,192,102097,1,8,0:0:0:0:
256,192,102264,1,0,0:0:0:0:
256,192,102347,1,0,0:0:0:0:
256,192,102430,1,8,0:0:0:0:
256,192,102514,1,0,0:0:0:0:
256,192,102597,1,8,0:0:0:0:
256,192,102680,1,8,0:0:0:0:
256,192,102764,1,0,0:0:0:0:
256,192,102847,1,8,0:0:0:0:
256,192,102930,1,0,0:0:0:0:
256,192,102986,1,0,0:0:0:0:
256,192,103042,1,0,0:0:0:0:
256,192,103097,1,8,0:0:0:0:
256,192,103180,1,8,0:0:0:0:
256,192,103264,1,0,0:0:0:0:
256,192,103319,1,0,0:0:0:0:
256,192,103375,1,0,0:0:0:0:
256,192,103430,1,8,0:0:0:0:
256,192,103597,1,4,0:0:0:0:
256,192,104597,1,0,0:0:0:0:
256,192,104680,1,0,0:0:0:0:
256,192,104764,1,0,0:0:0:0:
256,192,104930,1,0,0:0:0:0:
256,192,105097,1,0,0:0:0:0:
256,192,105264,1,0,0:0:0:0:
256,192,105430,1,0,0:0:0:0:
256,192,105514,1,0,0:0:0:0:
256,192,105597,1,0,0:0:0:0:
256,192,105680,1,0,0:0:0:0:
256,192,105764,1,8,0:0:0:0:
256,192,105930,1,8,0:0:0:0:
256,192,106014,1,0,0:0:0:0:
256,192,106097,1,8,0:0:0:0:
256,192,106264,1,0,0:0:0:0:
256,192,106430,1,8,0:0:0:0:
256,192,106514,1,8,0:0:0:0:
256,192,106597,1,0,0:0:0:0:
256,192,106680,1,8,0:0:0:0:
256,192,106764,1,0,0:0:0:0:
256,192,106847,1,0,0:0:0:0:
256,192,106930,1,8,0:0:0:0:
256,192,107014,1,0,0:0:0:0:
256,192,107097,1,8,0:0:0:0:
256,192,107180,1,8,0:0:0:0:
256,192,107264,1,0,0:0:0:0:
256,192,107430,1,0,0:0:0:0:
256,192,107514,1,0,0:0:0:0:
256,192,107597,1,8,0:0:0:0:
256,192,107764,1,0,0:0:0:0:
256,192,107847,1,0,0:0:0:0:
256,192,107930,1,8,0:0:0:0:
256,192,108014,1,0,0:0:0:0:
256,192,108097,1,8,0:0:0:0:
256,192,108264,1,8,0:0:0:0:
256,192,108430,1,8,0:0:0:0:
256,192,108514,1,0,0:0:0:0:
256,192,108597,1,8,0:0:0:0:
256,192,108680,1,0,0:0:0:0:
256,192,108764,1,8,0:0:0:0:
256,192,108930,1,12,0:0:0:0:
256,192,109430,1,0,0:0:0:0:
256,192,109514,1,0,0:0:0:0:
256,192,109597,1,8,0:0:0:0:
256,192,109847,1,8,0:0:0:0:
256,192,110097,1,0,0:0:0:0:
256,192,110430,1,4,0:0:0:0:
256,192,110597,8,0,112930,0:0:0:0:
