osu file format v14

[General]
AudioFilename: audio.mp3
AudioLeadIn: 0
PreviewTime: 79545
Countdown: 0
SampleSet: Soft
StackLeniency: 0.7
Mode: 0
LetterboxInBreaks: 0
WidescreenStoryboard: 1

[Editor]
Bookmarks: 12878,23545,34211,44878,55545,66212,72878,79545,80878,91545,92878,94212,94878,95545,96878,103545,108878,110378
DistanceSpacing: 1.2
BeatDivisor: 4
GridSize: 32
TimelineZoom: 2.8

[Metadata]
Title:Shippuujinrai
TitleUnicode:疾風迅雷
Artist:KUMOKIRI
ArtistUnicode:KUMOKIRI
Creator:Kloyd
Version:Expert
Source:beatmania IIDX 21 SPADA
Tags:bemani konami instrumental electronic OSTER Project azer OWC2021gfhr2 GanyuMyMommy PaRaDogi ReaL Motion Allice Nytrocide_ Nytro Calliecube Obamacube Smokebloke
BeatmapID:3331199
BeatmapSetID:1631947

[Difficulty]
HPDrainRate:5.5
CircleSize:5
OverallDifficulty:9
ApproachRate:9.5
SliderMultiplier:1.74
SliderTickRate:1

[Events]
//Background and Video events
0,0,"74208139_p0.png",0,0
//Break Periods
//Storyboard Layer 0 (Background)
//Storyboard Layer 1 (Fail)
//Storyboard Layer 2 (Pass)
//Storyboard Layer 3 (Foreground)
//Storyboard Layer 4 (Overlay)
//Storyboard Sound Samples

[TimingPoints]
545,333.333333333333,4,2,1,70,1,0
1544,-71.4285714285714,4,2,1,70,0,0
2212,333.333333333333,4,2,1,70,1,0
2212,-133.333333333333,4,2,1,70,0,0
2378,-133.333333333333,4,2,1,50,0,0
3545,-133.333333333333,4,2,1,70,0,0
4045,-133.333333333333,4,2,1,50,0,0
4711,-133.333333333333,4,2,1,30,0,0
4878,-133.333333333333,4,2,1,50,0,0
6045,-133.333333333333,4,2,1,70,0,0
6378,-133.333333333333,4,2,1,50,0,0
6711,-133.333333333333,4,2,1,30,0,0
6878,-133.333333333333,4,2,1,50,0,0
7045,-133.333333333333,4,2,1,70,0,0
7211,-66.6666666666667,4,2,1,70,0,0
7545,-100,4,2,1,70,0,0
7711,-100,4,2,1,50,0,0
8878,-100,4,2,1,70,0,0
9295,-100,4,2,1,30,0,0
9378,-100,4,2,1,70,0,0
9545,-100,4,2,1,50,0,0
9878,-100,4,2,1,70,0,0
10045,-100,4,2,1,30,0,0
10211,-100,4,2,1,70,0,0
10378,-100,4,2,1,50,0,0
10711,-100,4,2,1,70,0,0
12211,-62.5,4,2,1,70,0,0
12545,-100,4,2,1,70,0,0
13878,-303.030303030303,4,2,1,70,0,0
14128,-303.030303030303,4,2,1,30,0,0
14211,-303.030303030303,4,2,1,70,0,0
15461,-303.030303030303,4,2,1,30,0,0
15545,-303.030303030303,4,2,1,70,0,0
16045,-100,4,2,1,70,0,0
16545,-303.030303030303,4,2,1,70,0,0
16795,-303.030303030303,4,2,1,30,0,0
16878,-100,4,2,1,70,0,0
17711,-100,4,2,1,50,0,0
17878,-200,4,2,1,70,0,0
18211,-100,4,2,1,70,0,0
19211,-303.030303030303,4,2,1,70,0,0
19461,-303.030303030303,4,2,1,30,0,0
19545,-303.030303030303,4,2,1,70,0,0
20795,-303.030303030303,4,2,1,30,0,0
20878,-303.030303030303,4,2,1,70,0,0
22128,-303.030303030303,4,2,1,30,0,0
22211,-125,4,2,1,70,0,0
22461,-125,4,2,1,30,0,0
22545,-125,4,2,1,50,0,0
22878,-125,4,2,1,60,0,0
23211,-125,4,2,1,70,0,0
23545,-83.3333333333333,4,2,1,70,0,0
27961,-83.3333333333333,4,2,1,50,0,0
28211,-83.3333333333333,4,2,1,70,0,0
28545,-83.3333333333333,4,2,1,50,0,0
28711,-83.3333333333333,4,2,1,60,0,0
28878,-83.3333333333333,4,2,1,70,0,0
32878,-66.6666666666667,4,2,1,70,0,0
33211,-83.3333333333333,4,2,1,70,0,0
33545,-66.6666666666667,4,2,1,70,0,0
34211,-83.3333333333333,4,2,1,70,0,0
44545,-83.3333333333333,4,2,1,80,0,0
45045,-83.3333333333333,4,2,1,50,0,0
50211,-125,4,2,1,50,0,0
54211,-125,4,2,1,70,0,0
63711,-125,4,2,1,50,0,0
64878,-125,4,2,1,70,0,0
68378,-100,4,2,1,70,0,0
72878,-100,4,2,1,80,0,0
79211,-100,4,2,1,70,0,0
80878,-80,4,2,1,80,0,0
81545,-80,4,2,1,80,0,0
91711,-80,4,2,1,60,0,0
92711,-80,4,2,1,80,0,0
93045,-80,4,2,1,60,0,0
94045,-80,4,2,1,80,0,0
94378,-80,4,2,1,60,0,0
94711,-80,4,2,1,80,0,0
95711,-80,4,2,1,60,0,0
96211,-80,4,2,1,80,0,0
96878,-80,4,2,1,70,0,0
102378,-80,4,2,1,50,0,0
102545,-80,4,2,1,70,0,0
102711,-80,4,2,1,50,0,0
102878,-80,4,2,1,70,0,0
103045,-80,4,2,1,50,0,0
103211,-80,4,2,1,70,0,0
103378,-80,4,2,1,50,0,0
103545,-80,4,2,1,70,0,0
103628,-80,4,2,1,40,0,0
104878,-80,4,2,1,50,0,0
106211,-80,4,2,1,60,0,0
107545,-80,4,2,1,70,0,0
108878,-80,4,2,1,80,0,0

[Colours]
Combo1 : 255,174,94
Combo2 : 0,120,179
Combo3 : 0,170,219
Combo4 : 255,62,62
Combo5 : 229,229,229
Combo6 : 255,255,183

[HitObjects]
256,192,545,12,0,1378,0:0:0:0:
133,295,1544,6,0,B|150:288|151:266|151:266|213:296|255:374|255:374|255:266|205:184|205:184|206:159|217:148,1,426.299986990357
276,115,2211,5,4,1:2:0:0:
340,128,2378,1,0,0:0:0:0:
404,141,2545,1,0,0:0:0:0:
467,154,2711,1,2,3:0:0:0:
467,154,3045,1,0,2:0:0:0:
350,212,3211,1,2,3:0:0:0:
468,264,3378,5,0,0:0:0:0:
468,264,3461,1,0,3:0:0:0:
468,264,3545,1,0,3:0:0:0:
448,238,3628,1,0,3:0:0:0:
428,212,3711,2,0,L|456:341,1,130.50000497818,8|0,3:2|0:0,0:0:0:0:
378,368,4128,1,0,0:0:0:0:
378,368,4211,5,0,3:0:0:0:
256,192,4378,1,8,3:0:0:0:
134,368,4545,1,0,3:0:0:0:
256,352,4711,1,0,3:0:0:0:
259,335,4795,1,0,3:0:0:0:
262,319,4878,5,2,3:0:0:0:
199,300,5045,1,0,0:0:0:0:
136,282,5211,1,0,0:0:0:0:
73,264,5378,1,2,3:0:0:0:
73,264,5711,1,8,0:0:0:0:
134,368,5878,1,0,3:0:0:0:
165,358,5961,1,0,3:0:0:0:
196,348,6045,1,0,3:0:0:0:
227,339,6128,1,0,3:0:0:0:
258,330,6211,5,0,3:0:0:0:
34,333,6378,1,8,0:0:0:0:
34,333,6461,2,0,L|54:210,1,97.8750037336351,8|0,0:0|1:0,0:0:0:0:
23,158,6795,1,0,1:0:0:0:
23,158,6878,5,0,1:0:0:0:
60,168,6961,1,0,1:0:0:0:
99,165,7045,1,0,1:0:0:0:
133,146,7128,1,0,1:0:0:0:
158,116,7211,2,0,B|202:77|173:6|173:6|200:48|240:45,1,195.75000746727,0|0,1:0|0:0,0:0:0:0:
299,16,7545,5,4,1:2:0:0:
280,100,7711,1,0,0:0:0:0:
261,185,7878,1,0,0:0:0:0:
242,270,8045,5,2,1:2:0:0:
280,100,8378,1,0,0:0:0:0:
242,270,8545,1,2,0:2:0:0:
280,100,8711,2,0,L|332:88,1,43.5,0|0,3:0|3:0,0:0:0:0:
261,185,8878,1,2,3:0:0:0:
240,191,8961,1,0,3:0:0:0:
218,197,9045,2,0,P|159:186|146:122,1,130.5,8|0,3:2|0:0,0:0:0:0:
186,67,9378,5,0,1:0:0:0:
85,181,9545,1,0,0:0:0:0:
1,1,9711,1,0,0:0:0:0:
130,21,9878,1,0,1:0:0:0:
15,242,10045,1,0,3:0:0:0:
8,221,10128,1,0,3:0:0:0:
1,200,10211,5,4,1:2:0:0:
85,181,10377,1,0,0:0:0:0:
170,162,10544,1,0,0:0:0:0:
255,143,10711,5,2,1:2:0:0:
85,181,11045,1,0,0:0:0:0:
255,143,11211,1,0,3:0:0:0:
264,174,11295,1,0,3:0:0:0:
248,202,11378,1,0,3:0:0:0:
238,233,11461,1,0,3:0:0:0:
246,264,11545,5,2,3:2:0:0:
170,162,11711,2,0,L|366:195,1,174,8|0,1:2|0:0,0:0:0:0:
376,246,12128,1,0,0:0:0:0:
341,190,12211,6,0,B|325:148|325:148|449:171|449:171|424:199,1,208.8,2|0,0:0|0:0,0:0:0:0:
300,282,12545,5,0,1:0:0:0:
333,253,12628,1,0,1:0:0:0:
376,246,12711,1,0,1:0:0:0:
409,274,12795,1,0,1:0:0:0:
422,315,12878,5,4,1:0:0:0:
346,351,13045,1,0,0:0:0:0:
270,212,13211,1,0,1:0:0:0:
490,273,13378,1,2,0:0:0:0:
490,273,13711,1,0,0:0:0:0:
204,341,13878,6,0,L|250:329,1,43.0649998685761,8|0,0:0|0:0,0:0:0:0:
122,308,14211,5,0,1:0:0:0:
122,308,14545,1,0,1:0:0:0:
337,343,14711,1,2,0:0:0:0:
337,343,15045,1,0,0:0:0:0:
107,140,15211,6,0,L|119:186,1,43.0649998685761,8|0,0:0|0:0,0:0:0:0:
89,72,15545,5,0,1:0:0:0:
135,247,15711,1,0,0:0:0:0:
172,104,15878,1,0,1:0:0:0:
52,212,16045,1,2,0:0:0:0:
52,212,16378,1,0,0:0:0:0:
266,53,16545,6,0,L|308:43,1,43.0649998685761,8|0,0:0|0:0,0:0:0:0:
193,27,16878,5,0,1:0:0:0:
193,27,17211,1,0,1:0:0:0:
382,77,17378,1,2,0:0:0:0:
382,77,17711,1,0,1:0:0:0:
394,202,17878,6,0,L|406:245,1,43.5,8|0,1:2|1:0,0:0:0:0:
333,243,18128,1,0,1:0:0:0:
333,243,18211,5,0,1:0:0:0:
465,201,18378,1,0,0:0:0:0:
339,142,18545,1,0,1:0:0:0:
394,98,18711,1,2,0:0:0:0:
394,98,19045,1,0,0:0:0:0:
204,50,19211,6,0,L|162:39,1,43.0649998685761,8|0,0:0|0:0,0:0:0:0:
300,26,19545,5,0,1:0:0:0:
300,26,19878,1,0,1:0:0:0:
110,99,20045,1,2,0:0:0:0:
110,99,20378,1,0,0:0:0:0:
306,122,20545,6,0,L|348:133,1,43.0649998685761,8|0,0:0|0:0,0:0:0:0:
205,155,20878,5,0,1:0:0:0:
338,233,21045,1,0,0:0:0:0:
220,278,21211,1,0,1:0:0:0:
273,333,21378,1,2,0:0:0:0:
273,333,21711,1,0,0:0:0:0:
205,155,21878,6,0,L|163:144,1,43.0649998685761,8|0,0:0|0:0,0:0:0:0:
306,122,22211,6,0,P|352:111|365:57,1,104.4,0|0,1:0|0:0,0:0:0:0:
256,4,22545,5,8,1:2:0:0:
237,33,22628,1,0,1:2:0:0:
226,65,22711,1,0,1:2:0:0:
228,99,22795,1,0,1:2:0:0:
240,131,22878,1,8,1:2:0:0:
259,150,22961,1,0,1:2:0:0:
274,173,23045,1,0,1:2:0:0:
280,199,23128,1,2,1:2:0:0:
280,219,23211,1,8,1:2:0:0:
275,235,23295,1,8,1:2:0:0:
268,247,23378,1,2,1:2:0:0:
260,254,23461,1,0,1:2:0:0:
253,257,23545,5,12,1:2:0:0:
180,216,23711,1,0,0:0:0:0:
172,235,23795,1,0,0:0:0:0:
157,249,23878,1,0,3:0:0:0:
136,253,23961,2,0,L|162:137,1,104.399996813965,2|0,3:0|0:0,0:0:0:0:
175,80,24211,5,2,3:0:0:0:
9,207,24378,1,0,0:0:0:0:
39,199,24461,1,2,2:3:0:0:
69,191,24545,2,0,B|91:106|91:106|81:86,1,104.399996813965,8|0,3:2|3:0,0:0:0:0:
56,27,24795,1,0,0:0:0:0:
56,27,24878,6,0,B|19:68|19:68|123:24,1,156.599995220947,2|0,3:3|0:0,0:0:0:0:
175,80,25211,1,8,3:2:0:0:
214,66,25295,1,0,3:0:0:0:
255,65,25378,1,0,3:0:0:0:
291,85,25461,1,0,3:0:0:0:
315,118,25545,1,2,1:3:0:0:
327,215,25711,1,2,0:0:0:0:
342,228,25795,1,0,0:0:0:0:
361,229,25878,2,0,P|376:210|383:185,1,52.1999984069825,0|0,3:0|0:0,0:0:0:0:
473,167,26045,2,0,P|477:141|470:117,1,52.1999984069825,2|0,3:2|0:0,0:0:0:0:
509,6,26211,6,0,L|448:20,1,52.1999984069825,8|0,1:2|0:0,0:0:0:0:
433,131,26378,1,0,0:0:0:0:
444,160,26461,1,0,3:0:0:0:
473,167,26545,2,0,P|443:137|384:114,1,104.399996813965,2|0,3:0|0:0,0:0:0:0:
315,118,26795,1,0,1:0:0:0:
315,118,26878,6,0,L|299:175,1,52.1999984069825,2|0,1:3|0:0,0:0:0:0:
249,79,27045,2,0,L|202:118,1,52.1999984069825,2|0,0:0|0:0,0:0:0:0:
391,104,27211,2,0,B|449:149|449:149|448:179,1,104.399996813965,8|0,0:0|0:0,0:0:0:0:
226,190,27461,1,0,1:0:0:0:
226,190,27545,6,0,L|195:248,1,52.1999984069825,0|0,1:0|0:0,0:0:0:0:
367,209,27711,2,0,L|385:273,1,52.1999984069825,2|0,0:0|0:0,0:0:0:0:
253,302,27878,1,8,1:2:0:0:
290,321,27961,1,0,1:0:0:0:
262,336,28045,1,2,1:2:0:0:
273,353,28128,1,0,1:0:0:0:
264,371,28211,1,2,1:3:0:0:
264,371,28545,5,0,1:0:0:0:
298,347,28628,1,0,1:0:0:0:
338,339,28711,1,0,1:0:0:0:
379,342,28795,1,0,1:0:0:0:
418,355,28878,5,4,1:2:0:0:
418,355,28961,1,2,0:0:0:0:
258,250,29128,5,0,0:0:0:0:
258,250,29211,1,2,3:2:0:0:
94,355,29378,6,0,L|43:347,1,52.1999984069825,8|0,0:0|0:0,0:0:0:0:
9,270,29545,1,2,3:0:0:0:
34,237,29628,1,0,0:0:0:0:
75,243,29711,1,0,0:0:0:0:
72,263,29795,1,0,0:0:0:0:
83,279,29878,2,0,P|112:275|133:261,1,52.1999984069825,8|0,3:2|0:0,0:0:0:0:
144,136,30045,1,2,3:2:0:0:
131,119,30128,1,0,0:0:0:0:
111,111,30211,5,0,1:0:0:0:
69,105,30295,1,0,0:0:0:0:
32,124,30378,2,0,L|15:67,1,52.1999984069825,2|0,0:0|0:0,0:0:0:0:
242,54,30545,1,8,3:2:0:0:
221,49,30628,1,0,3:0:0:0:
241,42,30711,1,0,3:0:0:0:
220,37,30794,1,0,3:0:0:0:
239,24,30878,5,2,1:2:0:0:
259,190,31045,1,8,0:0:0:0:
347,32,31211,5,2,0:0:0:0:
330,157,31378,1,8,0:0:0:0:
447,73,31545,5,0,1:0:0:0:
438,79,31628,1,0,3:0:0:0:
433,88,31711,1,0,0:0:0:0:
429,97,31795,1,2,0:0:0:0:
427,107,31878,5,0,3:0:0:0:
426,122,31961,1,0,3:0:0:0:
429,137,32045,1,2,3:2:0:0:
436,156,32128,1,2,3:2:0:0:
447,173,32211,1,0,1:0:0:0:
465,191,32295,1,0,0:0:0:0:
481,217,32378,1,0,0:0:0:0:
489,257,32461,1,0,0:0:0:0:
470,294,32545,1,0,1:0:0:0:
418,294,32628,1,0,3:0:0:0:
389,337,32711,1,0,1:0:0:0:
407,384,32795,1,0,3:0:0:0:
469,379,32878,6,0,B|480:360|507:348|507:348|447:372|358:388,1,195.75000746727,8|0,1:2|0:0,0:0:0:0:
180,285,33211,1,0,1:0:0:0:
209,254,33295,1,0,1:0:0:0:
216,213,33378,1,0,1:0:0:0:
239,247,33461,1,0,1:0:0:0:
277,264,33545,6,0,P|214:281|155:328,1,130.50000497818,8|0,1:2|0:0,0:0:0:0:
116,371,33767,1,0,0:0:0:0:
116,371,33823,1,0,0:0:0:0:
116,371,33878,2,0,L|70:379,4,43.5000016593934,0|0|0|0|0,3:0|0:0|0:0|0:0|0:0,0:0:0:0:
67,284,34211,5,4,1:0:0:0:
39,245,34295,1,2,0:0:0:0:
12,207,34378,1,0,0:0:0:0:
22,189,34461,1,2,0:0:0:0:
32,171,34545,2,0,L|37:230,1,52.1999984069825,8|0,3:2|0:0,0:0:0:0:
116,371,34711,6,0,L|174:360,1,52.1999984069825,2|0,0:0|0:0,0:0:0:0:
304,308,34878,1,0,3:0:0:0:
335,281,34961,1,2,0:0:0:0:
375,291,35045,2,0,L|322:304,1,52.1999984069825,8|2,0:0|0:0,0:0:0:0:
120,274,35211,6,0,L|178:263,1,52.1999984069825,0|0,3:0|0:0,0:0:0:0:
308,211,35378,1,2,0:0:0:0:
339,184,35461,1,0,0:0:0:0:
379,194,35545,2,0,L|326:207,1,52.1999984069825,8|2,3:2|0:0,0:0:0:0:
124,177,35711,6,0,L|182:166,1,52.1999984069825,0|2,0:0|0:0,0:0:0:0:
312,114,35878,1,0,3:2:0:0:
343,87,35961,1,0,0:0:0:0:
383,97,36045,2,0,L|330:110,1,52.1999984069825,10|0,0:2|0:0,0:0:0:0:
175,167,36211,5,0,3:0:0:0:
180,198,36295,1,2,0:0:0:0:
192,226,36378,1,0,0:0:0:0:
212,249,36461,1,2,0:0:0:0:
236,268,36545,1,8,3:2:0:0:
273,285,36628,1,8,0:2:0:0:
313,294,36711,1,2,0:0:0:0:
355,296,36795,1,0,0:0:0:0:
394,282,36878,5,0,3:2:0:0:
422,243,36962,1,2,0:0:0:0:
449,205,37045,1,0,0:0:0:0:
439,187,37128,1,2,0:0:0:0:
429,169,37212,2,0,L|424:228,1,52.1999984069825,8|0,3:2|0:0,0:0:0:0:
345,369,37378,6,0,L|287:358,1,52.1999984069825,2|0,0:0|0:0,0:0:0:0:
157,306,37545,1,0,3:0:0:0:
126,279,37628,1,2,0:0:0:0:
86,289,37712,2,0,L|139:302,1,52.1999984069825,8|2,0:2|0:0,0:0:0:0:
341,272,37878,6,0,L|283:261,1,52.1999984069825,0|0,3:0|0:0,0:0:0:0:
153,209,38045,1,2,0:0:0:0:
122,182,38128,1,0,0:0:0:0:
82,192,38212,2,0,L|135:205,1,52.1999984069825,8|2,3:2|0:0,0:0:0:0:
337,175,38378,6,0,L|279:164,1,52.1999984069825,0|2,0:0|0:0,0:0:0:0:
149,112,38545,1,0,3:0:0:0:
118,85,38628,1,0,0:0:0:0:
78,95,38712,2,0,L|131:108,1,52.1999984069825,10|0,0:2|0:0,0:0:0:0:
285,165,38878,5,0,3:0:0:0:
316,163,38961,1,2,3:2:0:0:
345,152,39045,1,0,3:0:0:0:
372,136,39128,1,2,3:2:0:0:
391,111,39211,2,0,B|395:99|395:99|414:137,1,52.1999984069825,8|0,3:2|0:0,0:0:0:0:
306,208,39378,2,0,P|288:190|285:165,1,52.1999984069825,2|0,3:2|0:0,0:0:0:0:
305,0,39545,5,0,3:0:0:0:
311,19,39628,1,2,0:0:0:0:
317,38,39711,1,0,0:0:0:0:
323,58,39795,1,2,0:0:0:0:
329,77,39878,1,8,3:2:0:0:
61,108,40045,5,2,0:0:0:0:
55,127,40128,1,0,0:0:0:0:
49,146,40211,1,0,3:0:0:0:
43,166,40295,1,2,0:0:0:0:
37,185,40378,1,8,0:2:0:0:
207,384,40545,5,0,3:0:0:0:
201,365,40628,1,0,0:0:0:0:
195,346,40711,1,2,0:0:0:0:
189,326,40795,1,0,0:0:0:0:
183,307,40878,1,8,3:2:0:0:
451,276,41045,5,0,0:0:0:0:
457,257,41128,1,2,0:0:0:0:
463,238,41211,1,0,3:0:0:0:
469,218,41295,1,0,0:0:0:0:
475,199,41378,1,10,0:2:0:0:
447,212,41461,1,0,0:0:0:0:
417,223,41545,5,0,3:0:0:0:
422,192,41628,1,2,0:0:0:0:
411,162,41711,1,0,0:0:0:0:
382,149,41795,1,2,0:0:0:0:
350,149,41878,5,8,3:2:0:0:
383,124,41961,1,8,0:2:0:0:
409,91,42045,1,2,0:0:0:0:
414,49,42128,1,0,0:0:0:0:
412,7,42211,6,0,P|428:27|450:39,1,52.1999984069825,0|2,3:0|0:0,0:0:0:0:
493,100,42378,1,0,0:0:0:0:
493,100,42461,1,2,0:0:0:0:
493,100,42545,2,0,P|473:116|461:138,1,52.1999984069825,8|0,3:2|0:0,0:0:0:0:
341,243,42711,6,0,P|325:223|303:211,1,52.1999984069825,2|0,0:0|0:0,0:0:0:0:
260,150,42878,1,0,3:0:0:0:
260,150,42961,1,2,0:0:0:0:
260,150,43045,2,0,P|280:134|292:112,1,52.1999984069825,8|2,0:2|0:0,0:0:0:0:
259,275,43211,2,0,P|239:291|227:313,1,52.1999984069825,0|0,3:0|0:0,0:0:0:0:
186,174,43378,2,0,P|170:154|148:142,1,52.1999984069825,2|0,0:0|0:0,0:0:0:0:
119,303,43545,6,0,P|135:323|157:335,1,52.1999984069825,8|2,0:2|0:0,0:0:0:0:
75,152,43711,1,0,0:0:0:0:
75,152,43795,1,2,0:0:0:0:
75,152,43878,2,0,P|55:168|43:190,1,52.1999984069825
10,356,44045,2,0,P|30:340|42:318,1,52.1999984069825,10|0,0:2|0:0,0:0:0:0:
136,117,44211,5,0,3:0:0:0:
147,134,44295,1,2,0:0:0:0:
165,144,44378,1,0,0:0:0:0:
185,147,44461,1,2,0:0:0:0:
205,144,44545,5,8,3:2:0:0:
235,116,44628,1,8,0:2:0:0:
273,100,44711,1,2,1:2:0:0:
315,101,44795,1,2,0:0:0:0:
351,120,44878,5,4,1:0:0:0:
374,61,45045,1,0,0:0:0:0:
433,84,45211,1,0,0:0:0:0:
410,143,45378,1,8,0:0:0:0:
410,143,45711,5,0,0:0:0:0:
351,120,45878,1,8,0:0:0:0:
292,97,46045,1,0,0:0:0:0:
161,120,46211,5,2,0:3:0:0:
138,61,46378,1,0,0:0:0:0:
79,84,46544,1,0,0:0:0:0:
102,143,46711,1,8,0:0:0:0:
161,120,46878,5,2,0:3:0:0:
216,149,47045,1,2,0:3:0:0:
246,203,47211,1,8,0:0:0:0:
261,263,47378,1,8,0:0:0:0:
256,325,47545,5,0,3:0:0:0:
195,309,47711,1,0,3:0:0:0:
134,294,47878,1,8,0:0:0:0:
195,309,48045,1,0,0:0:0:0:
378,294,48211,5,8,0:0:0:0:
317,309,48378,1,0,0:0:0:0:
256,325,48544,1,2,0:3:0:0:
317,309,48711,1,2,0:3:0:0:
378,294,48878,5,8,0:0:0:0:
438,310,49045,1,0,0:0:0:0:
483,354,49211,1,0,0:0:0:0:
465,293,49378,1,2,0:0:0:0:
483,233,49545,5,0,0:0:0:0:
390,360,49711,1,0,0:0:0:0:
329,340,49878,1,0,0:0:0:0:
281,381,50045,1,0,3:0:0:0:
152,212,50211,6,0,B|238:209|296:259|296:259|286:223|262:220,1,208.8,4|0,3:2|0:0,0:0:0:0:
348,215,50878,6,0,P|289:251|244:304,2,139.2,8|0|0,0:0|0:0|0:0,0:0:0:0:
348,215,51878,2,0,P|382:201|385:166,1,69.6,0|0,3:0|3:0,0:0:0:0:
333,15,52211,5,8,0:0:0:0:
317,75,52378,1,0,0:0:0:0:
325,16,52545,5,2,3:3:0:0:
325,78,52712,1,0,0:0:0:0:
333,77,53044,5,2,0:0:0:0:
317,18,53211,1,0,0:0:0:0:
351,88,53378,1,0,1:0:0:0:
239,19,53545,1,0,0:0:0:0:
292,148,53711,1,2,0:0:0:0:
228,129,53878,1,0,0:0:0:0:
276,179,54045,1,0,0:0:0:0:
254,154,54211,5,8,0:0:0:0:
236,246,54378,1,0,1:0:0:0:
144,147,54545,5,0,0:0:0:0:
166,212,54712,1,0,0:0:0:0:
36,192,54878,5,8,0:0:0:0:
138,280,55045,1,2,3:3:0:0:
144,147,55211,1,0,3:0:0:0:
30,325,55378,1,0,3:0:0:0:
96,226,55545,5,4,1:2:0:0:
145,349,55711,1,0,0:0:0:0:
36,192,55878,1,0,0:0:0:0:
138,280,56045,1,8,0:0:0:0:
138,280,56378,1,0,0:0:0:0:
204,259,56545,1,2,0:3:0:0:
255,304,56711,1,0,0:0:0:0:
374,280,56878,5,2,1:2:0:0:
374,280,57211,1,2,1:2:0:0:
308,259,57378,1,0,0:0:0:0:
388,347,57545,1,8,0:1:0:0:
425,234,57711,1,0,0:0:0:0:
391,172,57878,1,0,0:0:0:0:
328,140,58045,1,8,1:2:0:0:
259,148,58211,5,0,1:0:0:0:
308,259,58378,1,0,0:0:0:0:
328,140,58545,1,8,0:0:0:0:
308,259,58711,1,0,0:0:0:0:
259,148,58878,1,8,0:1:0:0:
207,195,59045,1,0,0:0:0:0:
140,215,59211,1,2,0:0:0:0:
75,188,59378,1,0,0:0:0:0:
38,128,59545,5,2,0:3:0:0:
169,86,59711,1,0,0:0:0:0:
75,188,59878,1,0,1:0:0:0:
77,118,60045,1,0,0:0:0:0:
39,59,60211,1,8,0:1:0:0:
154,19,60378,1,8,1:2:0:0:
169,86,60544,1,0,0:0:0:0:
220,135,60711,1,0,0:0:0:0:
105,56,60878,6,0,P|206:55|307:0,1,208.8,2|0,1:0|0:0,0:0:0:0:
300,105,61545,2,0,B|206:65|206:65|212:47|198:6,2,139.2,8|0|0,0:1|0:0|0:0,0:0:0:0:
300,105,62545,5,8,0:0:0:0:
483,38,62711,1,0,1:0:0:0:
425,163,62878,1,8,0:1:0:0:
330,43,63045,5,0,0:0:0:0:
421,9,63212,1,8,0:0:0:0:
392,72,63378,1,2,0:3:0:0:
392,72,63711,5,2,0:3:0:0:
421,9,63878,1,0,0:0:0:0:
330,43,64045,1,2,0:3:0:0:
425,163,64211,5,0,0:0:0:0:
483,38,64378,1,0,0:0:0:0:
300,105,64544,1,2,0:3:0:0:
425,163,64711,1,0,0:0:0:0:
380,38,64878,5,8,0:0:0:0:
369,9,65045,1,0,0:0:0:0:
337,8,65211,5,8,0:0:0:0:
359,66,65378,1,0,0:0:0:0:
272,134,65545,5,8,0:0:0:0:
228,18,65712,1,8,0:0:0:0:
103,7,65878,5,10,0:0:0:0:
191,239,66045,1,8,0:0:0:0:
193,96,66211,5,4,1:2:0:0:
179,93,66295,1,0,3:2:0:0:
165,90,66378,1,0,3:2:0:0:
151,87,66461,1,0,0:2:0:0:
137,84,66545,5,8,3:2:0:0:
146,110,66628,1,0,0:2:0:0:
137,136,66711,1,0,3:2:0:0:
111,147,66795,1,0,0:2:0:0:
86,134,66878,5,8,3:2:0:0:
44,135,66961,1,0,0:2:0:0:
14,164,67045,1,0,3:2:0:0:
15,205,67128,1,0,0:2:0:0:
42,236,67211,5,8,3:2:0:0:
70,224,67295,1,0,3:2:0:0:
52,249,67378,1,2,3:2:0:0:
71,240,67461,1,0,0:2:0:0:
59,260,67545,5,8,3:2:0:0:
99,250,67628,1,0,3:2:0:0:
140,243,67711,1,2,3:2:0:0:
182,245,67795,1,0,0:2:0:0:
218,263,67878,1,8,3:2:0:0:
192,230,67961,1,0,3:2:0:0:
185,188,68045,1,2,3:2:0:0:
197,148,68128,1,2,3:2:0:0:
225,118,68211,5,8,3:2:0:0:
270,151,68295,1,0,0:2:0:0:
326,155,68378,2,0,L|336:112,1,43.5,0|0,3:2|0:2,0:2:0:0:
182,245,68545,5,8,3:2:0:0:
166,251,68628,1,0,0:2:0:0:
150,257,68711,2,0,L|160:303,1,43.5,0|0,3:2|3:2,0:2:0:0:
374,365,68878,5,10,3:2:0:0:
382,322,68961,1,2,3:2:0:0:
338,313,69045,1,0,3:2:0:0:
330,355,69128,1,0,0:2:0:0:
374,365,69211,5,8,3:2:0:0:
393,325,69295,1,0,0:2:0:0:
429,302,69378,1,0,3:2:0:0:
472,297,69461,1,0,0:2:0:0:
512,308,69545,5,8,3:2:0:0:
510,359,69628,1,0,3:2:0:0:
460,376,69711,1,2,3:2:0:0:
414,349,69795,1,0,0:2:0:0:
424,295,69878,5,8,3:2:0:0:
427,260,69961,1,0,0:2:0:0:
432,225,70045,1,0,3:2:0:0:
438,190,70128,1,0,0:2:0:0:
443,155,70211,5,8,3:2:0:0:
458,176,70295,1,0,0:2:0:0:
473,197,70379,1,0,3:2:0:0:
488,217,70462,1,0,0:2:0:0:
500,239,70545,5,8,3:2:0:0:
493,196,70628,1,0,3:2:0:0:
485,153,70711,1,2,3:2:0:0:
478,109,70795,1,0,0:2:0:0:
471,66,70878,5,8,3:2:0:0:
453,84,70961,1,0,3:2:0:0:
435,103,71045,1,2,3:2:0:0:
435,77,71128,1,0,0:2:0:0:
436,51,71211,5,8,3:2:0:0:
407,84,71295,1,0,3:2:0:0:
376,115,71378,1,2,3:2:0:0:
379,71,71461,1,2,3:2:0:0:
379,27,71545,5,8,3:2:0:0:
362,47,71628,1,0,0:2:0:0:
360,21,71711,1,0,3:2:0:0:
345,43,71795,1,0,0:2:0:0:
337,18,71878,5,8,3:2:0:0:
332,34,71961,1,0,0:2:0:0:
318,23,72045,1,0,3:2:0:0:
319,40,72128,1,0,3:2:0:0:
302,35,72211,5,10,3:2:0:0:
306,60,72295,1,2,3:2:0:0:
282,48,72378,1,0,3:2:0:0:
279,73,72461,1,0,0:2:0:0:
254,63,72545,5,8,3:2:0:0:
296,72,72628,1,0,0:2:0:0:
338,82,72711,1,0,3:2:0:0:
380,93,72795,1,0,3:2:0:0:
421,106,72878,5,12,1:2:0:0:
463,95,72961,1,0,3:2:0:0:
478,136,73045,1,2,3:2:0:0:
492,176,73128,1,0,3:2:0:0:
451,190,73211,1,8,3:2:0:0:
409,205,73295,1,0,3:2:0:0:
423,245,73378,1,2,3:2:0:0:
438,285,73461,1,0,0:2:0:0:
463,278,73545,5,8,3:2:0:0:
487,270,73628,1,0,0:2:0:0:
497,293,73711,1,0,3:2:0:0:
510,270,73795,1,0,0:2:0:0:
512,298,73878,5,8,3:2:0:0:
499,339,73961,1,0,3:2:0:0:
504,382,74045,1,2,3:2:0:0:
473,351,74128,1,2,3:2:0:0:
430,344,74211,5,8,3:2:0:0:
387,353,74295,1,0,3:2:0:0:
356,384,74378,1,2,3:2:0:0:
369,342,74461,1,0,0:2:0:0:
351,301,74545,5,8,3:2:0:0:
377,286,74628,1,0,3:2:0:0:
350,280,74711,1,2,3:2:0:0:
363,271,74795,1,2,3:2:0:0:
345,254,74878,5,8,3:2:0:0:
308,272,74961,1,0,0:2:0:0:
261,264,75045,1,0,3:2:0:0:
246,219,75128,1,0,0:2:0:0:
256,174,75211,1,8,3:2:0:0:
265,219,75295,1,0,3:2:0:0:
243,260,75378,1,2,3:2:0:0:
197,269,75461,1,0,0:2:0:0:
153,251,75545,5,8,3:2:0:0:
107,263,75628,1,0,3:2:0:0:
120,307,75711,1,2,3:0:0:0:
165,296,75794,1,0,0:2:0:0:
153,251,75878,5,8,3:2:0:0:
105,249,75961,1,0,3:2:0:0:
69,282,76045,1,2,3:0:0:0:
53,322,76128,1,0,0:2:0:0:
67,367,76211,5,8,3:2:0:0:
90,325,76295,1,0,3:2:0:0:
97,276,76378,1,2,3:2:0:0:
90,227,76461,1,2,3:2:0:0:
49,200,76545,5,8,3:2:0:0:
78,204,76628,1,0,0:2:0:0:
108,209,76711,1,0,3:2:0:0:
87,185,76795,1,0,0:2:0:0:
67,161,76878,5,8,3:2:0:0:
89,163,76961,1,0,0:2:0:0:
110,168,77045,1,0,3:2:0:0:
131,170,77128,1,0,0:2:0:0:
152,172,77211,5,8,3:2:0:0:
131,145,77295,1,0,3:2:0:0:
104,116,77378,1,2,3:2:0:0:
73,92,77461,1,0,0:2:0:0:
40,73,77545,5,8,3:2:0:0:
70,68,77628,1,0,3:2:0:0:
100,74,77711,1,2,3:2:0:0:
129,84,77795,1,0,0:2:0:0:
155,100,77878,5,8,3:2:0:0:
151,77,77961,1,0,3:2:0:0:
138,56,78045,1,2,3:2:0:0:
120,41,78128,1,0,0:2:0:0:
98,32,78211,5,8,3:2:0:0:
113,32,78295,1,0,0:2:0:0:
129,32,78378,1,0,3:2:0:0:
143,37,78461,1,0,3:2:0:0:
157,40,78545,5,10,3:2:0:0:
187,32,78628,1,2,3:2:0:0:
163,50,78711,1,0,3:2:0:0:
193,47,78795,1,0,0:2:0:0:
169,65,78878,5,8,3:2:0:0:
215,72,78961,1,0,3:2:0:0:
262,78,79045,1,2,3:2:0:0:
305,94,79128,1,2,3:2:0:0:
340,112,79211,6,0,L|353:141,2,29,8|0|0,3:2|3:2|3:2,3:2:0:0:
169,65,79378,6,0,L|137:73,2,29,0|0|0,3:2|3:2|3:2,3:2:0:0:
169,65,79711,5,0,0:0:0:0:
199,72,79795,1,0,0:0:0:0:
239,75,79878,1,8,0:0:0:0:
224,96,79961,1,0,0:0:0:0:
198,89,80045,1,0,0:0:0:0:
184,112,80128,1,0,0:0:0:0:
158,113,80211,6,0,L|177:165,1,43.5,2|0,0:0|0:0,0:0:0:0:
56,203,80378,2,0,L|70:243,1,43.5,2|0,0:0|0:0,0:0:0:0:
57,51,80545,1,2,0:0:0:0:
57,51,80628,1,0,0:0:0:0:
57,51,80711,1,2,0:0:0:0:
57,51,80795,1,0,0:0:0:0:
57,51,80878,6,0,B|82:65|92:92|92:92|83:64|91:31,1,108.75,4|8,1:2|0:2,0:2:0:0:
56,203,81211,1,2,1:2:0:0:
80,171,81295,1,0,0:2:0:0:
114,152,81378,1,8,0:2:0:0:
152,151,81461,1,8,0:2:0:0:
188,166,81545,2,0,P|192:114|205:57,1,108.75,2|0,1:2|0:2,0:2:0:0:
261,26,81795,1,8,3:2:0:0:
261,26,81878,2,0,P|286:23|315:0,2,54.375,2|0|8,1:2|0:2|3:2,0:2:0:0:
213,336,82211,5,2,1:2:0:0:
242,303,82295,1,0,0:2:0:0:
255,261,82378,1,0,0:2:0:0:
245,218,82461,1,8,3:2:0:0:
212,188,82545,5,2,1:2:0:0:
249,148,82628,1,0,0:2:0:0:
302,139,82711,1,8,3:2:0:0:
354,155,82795,1,0,0:2:0:0:
381,201,82878,5,2,1:2:0:0:
408,218,82961,1,8,3:2:0:0:
428,192,83045,1,0,0:2:0:0:
454,210,83128,1,8,3:2:0:0:
435,236,83211,5,0,1:2:0:0:
471,260,83295,1,0,0:2:0:0:
493,222,83378,1,8,3:2:0:0:
488,178,83461,1,8,0:2:0:0:
469,138,83545,6,0,B|423:302,1,163.125,2|0,1:2|3:2,0:2:0:0:
350,384,83878,2,0,P|403:367|454:356,1,108.75,2|8,1:2|3:2,0:2:0:0:
478,353,84128,1,0,0:2:0:0:
499,353,84211,1,2,1:2:0:0:
215,377,84378,1,8,0:2:0:0:
215,377,84461,1,8,3:2:0:0:
215,377,84545,2,0,P|201:353|197:326,1,54.375,2|0,1:2|0:2,0:2:0:0:
312,174,84711,2,0,P|324:200|330:226,1,54.375,8|0,3:2|0:0,0:0:0:0:
275,288,84878,5,2,1:2:0:0:
231,255,84961,1,0,0:2:0:0:
178,238,85045,1,0,0:2:0:0:
124,233,85128,1,8,3:2:0:0:
69,236,85211,1,2,1:2:0:0:
88,262,85295,1,0,0:2:0:0:
95,293,85378,1,8,3:2:0:0:
98,325,85461,1,0,0:2:0:0:
87,356,85545,6,0,L|46:370,2,36.25,2|0|0,1:2|0:2|0:2,0:2:0:0:
178,238,85711,2,8,L|212:226,2,36.25,8|8|8,0:2|0:2|0:2,0:2:0:0:
37,178,85878,6,0,L|2:189,2,36.25,2|0|0,1:2|0:2|0:2,0:2:0:0:
147,40,86045,2,8,L|181:28,2,36.25,8|8|8,0:2|0:2|0:2,0:2:0:0:
196,114,86211,6,0,P|259:88|241:6,1,163.125,2|0,1:2|3:2,0:2:0:0:
184,95,86545,2,0,L|214:201,1,108.75,2|8,1:2|3:2,0:2:0:0:
220,220,86795,1,8,0:2:0:0:
226,240,86878,1,2,1:2:0:0:
81,89,87045,1,8,0:2:0:0:
81,89,87128,1,8,3:2:0:0:
81,89,87212,2,0,L|65:24,2,54.375,2|0|8,1:2|0:2|3:2,0:2:0:0:
269,117,87545,5,2,1:2:0:0:
296,100,87628,1,8,3:2:0:0:
298,67,87711,1,8,0:2:0:0:
164,26,87878,1,2,1:2:0:0:
213,199,88045,2,0,P|240:196|270:182,1,54.375,8|8,3:2|0:2,0:2:0:0:
298,67,88211,1,2,1:2:0:0:
343,96,88295,1,8,3:2:0:0:
355,148,88378,1,8,0:2:0:0:
373,121,88461,1,8,3:2:0:0:
404,112,88545,2,0,P|458:83|451:34,1,108.75,2|8,1:2|3:2,0:2:0:0:
478,36,88795,1,8,0:2:0:0:
482,14,88878,6,0,L|424:2,1,54.375,2|0,1:2|3:2,3:2:0:0:
350,131,89045,1,8,0:2:0:0:
350,131,89128,1,8,3:2:0:0:
350,131,89211,1,2,1:2:0:0:
338,161,89295,1,8,0:2:0:0:
352,190,89378,1,8,3:2:0:0:
378,208,89461,1,0,0:2:0:0:
410,208,89545,6,0,L|457:321,1,108.75,2|8,1:2|3:2,0:2:0:0:
457,321,89767,1,8,0:2:0:0:
462,334,89823,1,8,0:2:0:0:
467,347,89878,2,0,L|491:258,1,72.5,2|0,1:2|0:2,0:2:0:0:
377,319,90045,2,0,L|358:275,2,36.25,8|8|8,3:2|0:2|0:2,0:2:0:0:
316,366,90211,6,0,P|260:346|264:250,1,163.125,2|8,1:2|3:2,0:2:0:0:
196,200,90545,2,0,L|145:219,1,54.375,2|0,1:2|0:2,0:2:0:0:
327,188,90711,2,0,L|377:207,1,54.375,8|0,3:2|0:2,0:2:0:0:
279,2,90878,5,2,1:2:0:0:
272,55,90961,1,8,0:2:0:0:
267,109,91045,1,0,0:2:0:0:
262,162,91128,1,8,0:2:0:0:
256,215,91211,5,2,1:2:0:0:
251,258,91295,1,0,0:2:0:0:
245,295,91378,1,8,3:2:0:0:
242,321,91461,1,0,0:2:0:0:
241,337,91545,5,4,1:2:0:0:
12,365,91711,1,0,0:2:0:0:
59,319,91878,1,2,0:3:0:0:
59,319,91961,1,2,0:3:0:0:
59,319,92045,1,0,0:2:0:0:
123,328,92211,1,0,0:2:0:0:
169,281,92378,1,2,0:3:0:0:
169,281,92461,1,2,0:3:0:0:
169,281,92545,5,2,0:2:0:0:
212,313,92628,1,2,0:3:0:0:
255,345,92711,1,2,1:3:0:0:
298,313,92795,1,2,0:3:0:0:
341,281,92878,5,4,1:2:0:0:
500,365,93045,1,0,0:2:0:0:
453,319,93211,1,2,0:3:0:0:
453,319,93294,1,2,0:3:0:0:
453,319,93378,1,0,0:2:0:0:
483,261,93545,1,0,0:2:0:0:
433,234,93711,1,2,0:3:0:0:
433,234,93794,1,2,0:3:0:0:
433,234,93878,5,2,0:2:0:0:
460,187,93961,1,2,0:3:0:0:
488,140,94045,1,2,1:3:0:0:
456,95,94128,1,2,1:3:0:0:
420,54,94211,5,4,1:2:0:0:
204,183,94378,1,0,0:2:0:0:
308,201,94545,1,0,0:2:0:0:
92,54,94711,5,2,1:3:0:0:
92,54,94795,1,2,1:3:0:0:
92,54,94878,1,12,1:2:0:0:
240,282,95045,1,0,0:2:0:0:
274,104,95211,1,2,0:3:0:0:
269,82,95295,1,2,0:3:0:0:
264,60,95379,1,0,1:2:0:0:
259,38,95462,1,0,1:2:0:0:
254,16,95545,5,4,1:2:0:0:
178,98,95711,5,2,0:3:0:0:
163,114,95795,1,2,0:3:0:0:
149,130,95878,1,0,0:2:0:0:
316,193,96045,5,2,0:3:0:0:
327,204,96128,1,2,0:3:0:0:
338,214,96211,5,4,1:2:0:0:
296,275,96323,1,4,1:2:0:0:
255,334,96434,1,4,1:2:0:0:
257,334,96545,5,4,1:2:0:0:
216,275,96656,1,4,1:2:0:0:
173,214,96768,1,4,1:2:0:0:
256,144,96878,6,0,L|255:85,2,54.375,4|0|8,1:1|0:2|0:2,0:2:0:0:
189,64,97211,2,0,L|155:43,2,36.25,8|0|0,1:1|0:2|0:2,0:2:0:0:
323,64,97378,2,0,L|357:43,2,36.25,8|2|2,0:2|0:3|0:3,0:2:0:0:
256,144,97545,6,0,B|334:162|334:162|342:196,1,108.75,4|8,1:2|0:2,0:2:0:0:
296,245,97795,1,8,0:2:0:0:
296,245,97878,5,0,1:2:0:0:
264,236,97961,1,2,0:3:0:0:
232,227,98045,1,2,0:3:0:0:
200,218,98128,1,2,0:3:0:0:
168,209,98211,5,4,1:2:0:0:
153,137,98323,5,4,1:2:0:0:
81,152,98434,5,4,1:2:0:0:
96,224,98545,6,0,B|120:115,1,108.75,4|0,1:2|0:2,0:2:0:0:
88,54,98767,1,8,1:2:0:0:
88,54,98823,1,8,0:2:0:0:
88,54,98878,2,0,B|11:24|11:24|44:16,1,108.75,0|0,1:2|0:2,0:2:0:0:
147,17,99128,1,8,0:2:0:0:
147,17,99211,5,2,0:3:0:0:
173,36,99295,1,2,0:3:0:0:
204,43,99378,1,2,0:3:0:0:
236,42,99461,1,2,0:3:0:0:
267,32,99545,5,4,1:2:0:0:
397,78,99711,2,0,P|411:55|411:25,1,54.375,2|0,0:3|0:2,0:2:0:0:
255,112,99878,1,8,0:1:0:0:
255,112,99961,1,0,0:2:0:0:
255,112,100045,2,0,L|191:132,1,54.375,2|0,1:3|1:2,0:2:0:0:
359,182,100211,5,4,1:2:0:0:
359,182,100295,1,0,0:2:0:0:
359,182,100378,2,0,P|351:156|331:135,1,54.375,2|0,0:3|0:2,0:2:0:0:
151,184,100545,1,8,1:1:0:0:
151,184,100628,1,0,0:2:0:0:
151,184,100712,2,0,L|119:243,1,54.375,0|0,1:2|1:2,0:2:0:0:
246,369,100878,5,12,1:2:0:0:
266,363,100961,1,2,0:3:0:0:
245,355,101045,5,8,1:2:0:0:
265,349,101128,1,2,0:3:0:0:
244,343,101211,5,12,1:2:0:0:
264,337,101294,1,2,0:3:0:0:
245,326,101378,5,8,1:2:0:0:
265,320,101461,1,2,0:3:0:0:
246,309,101545,5,12,1:2:0:0:
266,303,101628,1,2,0:3:0:0:
245,295,101712,5,8,1:2:0:0:
265,289,101795,1,2,0:3:0:0:
244,283,101878,5,12,1:2:0:0:
264,277,101961,1,2,0:3:0:0:
245,266,102045,5,8,1:2:0:0:
265,260,102128,1,2,0:3:0:0:
245,249,102211,6,0,L|216:196,1,54.375,12|0,1:2|1:2,0:2:0:0:
163,157,102378,2,0,L|128:146,2,36.25,2|0|0,3:2|3:2|3:2,3:2:0:0:
285,174,102545,6,0,L|301:110,1,54.375,12|0,1:2|1:2,0:2:0:0:
352,78,102711,2,0,L|392:86,2,36.25,2|0|0,3:2|3:2|3:2,3:2:0:0:
196,67,102878,6,0,L|142:49,1,54.375,12|0,1:2|1:2,0:2:0:0:
76,35,103045,2,0,L|86:-3,2,36.25,2|0|0,3:2|3:2|3:2,3:2:0:0:
298,121,103211,6,0,L|352:103,1,54.375,12|0,1:2|1:2,0:2:0:0:
408,52,103378,2,0,L|398:14,2,36.25,2|0|0,3:2|3:2|3:2,3:2:0:0:
442,187,103545,5,4,1:1:0:0:
449,207,103628,1,0,0:2:0:0:
467,218,103711,1,0,3:2:0:0:
488,219,103795,1,0,0:2:0:0:
504,204,103878,1,8,3:2:0:0:
505,182,103961,1,0,0:2:0:0:
492,164,104045,1,0,3:2:0:0:
471,158,104128,1,0,3:2:0:0:
451,167,104211,5,8,3:2:0:0:
418,166,104295,1,0,0:2:0:0:
389,150,104378,1,0,3:2:0:0:
373,121,104461,1,0,0:2:0:0:
370,88,104545,5,8,3:2:0:0:
365,131,104628,1,0,3:2:0:0:
351,172,104711,1,0,3:2:0:0:
326,208,104795,1,0,0:2:0:0:
286,224,104878,5,8,3:2:0:0:
268,211,104961,1,0,0:2:0:0:
250,198,105045,1,0,3:2:0:0:
232,185,105128,1,0,0:2:0:0:
215,171,105211,5,8,3:2:0:0:
225,167,105295,1,0,0:2:0:0:
235,163,105378,1,0,3:2:0:0:
245,159,105461,1,0,3:2:0:0:
255,155,105545,5,8,3:2:0:0:
223,147,105628,1,0,3:2:0:0:
191,139,105711,1,2,3:2:0:0:
158,131,105795,1,0,0:2:0:0:
126,124,105878,5,10,3:2:0:0:
167,111,105961,1,0,3:2:0:0:
209,98,106045,1,2,3:2:0:0:
250,86,106128,1,0,0:2:0:0:
291,74,106211,5,8,3:2:0:0:
273,45,106295,1,0,0:2:0:0:
242,32,106378,1,0,3:2:0:0:
209,27,106461,1,0,0:2:0:0:
177,35,106545,1,8,3:2:0:0:
145,27,106628,1,0,3:2:0:0:
112,28,106711,1,0,3:2:0:0:
83,44,106795,1,0,0:2:0:0:
65,71,106878,5,8,3:2:0:0:
72,102,106961,1,0,0:2:0:0:
72,134,107045,1,0,3:2:0:0:
57,163,107128,1,0,3:2:0:0:
31,182,107211,1,8,3:2:0:0:
74,186,107295,1,0,0:2:0:0:
110,209,107378,1,0,3:2:0:0:
130,247,107461,1,0,0:2:0:0:
137,290,107545,5,8,3:2:0:0:
155,279,107628,1,0,3:2:0:0:
176,281,107711,1,0,3:2:0:0:
197,286,107795,1,0,0:2:0:0:
212,270,107878,5,8,3:2:0:0:
220,276,107961,1,0,0:2:0:0:
225,285,108045,1,2,3:2:0:0:
228,295,108128,1,0,3:2:0:0:
230,305,108211,6,0,L|267:318,2,36.25,8|0|0,3:2|0:2|0:2,0:2:0:0:
322,280,108378,2,0,L|363:270,2,36.25,2|0|0,3:2|0:2|0:2,0:2:0:0:
376,345,108545,2,0,L|413:358,2,36.25,8|0|0,3:2|0:2|0:2,0:2:0:0:
419,215,108711,2,0,L|460:205,2,36.25,2|0|0,3:2|0:2|0:2,0:2:0:0:
512,374,108878,5,12,1:2:0:0:
256,21,109378,2,0,L|256:83,1,54.375,0|0,1:2|1:2,1:2:0:0:
256,75,109545,1,6,1:2:0:0:
120,192,109795,1,6,1:2:0:0:
392,192,110045,1,6,1:2:0:0:
256,21,110378,5,6,1:1:0:0:
