osu file format v14

[General]
AudioFilename: audio.mp3
AudioLeadIn: 0
PreviewTime: 90620
Countdown: 1
SampleSet: None
StackLeniency: 0.7
Mode: 0
LetterboxInBreaks: 0
WidescreenStoryboard: 0

[Editor]
Bookmarks: 19235,19850,23081,23696,35389,36466,36620,37235,37543,37850,39543,39620,39696,42620,43850,44158,54927,56158,56927,57389,58620,63850,64158,64466,64773,91850,101696,102927,103696,104158,106158
DistanceSpacing: 0.5
BeatDivisor: 4
GridSize: 4
TimelineZoom: 2.600005

[Metadata]
Title:Kimi to Mita Sora no Uta
TitleUnicode:君と見たソラの歌
Artist:KU1175 & Ryota Kikuchi
ArtistUnicode:KU1175 & Ryota Kikuchi
Creator:october
Version:Extra
Source:VOEZ
Tags:rhythm game japanese
BeatmapID:1059242
BeatmapSetID:497683

[Difficulty]
HPDrainRate:6
CircleSize:4
OverallDifficulty:8
ApproachRate:9.4
SliderMultiplier:2
SliderTickRate:1

[Events]
//Background and Video events
0,0,"yande.re 353429 sample dangmill hatsune_miku heels neko seifuku umbrella vocaloid.jpg",0,0
//Break Periods
2,70050,84080
//Storyboard Layer 0 (Background)
//Storyboard Layer 1 (Fail)
//Storyboard Layer 2 (Pass)
//Storyboard Layer 3 (Foreground)
//Storyboard Sound Samples

[TimingPoints]
620,307.692307692308,4,1,0,75,1,0
40312,-100,4,3,0,83,0,1
44158,-100,4,1,0,73,0,0
54927,-100,4,3,0,83,0,1
62466,-100,4,1,0,73,0,0
91389,-100,4,3,0,83,0,1
106773,-100,4,1,0,73,0,0

[HitObjects]
255,236,466,5,0,0:0:0:0:
354,121,620,1,0,0:0:0:0:
192,73,773,1,0,0:0:0:0:
153,84,849,1,0,0:0:0:0:
123,110,926,1,0,0:0:0:0:
107,146,1003,1,0,0:0:0:0:
101,188,1081,2,0,P|132:254|162:274,1,100
287,295,1389,1,0,0:0:0:0:
218,203,1543,2,0,P|256:149|297:148,1,100
413,166,1850,5,0,0:0:0:0:
355,245,2004,1,0,0:0:0:0:
304,99,2158,2,0,P|240:64|191:89,1,100
96,168,2466,1,0,0:0:0:0:
213,235,2620,1,0,0:0:0:0:
80,256,2773,1,0,0:0:0:0:
216,152,2927,1,0,0:0:0:0:
108,92,3081,1,0,0:0:0:0:
232,48,3235,5,0,0:0:0:0:
352,120,3389,1,0,0:0:0:0:
312,248,3543,2,0,P|264:288|208:280,1,100
128,200,3850,1,0,0:0:0:0:
248,216,4004,1,0,0:0:0:0:
176,136,4158,2,0,P|104:120|56:144,1,100
0,200,4466,1,0,0:0:0:0:
80,296,4620,2,0,P|152:320|208:288,1,100
304,232,4927,1,0,0:0:0:0:
160,160,5081,5,0,0:0:0:0:
304,80,5235,1,0,0:0:0:0:
304,80,5312,1,0,0:0:0:0:
304,80,5389,1,0,0:0:0:0:
408,168,5543,2,0,P|392:256|352:288,1,100
232,312,5850,1,0,0:0:0:0:
240,168,6004,6,0,P|207:91|169:78,1,100
56,88,6312,1,0,0:0:0:0:
64,208,6466,2,0,B|152:272|208:216|296:256,1,200
392,240,6927,5,0,0:0:0:0:
423,228,7003,1,0,0:0:0:0:
442,201,7080,1,0,0:0:0:0:
455,164,7158,1,0,0:0:0:0:
452,124,7235,1,0,0:0:0:0:
366,41,7389,1,0,0:0:0:0:
295,150,7543,1,0,0:0:0:0:
186,51,7696,5,0,0:0:0:0:
89,146,7850,1,0,0:0:0:0:
82,184,7926,1,0,0:0:0:0:
96,221,8003,1,0,0:0:0:0:
109,247,8081,1,0,0:0:0:0:
133,276,8158,2,0,B|174:302|216:314|266:300,1,100
397,252,8620,5,0,0:0:0:0:
417,206,8696,1,0,0:0:0:0:
425,157,8773,1,0,0:0:0:0:
417,108,8850,1,0,0:0:0:0:
396,63,8927,1,0,0:0:0:0:
279,19,9081,1,0,0:0:0:0:
290,150,9235,2,0,P|291:227|246:260,1,100
140,279,9543,5,0,0:0:0:0:
192,151,9696,1,0,0:0:0:0:
68,189,9850,1,0,0:0:0:0:
106,83,10004,2,0,P|165:42|200:40,1,100
322,49,10312,5,0,0:0:0:0:
285,167,10466,1,0,0:0:0:0:
402,86,10620,2,0,P|441:185|427:210,1,100
406,286,10927,5,0,0:0:0:0:
371,158,11081,1,0,0:0:0:0:
298,277,11235,1,0,0:0:0:0:
233,150,11389,1,0,0:0:0:0:
171,280,11543,1,0,0:0:0:0:
99,149,11696,1,0,0:0:0:0:
40,267,11850,1,0,0:0:0:0:
40,267,11927,1,0,0:0:0:0:
40,267,12004,2,0,P|-8:188|8:141,1,100
68,42,12312,5,0,0:0:0:0:
223,99,12466,2,0,P|261:160|236:210,1,100
161,283,12773,1,0,0:0:0:0:
161,283,12927,1,0,0:0:0:0:
90,184,13081,6,0,P|108:105|162:82,1,100
267,34,13389,1,0,0:0:0:0:
326,163,13543,1,0,0:0:0:0:
185,133,13696,1,0,0:0:0:0:
307,265,13850,1,0,0:0:0:0:
148,288,14004,1,0,0:0:0:0:
60,186,14158,1,0,0:0:0:0:
132,67,14312,6,0,P|201:43|248:54,1,100
372,110,14620,1,0,0:0:0:0:
246,162,14773,1,0,0:0:0:0:
375,235,14927,2,0,P|355:288|301:306,1,100
182,292,15235,1,0,0:0:0:0:
147,269,15312,1,0,0:0:0:0:
121,237,15389,1,0,0:0:0:0:
94,129,15543,2,0,P|117:77|164:52,1,100
281,62,15850,5,0,0:0:0:0:
373,140,16004,2,0,P|371:206|327:237,1,100
230,259,16312,1,0,0:0:0:0:
301,170,16466,1,0,0:0:0:0:
154,168,16620,1,0,0:0:0:0:
230,89,16773,1,0,0:0:0:0:
84,65,16927,2,0,P|52:126|58:170,1,100
104,278,17235,5,0,0:0:0:0:
227,183,17389,1,0,0:0:0:0:
230,287,17543,1,0,0:0:0:0:
330,159,17696,1,0,0:0:0:0:
180,84,17850,2,0,P|108:99|88:140,1,100
46,234,18158,5,0,0:0:0:0:
160,160,18312,1,0,0:0:0:0:
150,296,18466,1,0,0:0:0:0:
261,169,18620,1,0,0:0:0:0:
261,169,18696,1,0,0:0:0:0:
261,169,18773,2,0,P|322:141|355:146,1,100
462,213,19081,1,0,0:0:0:0:
356,290,19235,5,0,0:0:0:0:
339,91,19389,2,0,P|283:61|233:71,1,100
127,142,19696,1,0,0:0:0:0:
292,186,19850,1,0,0:0:0:0:
83,250,20004,2,0,P|22:180|22:139,1,100
78,48,20312,1,0,0:0:0:0:
228,60,20466,1,0,0:0:0:0:
127,142,20620,2,0,P|175:200|224:197,1,100
321,124,20927,6,0,P|393:137|411:164,1,100
412,301,21235,2,0,P|328:327|291:302,1,100
192,246,21543,5,0,0:0:0:0:
109,109,21696,1,0,0:0:0:0:
67,244,21850,1,0,0:0:0:0:
215,101,22004,1,0,0:0:0:0:
311,243,22158,1,0,0:0:0:0:
342,81,22312,1,0,0:0:0:0:
211,232,22466,1,0,0:0:0:0:
99,83,22620,1,0,0:0:0:0:
48,261,22773,1,0,0:0:0:0:
217,69,22927,1,0,0:0:0:0:
379,179,23081,6,0,P|383:248|339:277,1,100
224,295,23389,1,0,0:0:0:0:
310,209,23543,1,0,0:0:0:0:
183,95,23696,1,0,0:0:0:0:
191,184,23850,5,0,0:0:0:0:
330,24,24004,1,0,0:0:0:0:
410,61,24158,2,0,P|350:108|295:100,1,100
203,56,24466,1,0,0:0:0:0:
239,176,24620,1,0,0:0:0:0:
341,162,24773,2,0,P|320:240|291:258,1,100
152,286,25081,2,0,P|95:241|93:210,1,100
150,70,25389,2,0,P|234:42|347:75,1,200
438,155,25850,5,0,0:0:0:0:
359,233,26004,1,0,0:0:0:0:
362,133,26158,1,0,0:0:0:0:
244,170,26312,1,0,0:0:0:0:
362,133,26466,1,0,0:0:0:0:
271,59,26620,2,0,P|187:53|154:73,1,100
81,143,26927,5,0,0:0:0:0:
202,180,27081,1,0,0:0:0:0:
93,249,27235,1,0,0:0:0:0:
154,98,27389,1,0,0:0:0:0:
193,264,27543,1,0,0:0:0:0:
225,109,27696,1,0,0:0:0:0:
328,230,27850,1,0,0:0:0:0:
409,108,28004,2,0,P|360:48|332:45,1,100
212,25,28312,5,0,0:0:0:0:
317,126,28466,1,0,0:0:0:0:
229,210,28620,1,0,0:0:0:0:
274,57,28773,2,0,P|342:52|383:84,1,100
449,198,29081,2,0,B|429:244|405:264|359:260,1,100
228,279,29389,1,0,0:0:0:0:
351,174,29543,1,0,0:0:0:0:
189,140,29696,1,0,0:0:0:0:
292,58,29850,5,0,0:0:0:0:
247,204,30004,1,0,0:0:0:0:
183,57,30158,1,0,0:0:0:0:
98,164,30312,2,0,P|80:211|131:271,1,100
249,313,30620,1,0,0:0:0:0:
164,208,30773,5,0,0:0:0:0:
313,131,30927,1,0,0:0:0:0:
249,313,31081,1,0,0:0:0:0:
228,142,31235,2,0,P|168:97|138:100,1,100
31,166,31543,1,0,0:0:0:0:
126,254,31696,1,0,0:0:0:0:
10,280,31850,1,0,0:0:0:0:
111,176,32004,2,0,P|195:210|203:225,1,100
263,313,32312,5,0,0:0:0:0:
304,165,32466,1,0,0:0:0:0:
304,165,32620,2,0,P|237:104|205:109,1,100
92,139,32927,2,0,P|164:210|174:205,1,100
246,221,33235,1,0,0:0:0:0:
168,297,33389,1,0,0:0:0:0:
179,139,33543,1,0,0:0:0:0:
61,265,33696,2,0,P|15:213|31:144,1,100
96,52,34004,2,0,P|183:40|227:73,1,100
304,121,34312,5,0,0:0:0:0:
330,155,34389,1,0,0:0:0:0:
345,189,34466,2,0,P|338:251|282:282,1,100
165,237,34773,5,0,0:0:0:0:
157,86,34927,1,0,0:0:0:0:
27,164,35081,1,0,0:0:0:0:
224,157,35235,1,0,0:0:0:0:
71,89,35389,2,0,L|117:200,1,100
162,290,35696,1,0,0:0:0:0:
268,219,35850,1,0,0:0:0:0:
340,308,36004,1,0,0:0:0:0:
367,175,36158,5,0,0:0:0:0:
219,116,36312,1,0,0:0:0:0:
337,239,36466,1,0,0:0:0:0:
286,75,36620,2,0,P|235:43|173:51,1,100
92,110,36927,1,0,0:0:0:0:
173,217,37081,1,0,0:0:0:0:
290,164,37235,2,0,P|363:153|401:177,1,100
459,269,37543,2,0,P|396:306|357:299,1,100
268,243,37850,6,0,P|216:155|224:117,1,100
262,40,38158,1,0,0:0:0:0:
359,142,38312,1,0,0:0:0:0:
349,37,38466,1,0,0:0:0:0:
265,135,38620,1,0,0:0:0:0:
389,247,38773,1,0,0:0:0:0:
220,311,38927,1,0,0:0:0:0:
425,165,39081,1,0,0:0:0:0:
320,322,39235,1,0,0:0:0:0:
338,130,39389,1,0,0:0:0:0:
209,214,39543,5,0,0:0:0:0:
209,214,39620,1,0,0:0:0:0:
209,214,39696,1,0,0:0:0:0:
144,98,39850,1,0,0:0:0:0:
76,215,40004,6,0,P|105:289|150:313,1,100
258,331,40312,1,8,0:0:0:0:
213,130,40466,1,0,0:0:0:0:
373,269,40620,1,0,0:0:0:0:
356,89,40773,2,8,P|302:48|238:50,1,100
79,74,41081,1,0,0:0:0:0:
173,267,41235,1,0,0:0:0:0:
296,159,41389,2,8,P|395:194|412:218,1,100
493,302,41696,5,8,0:0:0:0:
449,106,41850,1,0,0:0:0:0:
348,292,42004,2,0,P|264:285|255:246,1,100
161,132,42312,1,8,0:0:0:0:
98,235,42466,1,8,0:0:0:0:
286,122,42620,2,4,P|359:122|389:144,1,100
471,245,42927,5,8,0:0:0:0:
344,303,43081,1,0,0:0:0:0:
442,119,43235,1,8,0:0:0:0:
257,213,43389,1,0,0:0:0:0:
332,95,43543,1,8,0:0:0:0:
422,303,43696,1,0,0:0:0:0:
287,149,43850,2,8,P|223:109|168:119,1,100
52,225,44158,2,0,P|103:306|163:303,1,150
296,80,44773,5,0,0:0:0:0:
208,152,44927,1,0,0:0:0:0:
328,192,45081,2,0,P|256:264|144:240,1,200
56,168,45543,1,0,0:0:0:0:
120,80,45696,1,0,0:0:0:0:
8,72,45850,1,0,0:0:0:0:
144,160,46004,6,0,P|208:160|240:128,1,100
304,48,46312,1,0,0:0:0:0:
416,128,46466,1,0,0:0:0:0:
320,184,46620,1,0,0:0:0:0:
232,104,46773,2,0,B|200:136|192:208|216:216,1,100
288,296,47081,2,0,P|384:272|392:248,1,100
448,192,47389,5,0,0:0:0:0:
352,104,47543,1,0,0:0:0:0:
448,192,47696,1,0,0:0:0:0:
464,88,47850,1,0,0:0:0:0:
344,184,48004,1,0,0:0:0:0:
408,40,48158,1,0,0:0:0:0:
280,72,48312,6,0,P|248:112|240:168,1,100
280,264,48620,1,0,0:0:0:0:
168,216,48773,1,0,0:0:0:0:
216,312,48927,2,0,P|320:336|344:320,1,100
392,264,49235,1,0,0:0:0:0:
296,176,49389,1,0,0:0:0:0:
408,152,49543,2,0,P|344:64|240:72,1,200
144,120,50004,5,0,0:0:0:0:
224,224,50158,1,0,0:0:0:0:
232,128,50312,1,0,0:0:0:0:
136,224,50466,1,0,0:0:0:0:
48,128,50620,1,0,0:0:0:0:
32,224,50773,2,0,P|96:312|120:312,1,100
200,296,51081,5,0,0:0:0:0:
176,136,51235,1,0,0:0:0:0:
272,224,51389,2,0,P|328:176|312:144,1,100
256,72,51696,1,0,0:0:0:0:
144,56,51850,1,0,0:0:0:0:
248,152,52004,1,0,0:0:0:0:
160,216,52158,1,0,0:0:0:0:
72,128,52312,1,0,0:0:0:0:
64,224,52466,2,0,P|80:288|152:304,1,100
240,280,52773,5,0,0:0:0:0:
224,152,52927,1,0,0:0:0:0:
352,216,53081,2,0,P|368:128|352:104,1,100
264,48,53389,1,0,0:0:0:0:
144,64,53543,5,0,0:0:0:0:
120,184,53696,2,0,P|160:224|208:224,1,100
272,128,54004,1,0,0:0:0:0:
312,256,54158,1,0,0:0:0:0:
384,112,54312,2,0,L|448:216,1,100
416,296,54620,2,0,P|352:336|320:328,1,100
208,280,54927,5,0,0:0:0:0:
312,48,55081,1,0,0:0:0:0:
72,160,55235,1,0,0:0:0:0:
368,144,55389,1,0,0:0:0:0:
88,288,55543,1,0,0:0:0:0:
224,56,55696,2,0,P|128:56|112:72,1,100
0,224,56004,1,0,0:0:0:0:
160,128,56158,5,0,0:0:0:0:
208,296,56312,1,0,0:0:0:0:
304,48,56466,1,0,0:0:0:0:
376,232,56620,1,0,0:0:0:0:
144,216,56773,1,0,0:0:0:0:
376,96,56927,2,0,P|456:152|456:168,1,100
488,288,57235,1,0,0:0:0:0:
352,344,57389,6,0,P|272:360|248:328,1,100
80,232,57696,1,0,0:0:0:0:
232,200,57850,1,0,0:0:0:0:
120,328,58004,1,0,0:0:0:0:
96,96,58158,1,0,0:0:0:0:
328,208,58312,1,0,0:0:0:0:
152,176,58466,1,0,0:0:0:0:
368,48,58620,2,0,P|440:96|440:144,1,100
432,256,58927,5,0,0:0:0:0:
368,128,59081,1,0,0:0:0:0:
280,288,59235,1,0,0:0:0:0:
464,128,59389,1,0,0:0:0:0:
240,96,59543,1,0,0:0:0:0:
400,344,59696,1,0,0:0:0:0:
376,48,59850,5,0,0:0:0:0:
288,336,60004,2,0,P|176:352|160:336,1,100
72,264,60312,2,0,P|128:224|176:224,1,100
312,240,60620,1,0,0:0:0:0:
352,256,60696,1,0,0:0:0:0:
392,256,60773,2,0,P|448:232|456:184,1,100
392,64,61081,2,0,P|320:64|296:96,1,100
200,256,61389,6,0,P|272:312|304:312,1,100
400,168,61696,2,0,P|336:120|296:120,1,100
160,144,62004,1,0,0:0:0:0:
72,248,62158,1,0,0:0:0:0:
80,128,62312,2,0,P|144:64|192:72,1,100
264,56,62620,5,0,0:0:0:0:
248,176,62773,1,0,0:0:0:0:
352,56,62927,1,0,0:0:0:0:
344,200,63081,2,0,P|304:248|256:272,1,100
144,272,63389,1,0,0:0:0:0:
72,152,63543,1,0,0:0:0:0:
256,192,63850,5,0,0:0:0:0:
256,192,64158,1,0,0:0:0:0:
392,104,64466,5,0,0:0:0:0:
396,146,64542,1,0,0:0:0:0:
409,187,64619,1,0,0:0:0:0:
404,229,64696,1,0,0:0:0:0:
384,264,64773,2,0,B|328:336|272:256|184:312,1,200
80,256,65235,1,0,0:0:0:0:
184,176,65389,1,0,0:0:0:0:
64,144,65543,1,0,0:0:0:0:
168,80,65696,2,0,P|248:96|288:136,1,100
360,192,66004,5,0,0:0:0:0:
373,218,66080,1,0,0:0:0:0:
373,249,66157,1,0,0:0:0:0:
352,280,66235,1,0,0:0:0:0:
307,301,66311,1,0,0:0:0:0:
257,301,66388,1,0,0:0:0:0:
213,279,66465,1,0,0:0:0:0:
152,184,66620,1,0,0:0:0:0:
248,128,66773,2,0,P|320:112|344:72,1,100
432,24,67081,5,0,0:0:0:0:
440,160,67235,1,0,0:0:0:0:
504,80,67389,1,0,0:0:0:0:
368,96,67543,2,0,P|328:184|352:216,1,100
408,272,67850,1,0,0:0:0:0:
288,320,68004,1,0,0:0:0:0:
232,216,68158,1,0,0:0:0:0:
232,216,68235,1,0,0:0:0:0:
232,216,68312,1,0,0:0:0:0:
152,152,68466,6,0,P|128:224|160:280,1,100
192,328,68773,1,0,0:0:0:0:
64,320,68927,1,0,0:0:0:0:
32,200,69081,2,0,P|72:96|96:80,1,100
184,80,69389,5,0,0:0:0:0:
264,200,69543,1,0,0:0:0:0:
320,72,69696,1,0,0:0:0:0:
144,224,69850,1,0,0:0:0:0:
304,104,84620,6,0,P|336:192|312:224,1,100
288,288,84927,1,0,0:0:0:0:
224,224,85081,1,0,0:0:0:0:
176,144,85235,2,0,P|112:208|112:240,1,100
248,360,85543,2,0,P|344:352|368:320,1,100
160,312,85543,1,0,0:0:0:0:
400,272,85850,5,0,0:0:0:0:
296,224,86004,1,0,0:0:0:0:
400,168,86158,2,0,P|448:112|440:96,1,100
336,40,86466,1,0,0:0:0:0:
232,136,86620,1,0,0:0:0:0:
128,72,86773,2,0,P|200:24|232:40,1,100
336,120,87081,5,0,0:0:0:0:
240,248,87235,1,0,0:0:0:0:
240,248,87312,1,0,0:0:0:0:
240,248,87389,1,0,0:0:0:0:
104,168,87543,1,0,0:0:0:0:
224,56,87696,1,0,0:0:0:0:
224,56,87773,1,0,0:0:0:0:
224,56,87850,1,0,0:0:0:0:
272,168,88004,5,0,0:0:0:0:
112,80,88158,1,0,0:0:0:0:
112,80,88235,1,0,0:0:0:0:
112,80,88312,1,0,0:0:0:0:
176,192,88466,1,0,0:0:0:0:
296,80,88620,1,0,0:0:0:0:
296,80,88696,1,0,0:0:0:0:
296,80,88773,1,0,0:0:0:0:
272,280,88927,5,0,0:0:0:0:
136,296,89081,1,0,0:0:0:0:
136,296,89158,1,0,0:0:0:0:
136,296,89235,1,0,0:0:0:0:
64,176,89389,2,0,P|112:112|144:112,1,100
264,176,89696,5,0,0:0:0:0:
200,40,89850,1,0,0:0:0:0:
360,64,90004,1,0,0:0:0:0:
192,128,90158,1,0,0:0:0:0:
368,224,90312,1,0,0:0:0:0:
176,320,90466,1,0,0:0:0:0:
304,120,90620,1,0,0:0:0:0:
100,84,91389,5,0,0:0:0:0:
85,110,91465,1,0,0:0:0:0:
83,140,91542,1,0,0:0:0:0:
92,172,91620,1,0,0:0:0:0:
132,200,91696,1,0,0:0:0:0:
180,214,91773,1,0,0:0:0:0:
220,236,91850,2,0,P|276:252|324:296,1,100
428,368,92158,1,0,0:0:0:0:
468,240,92312,6,0,P|436:164|416:152,1,100
260,124,92620,1,0,0:0:0:0:
384,64,92773,1,0,0:0:0:0:
296,260,92927,1,0,0:0:0:0:
484,128,93081,2,0,P|480:184|447:255,1,100
384,328,93389,1,0,0:0:0:0:
372,168,93543,1,0,0:0:0:0:
240,260,93696,2,0,P|144:272|120:256,1,100
68,132,94004,2,0,P|136:88|192:100,1,100
284,124,94312,5,0,0:0:0:0:
284,124,94389,1,0,0:0:0:0:
284,124,94466,2,0,P|340:80|336:48,1,100
216,16,94773,1,0,0:0:0:0:
136,168,94927,1,0,0:0:0:0:
60,32,95081,1,0,0:0:0:0:
224,172,95235,1,0,0:0:0:0:
44,108,95389,2,0,P|60:216|84:232,1,100
136,292,95696,1,0,0:0:0:0:
256,244,95850,5,0,0:0:0:0:
364,328,96004,2,0,P|440:264|444:248,1,100
424,128,96312,1,0,0:0:0:0:
328,212,96466,1,0,0:0:0:0:
356,32,96620,1,0,0:0:0:0:
216,144,96773,1,0,0:0:0:0:
204,12,96927,2,0,B|132:16|100:68,1,100
40,164,97235,1,0,0:0:0:0:
176,244,97389,5,0,0:0:0:0:
48,316,97543,1,0,0:0:0:0:
128,148,97696,1,0,0:0:0:0:
224,328,97850,1,0,0:0:0:0:
20,232,98004,2,0,P|8:156|40:120,1,100
140,24,98312,1,0,0:0:0:0:
244,152,98466,5,0,0:0:0:0:
108,172,98620,1,0,0:0:0:0:
228,48,98773,2,0,P|300:64|328:96,1,100
388,176,99081,1,0,0:0:0:0:
260,288,99235,1,0,0:0:0:0:
168,136,99389,2,0,P|272:144|288:160,1,100
392,272,99696,1,0,0:0:0:0:
212,360,99850,1,0,0:0:0:0:
320,200,100004,2,0,P|224:220|192:236,1,100
72,264,100312,5,0,0:0:0:0:
128,92,100466,1,0,0:0:0:0:
196,280,100620,1,0,0:0:0:0:
232,80,100773,1,0,0:0:0:0:
316,264,100927,1,0,0:0:0:0:
124,180,101081,1,0,0:0:0:0:
344,92,101235,2,0,P|396:160|396:184,1,100
404,320,101543,1,0,0:0:0:0:
284,192,101696,5,0,0:0:0:0:
176,304,101850,1,0,0:0:0:0:
284,192,102004,1,0,0:0:0:0:
104,144,102158,1,0,0:0:0:0:
284,192,102312,1,0,0:0:0:0:
212,36,102466,1,0,0:0:0:0:
284,192,102620,1,0,0:0:0:0:
96,260,102773,1,0,0:0:0:0:
284,192,102927,6,0,P|360:116|360:104,1,100
252,4,103235,1,0,0:0:0:0:
104,144,103389,1,0,0:0:0:0:
280,88,103543,1,0,0:0:0:0:
96,56,103696,2,0,P|36:88|40:216,1,200
168,300,104158,2,0,P|248:276|264:232,1,100
332,136,104466,5,0,0:0:0:0:
384,280,104620,1,0,0:0:0:0:
232,132,104773,1,0,0:0:0:0:
388,32,104927,1,0,0:0:0:0:
332,224,105081,1,0,0:0:0:0:
264,20,105235,5,0,0:0:0:0:
448,184,105389,1,0,0:0:0:0:
240,236,105543,1,0,0:0:0:0:
400,328,105696,1,0,0:0:0:0:
348,72,105850,1,0,0:0:0:0:
172,124,106004,1,0,0:0:0:0:
348,176,106158,1,0,0:0:0:0:
357,224,106234,1,0,0:0:0:0:
343,271,106311,1,0,0:0:0:0:
308,306,106388,1,0,0:0:0:0:
261,321,106465,1,0,0:0:0:0:
128,284,106620,5,0,0:0:0:0:
240,192,106773,2,0,P|252:124|224:92,1,100
104,96,107081,1,0,0:0:0:0:
156,200,107235,1,0,0:0:0:0:
32,176,107389,1,0,0:0:0:0:
31,206,107465,1,0,0:0:0:0:
40,235,107542,1,0,0:0:0:0:
59,259,107620,1,0,0:0:0:0:
93,294,107696,1,0,0:0:0:0:
141,307,107773,1,0,0:0:0:0:
188,296,107850,6,0,P|278:273|302:277,1,100
424,296,108158,2,0,P|472:240|472:196,1,100
364,112,108466,1,0,0:0:0:0:
333,115,108542,1,0,0:0:0:0:
305,135,108619,1,0,0:0:0:0:
266,167,108696,1,0,0:0:0:0:
220,184,108773,1,0,0:0:0:0:
167,172,108850,1,0,0:0:0:0:
123,138,108927,1,0,0:0:0:0:
28,96,109081,5,0,0:0:0:0:
84,248,109235,1,0,0:0:0:0:
16,172,109389,1,0,0:0:0:0:
24,300,109543,2,0,P|112:324|136:312,1,100
216,248,109850,1,0,0:0:0:0:
112,172,110004,1,0,0:0:0:0:
224,120,110158,1,0,0:0:0:0:
336,228,110312,5,0,0:0:0:0:
264,48,110466,1,0,0:0:0:0:
264,180,110620,2,0,P|200:232|156:224,1,100
72,184,110927,2,0,P|132:112|160:108,1,100
264,104,111235,1,0,0:0:0:0:
152,24,111389,1,0,0:0:0:0:
276,20,111543,5,0,0:0:0:0:
368,104,111696,2,0,P|332:192|304:196,1,100
196,184,112004,2,0,P|156:224|248:296,1,200
352,264,112466,1,0,0:0:0:0:
284,184,112620,1,0,0:0:0:0:
424,176,112773,2,0,P|392:100|356:96,1,100
252,44,113081,6,0,P|200:112|204:152,1,100
236,256,113389,1,0,0:0:0:0:
112,208,113543,1,0,0:0:0:0:
288,152,113696,1,0,0:0:0:0:
340,264,113850,1,0,0:0:0:0:
200,160,114004,2,0,P|236:76|340:80,1,200
416,176,114466,5,0,0:0:0:0:
276,224,114620,1,0,0:0:0:0:
396,312,114773,1,0,0:0:0:0:
320,152,114927,1,0,0:0:0:0:
232,292,115081,1,0,0:0:0:0:
112,208,115235,2,0,P|128:148|184:88,1,100
256,64,115543,5,0,0:0:0:0:
408,128,115850,2,0,B|412:204|280:156|272:280|272:280|264:332|216:352|184:320,1,300
