osu file format v14

[General]
AudioFilename: audio.mp3
AudioLeadIn: 0
PreviewTime: 42303
Countdown: 0
SampleSet: Soft
StackLeniency: 0.7
Mode: 0
LetterboxInBreaks: 0
WidescreenStoryboard: 1

[Editor]
Bookmarks: 51410,59256,74141
DistanceSpacing: 1.1
BeatDivisor: 8
GridSize: 16
TimelineZoom: 1.8

[Metadata]
Title:Contradiction (feat. Tyler Carter) (TV Size)
TitleUnicode:Contradiction (feat. Tyler Carter) (TV Size)
Artist:KSUKE
ArtistUnicode:KSUKE
Creator:AirinCat
Version:Normal
Source:THE GOD OF HIGH SCHOOL ゴッド・オブ・ハイスクール
Tags:anime english opening op 갓 오브 하이스쿨 webtoon line goh gohs highschool Yongje Park web manga crunchyroll pop electronic dubstep korean manhwa mori jin han daewi yu mira mappa animation
BeatmapID:2523876
BeatmapSetID:1212562

[Difficulty]
HPDrainRate:3
CircleSize:3.4
OverallDifficulty:4
ApproachRate:6
SliderMultiplier:1.2
SliderTickRate:1

[Events]
//Background and Video events
0,0,"82709471_p0.jpg",0,0
Video,-163,"mori.mp4"
//Break Periods
2,15995,28206
//Storyboard Layer 0 (Background)
//Storyboard Layer 1 (Fail)
//Storyboard Layer 2 (Pass)
//Storyboard Layer 3 (Foreground)
//Storyboard Layer 4 (Overlay)
//Storyboard Sound Samples

[TimingPoints]
180,461.538461538462,4,2,1,70,1,0
180,-83.3333333333333,4,2,1,70,0,0
1103,-83.3333333333333,4,2,1,70,0,0
3872,-83.3333333333333,4,2,1,70,0,0
13103,-83.3333333333333,4,2,1,76,0,0
14026,-83.3333333333333,4,2,1,80,0,0
14949,-100,4,2,4,80,0,0
15410,-100,4,2,4,5,0,0
15641,-100,4,2,4,35,0,0
15756,-83.3333333333333,4,2,1,50,0,0
29256,-83.3333333333333,4,2,1,65,0,0
29718,-83.3333333333333,4,2,1,70,0,0
37103,-83.3333333333333,4,2,1,60,0,0
38026,-83.3333333333333,4,2,1,62,0,0
38949,-83.3333333333333,4,2,1,64,0,0
39872,-83.3333333333333,4,2,1,68,0,0
40795,-83.3333333333333,4,2,1,50,0,0
41256,-83.3333333333333,4,2,1,55,0,0
41718,-83.3333333333333,4,2,1,60,0,0
42180,-83.3333333333333,4,2,1,70,0,0
42641,-83.3333333333333,4,2,1,60,0,0
44487,-76.9230769230769,4,2,1,80,0,0
45641,-76.9230769230769,4,2,1,80,0,0
45699,-76.9230769230769,4,2,1,10,0,0
45756,-76.9230769230769,4,2,1,80,0,0
45814,-76.9230769230769,4,2,1,10,0,0
45872,-76.9230769230769,4,2,1,80,0,0
45930,-76.9230769230769,4,2,1,10,0,0
45987,-76.9230769230769,4,2,1,80,0,0
46045,-76.9230769230769,4,2,1,10,0,0
46103,-76.9230769230769,4,2,1,80,0,0
46160,-76.9230769230769,4,2,1,10,0,0
46218,-76.9230769230769,4,2,1,80,0,0
46276,-76.9230769230769,4,2,1,10,0,0
46333,-76.9230769230769,4,2,1,80,0,0
47487,-76.9230769230769,4,2,1,80,0,0
47545,-76.9230769230769,4,2,1,10,0,0
47602,-76.9230769230769,4,2,1,80,0,0
47660,-76.9230769230769,4,2,1,10,0,0
47718,-76.9230769230769,4,2,1,80,0,0
47776,-76.9230769230769,4,2,1,10,0,0
47833,-76.9230769230769,4,2,1,80,0,0
47891,-76.9230769230769,4,2,1,10,0,0
47949,-76.9230769230769,4,2,1,80,0,0
48006,-76.9230769230769,4,2,1,10,0,0
48064,-76.9230769230769,4,2,1,80,0,0
48122,-76.9230769230769,4,2,1,10,0,0
48180,-76.9230769230769,4,2,1,80,0,0
49333,-76.9230769230769,4,2,1,80,0,0
49391,-76.9230769230769,4,2,1,10,0,0
49448,-76.9230769230769,4,2,1,80,0,0
49506,-76.9230769230769,4,2,1,10,0,0
49564,-76.9230769230769,4,2,1,80,0,0
49622,-76.9230769230769,4,2,1,10,0,0
49679,-76.9230769230769,4,2,1,80,0,0
49737,-76.9230769230769,4,2,1,10,0,0
49795,-76.9230769230769,4,2,1,80,0,0
49852,-76.9230769230769,4,2,1,10,0,0
49910,-76.9230769230769,4,2,1,80,0,0
49968,-76.9230769230769,4,2,1,10,0,0
50026,-76.9230769230769,4,2,1,80,0,0
50949,-76.9230769230769,4,2,1,80,0,0
51872,-76.9230769230769,4,2,1,80,0,0
53026,-76.9230769230769,4,2,1,80,0,0
53083,-76.9230769230769,4,2,1,10,0,0
53140,-76.9230769230769,4,2,1,80,0,0
53198,-76.9230769230769,4,2,1,10,0,0
53256,-76.9230769230769,4,2,1,80,0,0
53314,-76.9230769230769,4,2,1,10,0,0
53371,-76.9230769230769,4,2,1,80,0,0
53429,-76.9230769230769,4,2,1,10,0,0
53487,-76.9230769230769,4,2,1,80,0,0
53544,-76.9230769230769,4,2,1,10,0,0
53602,-76.9230769230769,4,2,1,80,0,0
53660,-76.9230769230769,4,2,1,10,0,0
53718,-76.9230769230769,4,2,1,80,0,0
54872,-76.9230769230769,4,2,1,80,0,0
54930,-76.9230769230769,4,2,1,10,0,0
54987,-76.9230769230769,4,2,1,80,0,0
55045,-76.9230769230769,4,2,1,10,0,0
55103,-76.9230769230769,4,2,1,80,0,0
55161,-76.9230769230769,4,2,1,10,0,0
55218,-76.9230769230769,4,2,1,80,0,0
55276,-76.9230769230769,4,2,1,10,0,0
55334,-76.9230769230769,4,2,1,80,0,0
55391,-76.9230769230769,4,2,1,10,0,0
55449,-76.9230769230769,4,2,1,80,0,0
55507,-76.9230769230769,4,2,1,10,0,0
55564,-76.9230769230769,4,2,1,80,0,0
57410,-76.9230769230769,4,2,1,60,0,0
58333,-76.9230769230769,4,2,1,60,0,0
58795,-76.9230769230769,4,2,1,86,0,0
59141,-76.9230769230769,4,2,1,5,0,0
59256,-76.9230769230769,4,2,1,88,0,0
60641,-76.9230769230769,4,2,1,88,0,0
61103,-76.9230769230769,4,2,1,88,0,0
62487,-76.9230769230769,4,2,1,88,0,0
63064,-76.9230769230769,4,2,1,88,0,0
64333,-76.9230769230769,4,2,1,88,0,0
64795,-76.9230769230769,4,2,1,88,0,0
65891,-76.9230769230769,4,2,1,5,0,0
65949,-76.9230769230769,4,2,1,88,0,0
66122,-76.9230769230769,4,2,1,5,0,0
66180,-76.9230769230769,4,2,1,88,0,0
66353,-76.9230769230769,4,2,1,5,0,0
66410,-76.9230769230769,4,2,1,88,0,0
66641,-76.9230769230769,4,2,1,88,0,0
68026,-76.9230769230769,4,2,1,88,0,0
68487,-76.9230769230769,4,2,1,88,0,0
69872,-76.9230769230769,4,2,1,88,0,0
70449,-76.9230769230769,4,2,1,88,0,0
71718,-76.9230769230769,4,2,1,88,0,0
72814,-76.9230769230769,4,2,1,5,0,0
72872,-76.9230769230769,4,2,1,88,0,0
73045,-76.9230769230769,4,2,1,5,0,0
73103,-76.9230769230769,4,2,1,78,0,0
73795,-76.9230769230769,4,2,1,68,0,0
74141,-76.9230769230769,4,2,1,88,0,0
74487,-76.9230769230769,4,2,1,88,0,0
80026,-76.9230769230769,4,2,1,88,0,0
80487,-76.9230769230769,4,2,1,88,0,0
80660,-76.9230769230769,4,2,1,5,0,0
80718,-76.9230769230769,4,2,1,88,0,0
80891,-76.9230769230769,4,2,1,5,0,0
80949,-76.9230769230769,4,2,1,88,0,0
81410,-76.9230769230769,4,2,1,88,0,0
88564,-76.9230769230769,4,2,1,88,0,0
88795,-76.9230769230769,4,2,1,68,0,0
89660,-76.9230769230769,4,2,1,15,0,0

[Colours]
Combo1 : 253,213,151
Combo2 : 235,105,86
Combo3 : 242,152,98
Combo4 : 215,193,185

[HitObjects]
22,324,180,6,0,P|62:273|142:291,1,143.999995605469,6|10,1:2|1:2,0:0:0:0:
203,321,872,1,2,0:2:0:0:
264,270,1103,2,0,P|255:214|251:155,2,107.999996704102,2|2|2,1:2|0:2|0:2,0:0:0:0:
333,309,2026,1,2,1:2:0:0:
477,245,2487,2,0,L|466:169,1,71.9999978027344,10|2,1:2|0:2,0:0:0:0:
405,119,2949,2,0,P|451:92|503:102,2,107.999996704102,2|2|2,1:2|0:2|0:2,0:0:0:0:
346,172,3872,6,0,P|269:156|192:146,1,143.999995605469,2|10,1:2|1:2,0:0:0:0:
142,97,4564,1,2,0:2:0:0:
64,113,4795,2,0,P|27:149|35:201,2,107.999996704102,2|2|2,1:2|0:2|0:2,0:0:0:0:
142,97,5718,5,2,1:2:0:0:
278,176,6180,2,0,L|270:249,1,71.9999978027344,10|2,1:2|0:2,0:0:0:0:
224,312,6641,2,0,P|174:328|125:299,2,107.999996704102,2|2|2,1:2|0:2|0:2,0:0:0:0:
270,247,7564,6,0,L|344:258,1,71.9999978027344,2|2,1:2|3:2,0:0:0:0:
420,265,8026,1,10,1:2:0:0:
508,134,8487,2,0,L|434:123,1,71.9999978027344,2|2,1:2|3:2,0:0:0:0:
358,106,8949,1,10,1:2:0:0:
245,217,9410,6,0,L|237:292,1,71.9999978027344,2|2,1:2|3:2,0:0:0:0:
181,345,9872,1,10,1:2:0:0:
102,336,10103,1,2,3:2:0:0:
52,274,10333,2,0,L|62:201,1,71.9999978027344,2|2,1:2|3:2,0:0:0:0:
77,124,10795,1,10,1:2:0:0:
207,34,11256,6,0,L|278:39,1,71.9999978027344,2|2,1:2|3:2,0:0:0:0:
348,77,11718,1,10,1:2:0:0:
343,156,11949,1,2,3:2:0:0:
273,194,12180,2,0,L|197:186,1,71.9999978027344,2|2,1:2|3:2,0:0:0:0:
132,226,12641,1,10,1:2:0:0:
249,332,13103,6,0,L|324:338,1,71.9999978027344,2|2,1:2|3:2,0:0:0:0:
378,283,13564,2,0,L|384:208,1,71.9999978027344,10|2,1:2|3:2,0:0:0:0:
443,158,14026,1,2,1:2:0:0:
455,79,14256,1,2,3:2:0:0:
393,28,14487,1,8,1:2:0:0:
261,41,14949,6,0,P|289:126|304:215,1,180,4|0,1:1|0:2,0:0:0:0:
25,111,29256,6,0,L|33:191,1,71.9999978027344,8|8,0:2|0:2,0:0:0:0:
15,260,29718,6,0,B|51:268|51:268|79:247,1,71.9999978027344,4|0,1:2|0:2,0:0:0:0:
132,188,30180,1,10,1:2:0:0:
198,230,30410,2,0,P|276:239|354:247,1,143.999995605469,2|2,0:2|0:2,0:0:0:0:
393,305,31103,1,10,1:2:0:0:
464,271,31333,1,2,0:0:0:0:
467,112,31795,5,2,0:0:0:0:
387,118,32026,1,10,1:2:0:0:
339,54,32256,2,0,P|270:21|213:66,1,143.999995605469,2|2,0:2|0:2,0:0:0:0:
189,129,32949,1,10,1:2:0:0:
239,190,33180,2,0,L|324:185,1,71.9999978027344,2|2,3:2|1:2,0:0:0:0:
321,343,33872,2,0,L|246:348,1,71.9999978027344,8|0,1:2|3:2,0:0:0:0:
170,356,34333,2,0,P|107:314|142:255,1,143.999995605469,2|10,1:2|1:2,0:0:0:0:
249,159,35256,6,0,B|203:154|203:154|166:112|166:112|121:107,1,143.999995605469,2|8,1:2|1:2,0:0:0:0:
45,101,35949,1,2,0:2:0:0:
1,166,36180,2,0,L|12:245,1,71.9999978027344,2|2,1:2|0:2,0:0:0:0:
30,314,36641,1,10,1:2:0:0:
191,308,37103,6,0,L|267:295,2,71.9999978027344,2|8|0,1:3|1:2|1:3,0:0:0:0:
131,256,37795,2,0,P|105:192|151:133,1,143.999995605469,10|10,1:2|1:2,0:0:0:0:
222,117,38487,1,2,1:2:0:0:
299,98,38718,6,0,P|377:111|446:124,1,143.999995605469,10|10,1:2|1:2,0:0:0:0:
482,190,39410,1,2,1:2:0:0:
445,260,39641,2,0,P|403:266|311:321,1,143.999995605469,10|10,1:2|1:2,0:0:0:0:
251,362,40333,1,2,1:2:0:0:
180,329,40564,1,10,1:2:0:0:
256,192,40795,12,2,42641,3:2:0:0:
0,270,43564,6,0,P|10:323|28:387,2,107.999996704102,2|2|2,0:2|0:2|3:3,0:0:0:0:
32,190,44487,6,0,B|65:169|65:169|101:185,1,77.9999964294435,4|0,1:2|0:0,0:0:0:0:
168,238,44949,2,0,L|259:219,1,77.9999964294435,8|0,1:2|0:0,0:0:0:0:
327,202,45410,1,4,1:3:0:0:
261,43,45872,1,10,1:2:0:0:
334,0,46103,1,2,3:2:0:0:
412,32,46333,6,0,L|402:125,1,77.9999964294435,4|0,1:3|0:0,0:0:0:0:
466,168,46795,2,0,B|486:204|486:204|467:236,1,77.9999964294435,8|0,1:2|0:0,0:0:0:0:
411,301,47256,1,4,1:3:0:0:
264,211,47718,1,10,1:2:0:0:
195,262,47949,1,2,3:2:0:0:
226,342,48180,6,0,L|314:360,1,77.9999964294435,4|0,1:3|0:0,0:0:0:0:
387,344,48641,2,0,P|410:313|406:275,1,77.9999964294435,8|0,1:2|0:0,0:0:0:0:
361,202,49103,1,4,1:3:0:0:
195,262,49564,1,10,1:2:0:0:
125,211,49795,1,2,3:2:0:0:
147,128,50026,6,0,L|144:46,1,77.9999964294435,4|0,1:3|0:0,0:0:0:0:
58,56,50487,2,0,L|61:138,1,77.9999964294435,8|0,1:2|0:0,0:0:0:0:
12,205,50949,2,0,P|17:243|19:294,1,77.9999964294435,2|2,1:2|0:2,0:0:0:0:
82,340,51410,1,8,1:2:0:0:
167,339,51641,1,2,3:2:0:0:
221,272,51872,6,0,P|215:232|214:184,1,77.9999964294435,4|0,1:2|0:0,0:0:0:0:
261,123,52333,2,0,B|293:104|293:104|332:123,1,77.9999964294435,8|0,1:2|0:0,0:0:0:0:
410,152,52795,1,4,1:3:0:0:
420,323,53256,1,10,1:2:0:0:
344,363,53487,1,2,3:2:0:0:
271,317,53718,6,0,L|188:328,1,77.9999964294435,4|0,1:3|0:0,0:0:0:0:
110,305,54180,2,0,P|90:272|97:235,1,77.9999964294435,8|0,1:2|0:0,0:0:0:0:
140,160,54641,1,4,1:3:0:0:
266,275,55103,2,0,L|347:265,1,77.9999964294435,10|2,1:2|3:2,0:0:0:0:
423,296,55564,6,0,B|438:262|438:262|416:228,1,77.9999964294435,2|2,1:3|1:3,0:0:0:0:
363,159,56026,2,0,B|340:125|340:125|356:91,1,77.9999964294435,2|2,1:3|1:3,0:0:0:0:
430,47,56487,2,0,B|365:56|365:56|357:53|357:53|284:65|284:65|279:59|279:59|187:71,1,233.999989288331,0|0,1:2|1:2,0:0:0:0:
154,141,57410,6,0,P|110:89|137:7,2,155.999992858887,2|0|0,0:1|0:2|0:2,0:0:0:0:
289,246,58795,1,8,3:1:0:0:
134,320,59256,6,0,L|42:307,1,77.9999964294435,0|0,1:2|0:0,0:0:0:0:
0,248,59718,1,10,1:2:0:0:
11,162,59949,1,2,0:2:0:0:
80,112,60180,2,0,L|169:122,1,77.9999964294435,2|0,1:3|0:0,0:0:0:0:
225,68,60641,2,0,B|280:54|312:83|280:83|319:119|373:102,1,155.999992858887,10|0,1:2|1:0,0:0:0:0:
470,240,61564,5,10,1:2:0:0:
459,325,61795,1,2,0:2:0:0:
377,351,62026,2,0,L|298:342,1,77.9999964294435,2|0,1:3|0:0,0:0:0:0:
214,329,62487,1,10,1:2:0:0:
279,170,62949,6,0,L|284:91,1,77.9999964294435,0|0,1:2|0:2,0:0:0:0:
214,40,63410,1,10,1:2:0:0:
128,37,63641,1,2,0:2:0:0:
60,89,63872,2,0,L|58:169,1,77.9999964294435,2|0,1:3|0:0,0:0:0:0:
53,252,64333,1,10,1:2:0:0:
242,268,64795,6,0,B|289:255|329:279|289:291|336:321|389:310,1,155.999992858887,4|10,1:2|1:2,0:0:0:0:
455,266,65487,1,2,0:2:0:0:
497,191,65718,2,0,B|512:157|512:157|485:126,1,77.9999964294435,2|10,1:2|3:3,0:0:0:0:
423,68,66180,1,6,3:3:0:0:
337,74,66410,1,10,3:3:0:0:
282,140,66641,6,0,L|291:226,1,77.9999964294435,0|0,1:2|0:0,0:0:0:0:
340,287,67103,1,10,1:2:0:0:
292,358,67333,1,2,0:2:0:0:
206,349,67564,2,0,L|124:357,1,77.9999964294435,2|0,1:3|0:2,0:0:0:0:
42,366,68026,2,0,B|31:321|74:282|74:282|55:263|51:218,1,155.999992858887,10|0,1:2|1:0,0:0:0:0:
31,55,68949,5,10,1:2:0:0:
97,0,69180,1,2,0:2:0:0:
168,47,69410,2,0,L|176:139,1,77.9999964294435,2|0,1:3|0:2,0:0:0:0:
114,185,69872,1,10,1:2:0:0:
191,338,70333,6,0,L|280:325,1,77.9999964294435,0|0,1:2|0:2,0:0:0:0:
348,358,70795,1,10,1:2:0:0:
433,346,71026,1,2,0:2:0:0:
478,273,71256,2,0,L|465:196,1,77.9999964294435,2|0,1:3|0:2,0:0:0:0:
453,110,71718,1,10,1:2:0:0:
289,58,72180,6,0,B|264:89|264:89|284:125,1,77.9999964294435,6|0,1:2|0:0,0:0:0:0:
249,201,72641,2,0,L|163:212,1,77.9999964294435,10|2,1:2|0:2,0:0:0:0:
86,222,73103,2,0,B|38:219|14:188|23:137|23:137|58:109,2,155.999992858887,2|8|0,1:2|3:2|0:0,0:0:0:0:
194,89,74487,5,10,1:2:0:0:
267,133,74718,2,0,P|341:118|435:108,1,155.999992858887,2|2,0:2|0:0,0:0:0:0:
499,142,75410,1,10,1:2:0:0:
463,220,75641,1,2,3:2:0:0:
355,354,76103,5,2,0:0:0:0:
271,371,76333,1,10,1:2:0:0:
238,291,76564,2,0,P|169:246|106:284,1,155.999992858887,2|2,0:2|0:0,0:0:0:0:
55,343,77256,1,10,1:2:0:0:
1,275,77487,2,0,L|16:191,1,77.9999964294435,2|0,3:2|1:2,0:0:0:0:
147,85,78180,5,10,1:2:0:0:
214,136,78410,2,0,P|285:107|363:105,1,155.999992858887,2|2,0:2|0:0,0:0:0:0:
440,144,79103,1,10,1:2:0:0:
421,227,79333,2,0,L|434:314,2,77.9999964294435,2|4|2,3:3|1:2|3:2,0:0:0:0:
341,193,80026,5,10,1:2:0:0:
270,241,80256,1,2,0:2:0:0:
192,204,80487,2,0,B|170:168|170:168|186:127,1,77.9999964294435,2|10,1:2|0:3,0:0:0:0:
236,66,80949,1,2,3:2:0:0:
341,193,81410,6,0,L|351:283,1,77.9999964294435,0|0,1:2|0:0,0:0:0:0:
301,342,81872,1,8,1:2:0:0:
221,311,82103,2,0,P|146:322|52:330,1,155.999992858887,2|2,0:2|0:0,0:0:0:0:
10,263,82795,1,10,1:2:0:0:
39,182,83026,2,0,L|27:103,2,77.9999964294435,2|0|2,3:3|1:2|0:2,0:0:0:0:
118,214,83718,1,10,1:2:0:0:
177,152,83949,6,0,B|264:122|233:204|322:167,1,155.999992858887,2|2,0:2|0:0,0:0:0:0:
400,132,84641,1,10,1:2:0:0:
477,169,84872,2,0,L|487:251,1,77.9999964294435,2|2,3:2|1:2,0:0:0:0:
341,339,85564,5,10,1:2:0:0:
292,268,85795,2,0,P|222:280|130:291,1,155.999992858887,2|2,0:2|0:0,0:0:0:0:
66,338,86487,1,10,1:2:0:0:
8,274,86718,1,2,3:2:0:0:
41,194,86949,6,0,B|16:162|16:162|32:128,1,77.9999964294435,6|0,1:2|0:0,0:0:0:0:
117,122,87410,2,0,B|141:153|141:153|125:187,1,77.9999964294435,10|0,1:2|0:2,0:0:0:0:
185,248,87872,2,0,B|224:251|224:251|260:228|260:228|300:231,2,116.999994644165,2|10|2,1:2|3:3|3:2,0:0:0:0:
124,188,88795,6,0,B|86:144|114:89|114:89|180:122|204:91|204:91|179:47|200:5,1,292.499986610413,2|0,0:3|0:3,0:0:0:0:
