osu file format v14

[General]
AudioFilename: audio.mp3
AudioLeadIn: 0
PreviewTime: 42303
Countdown: 0
SampleSet: Soft
StackLeniency: 0.7
Mode: 0
LetterboxInBreaks: 0
WidescreenStoryboard: 1

[Editor]
Bookmarks: 51410,59256,74141
DistanceSpacing: 1.1
BeatDivisor: 8
GridSize: 16
TimelineZoom: 2.799999

[Metadata]
Title:Contradiction (feat. Tyler Carter) (TV Size)
TitleUnicode:Contradiction (feat. Tyler Carter) (TV Size)
Artist:KSUKE
ArtistUnicode:KSUKE
Creator:AirinCat
Version:Hard
Source:THE GOD OF HIGH SCHOOL ゴッド・オブ・ハイスクール
Tags:anime english opening op 갓 오브 하이스쿨 webtoon line goh gohs highschool Yongje Park web manga crunchyroll pop electronic dubstep korean manhwa mori jin han daewi yu mira mappa animation
BeatmapID:2523874
BeatmapSetID:1212562

[Difficulty]
HPDrainRate:4
CircleSize:3.8
OverallDifficulty:6
ApproachRate:7.6
SliderMultiplier:1.6
SliderTickRate:1

[Events]
//Background and Video events
0,0,"82709471_p0.jpg",0,0
Video,-163,"mori.mp4"
//Break Periods
//Storyboard Layer 0 (Background)
//Storyboard Layer 1 (Fail)
//Storyboard Layer 2 (Pass)
//Storyboard Layer 3 (Foreground)
//Storyboard Layer 4 (Overlay)
//Storyboard Sound Samples

[TimingPoints]
180,461.538461538462,4,2,1,70,1,0
180,-83.3333333333333,4,2,1,70,0,0
1103,-83.3333333333333,4,2,1,70,0,0
3872,-83.3333333333333,4,2,1,70,0,0
13103,-83.3333333333333,4,2,1,76,0,0
14026,-83.3333333333333,4,2,1,80,0,0
14949,-142.857142857143,4,2,4,80,0,0
15410,-142.857142857143,4,2,4,5,0,0
15756,-90.909090909091,4,2,1,50,0,0
29256,-83.3333333333333,4,2,1,65,0,0
29718,-83.3333333333333,4,2,1,70,0,0
37103,-83.3333333333333,4,2,1,60,0,0
38026,-83.3333333333333,4,2,1,62,0,0
38949,-83.3333333333333,4,2,1,64,0,0
39872,-83.3333333333333,4,2,1,68,0,0
40795,-83.3333333333333,4,2,1,50,0,0
41256,-83.3333333333333,4,2,1,55,0,0
41718,-83.3333333333333,4,2,1,60,0,0
42180,-83.3333333333333,4,2,1,70,0,0
42641,-100,4,2,1,60,0,0
44487,-76.9230769230769,4,2,1,80,0,0
45641,-76.9230769230769,4,2,1,80,0,0
45699,-76.9230769230769,4,2,1,10,0,0
45756,-76.9230769230769,4,2,1,80,0,0
45814,-76.9230769230769,4,2,1,10,0,0
45872,-76.9230769230769,4,2,1,80,0,0
45930,-76.9230769230769,4,2,1,10,0,0
45987,-76.9230769230769,4,2,1,80,0,0
46045,-76.9230769230769,4,2,1,10,0,0
46103,-76.9230769230769,4,2,1,80,0,0
46160,-76.9230769230769,4,2,1,10,0,0
46218,-76.9230769230769,4,2,1,80,0,0
46276,-76.9230769230769,4,2,1,10,0,0
46333,-76.9230769230769,4,2,1,80,0,0
47487,-76.9230769230769,4,2,1,80,0,0
47545,-76.9230769230769,4,2,1,10,0,0
47602,-76.9230769230769,4,2,1,80,0,0
47660,-76.9230769230769,4,2,1,10,0,0
47718,-76.9230769230769,4,2,1,80,0,0
47776,-76.9230769230769,4,2,1,10,0,0
47833,-76.9230769230769,4,2,1,80,0,0
47891,-76.9230769230769,4,2,1,10,0,0
47949,-76.9230769230769,4,2,1,80,0,0
48006,-76.9230769230769,4,2,1,10,0,0
48064,-76.9230769230769,4,2,1,80,0,0
48122,-76.9230769230769,4,2,1,10,0,0
48180,-76.9230769230769,4,2,1,80,0,0
49333,-76.9230769230769,4,2,1,80,0,0
49391,-76.9230769230769,4,2,1,10,0,0
49448,-76.9230769230769,4,2,1,80,0,0
49506,-76.9230769230769,4,2,1,10,0,0
49564,-76.9230769230769,4,2,1,80,0,0
49622,-76.9230769230769,4,2,1,10,0,0
49679,-76.9230769230769,4,2,1,80,0,0
49737,-76.9230769230769,4,2,1,10,0,0
49795,-76.9230769230769,4,2,1,80,0,0
49852,-76.9230769230769,4,2,1,10,0,0
49910,-76.9230769230769,4,2,1,80,0,0
49968,-76.9230769230769,4,2,1,10,0,0
50026,-76.9230769230769,4,2,1,80,0,0
50949,-76.9230769230769,4,2,1,80,0,0
51872,-76.9230769230769,4,2,1,80,0,0
53026,-76.9230769230769,4,2,1,80,0,0
53083,-76.9230769230769,4,2,1,10,0,0
53140,-76.9230769230769,4,2,1,80,0,0
53198,-76.9230769230769,4,2,1,10,0,0
53256,-76.9230769230769,4,2,1,80,0,0
53314,-76.9230769230769,4,2,1,10,0,0
53371,-76.9230769230769,4,2,1,80,0,0
53429,-76.9230769230769,4,2,1,10,0,0
53487,-76.9230769230769,4,2,1,80,0,0
53544,-76.9230769230769,4,2,1,10,0,0
53602,-76.9230769230769,4,2,1,80,0,0
53660,-76.9230769230769,4,2,1,10,0,0
53718,-76.9230769230769,4,2,1,80,0,0
54872,-76.9230769230769,4,2,1,80,0,0
54930,-76.9230769230769,4,2,1,10,0,0
54987,-76.9230769230769,4,2,1,80,0,0
55045,-76.9230769230769,4,2,1,10,0,0
55103,-76.9230769230769,4,2,1,80,0,0
55161,-76.9230769230769,4,2,1,10,0,0
55218,-76.9230769230769,4,2,1,80,0,0
55276,-76.9230769230769,4,2,1,10,0,0
55334,-76.9230769230769,4,2,1,80,0,0
55391,-76.9230769230769,4,2,1,10,0,0
55449,-76.9230769230769,4,2,1,80,0,0
55507,-76.9230769230769,4,2,1,10,0,0
55564,-83.3333333333333,4,2,1,80,0,0
57410,-142.857142857143,4,2,1,60,0,0
58333,-66.6666666666667,4,2,1,60,0,0
58795,-333.333333333333,4,2,1,86,0,0
59141,-333.333333333333,4,2,1,5,0,0
59256,-76.9230769230769,4,2,1,88,0,0
60641,-76.9230769230769,4,2,1,88,0,0
61103,-76.9230769230769,4,2,1,88,0,0
62487,-76.9230769230769,4,2,1,88,0,0
63064,-76.9230769230769,4,2,1,88,0,0
64333,-76.9230769230769,4,2,1,88,0,0
64795,-76.9230769230769,4,2,1,88,0,0
65891,-76.9230769230769,4,2,1,5,0,0
65949,-76.9230769230769,4,2,1,88,0,0
66122,-76.9230769230769,4,2,1,5,0,0
66180,-76.9230769230769,4,2,1,88,0,0
66353,-76.9230769230769,4,2,1,5,0,0
66410,-76.9230769230769,4,2,1,88,0,0
66641,-76.9230769230769,4,2,1,88,0,0
68026,-76.9230769230769,4,2,1,88,0,0
68487,-76.9230769230769,4,2,1,88,0,0
69872,-76.9230769230769,4,2,1,88,0,0
70449,-76.9230769230769,4,2,1,88,0,0
71718,-76.9230769230769,4,2,1,88,0,0
72814,-76.9230769230769,4,2,1,5,0,0
72872,-76.9230769230769,4,2,1,88,0,0
73045,-76.9230769230769,4,2,1,5,0,0
73103,-76.9230769230769,4,2,1,78,0,0
73795,-111.111111111111,4,2,1,68,0,0
74141,-76.9230769230769,4,2,1,88,0,0
74487,-76.9230769230769,4,2,1,88,0,0
80026,-76.9230769230769,4,2,1,88,0,0
80487,-76.9230769230769,4,2,1,88,0,0
80660,-76.9230769230769,4,2,1,5,0,0
80718,-76.9230769230769,4,2,1,88,0,0
80891,-76.9230769230769,4,2,1,5,0,0
80949,-76.9230769230769,4,2,1,88,0,0
81410,-76.9230769230769,4,2,1,88,0,0
88564,-90.9090909090909,4,2,1,88,0,0
88680,-90.9090909090909,4,2,1,5,0,0
88795,-111.111111111111,4,2,1,68,0,0
89660,-111.111111111111,4,2,1,5,0,0

[Colours]
Combo1 : 253,213,151
Combo2 : 235,105,86
Combo3 : 242,152,98
Combo4 : 215,193,185

[HitObjects]
23,211,180,6,0,P|29:254|37:310,1,95.9999970703126,6|0,1:2|3:2,0:0:0:0:
107,381,641,1,10,1:2:0:0:
211,363,872,1,2,0:2:0:0:
271,286,1103,2,0,P|260:235|250:173,1,95.9999970703126,2|0,1:2|0:2,0:0:0:0:
265,179,1449,1,2,0:2:0:0:
278,170,1564,1,8,1:2:0:0:
369,230,1795,1,2,0:2:0:0:
468,181,2026,6,0,P|474:124|476:76,1,95.9999970703126,2|0,1:2|3:2,0:0:0:0:
391,22,2487,1,10,1:2:0:0:
294,65,2718,1,2,0:2:0:0:
316,168,2949,2,0,P|324:212|330:273,1,95.9999970703126,2|0,1:2|0:2,0:0:0:0:
316,273,3295,1,2,0:2:0:0:
300,282,3410,1,8,1:2:0:0:
201,244,3641,1,2,0:2:0:0:
140,347,3872,6,0,P|95:360|52:333,1,95.9999970703126,2|0,1:2|3:2,0:0:0:0:
11,259,4333,1,10,1:2:0:0:
79,196,4564,1,2,0:2:0:0:
9,119,4795,2,0,P|13:94|24:16,1,95.9999970703126,2|0,1:2|0:2,0:0:0:0:
38,20,5141,1,2,0:2:0:0:
52,15,5256,1,8,1:2:0:0:
117,95,5487,1,2,0:2:0:0:
203,41,5718,6,0,P|248:28|298:56,1,95.9999970703126,2|0,1:2|3:2,0:0:0:0:
326,154,6180,1,10,1:2:0:0:
427,182,6410,1,2,0:2:0:0:
500,106,6641,2,0,P|491:57|481:4,1,95.9999970703126,2|0,1:2|0:2,0:0:0:0:
467,14,6987,1,2,0:2:0:0:
452,18,7103,1,8,1:2:0:0:
385,92,7333,1,2,0:2:0:0:
257,6,7564,6,0,L|152:22,1,95.9999970703126,2|2,1:2|3:2,0:0:0:0:
57,2,8026,1,10,1:2:0:0:
7,94,8256,1,2,3:2:0:0:
105,132,8487,2,0,P|108:185|113:229,1,95.9999970703126,2|2,1:2|3:2,0:0:0:0:
25,287,8949,1,10,1:2:0:0:
121,370,9180,5,2,3:2:0:0:
121,370,9295,1,2,0:0:0:0:
121,370,9410,2,0,L|234:354,1,95.9999970703126,2|2,1:2|3:2,0:0:0:0:
232,362,9756,1,0,3:2:0:0:
243,370,9872,1,10,1:2:0:0:
303,283,10103,1,2,3:2:0:0:
217,221,10333,2,0,P|203:172|228:132,1,95.9999970703126,2|2,1:2|3:2,0:0:0:0:
239,128,10680,1,0,3:2:0:0:
252,126,10795,1,10,1:2:0:0:
343,197,11026,5,2,3:2:0:0:
343,197,11141,1,2,3:2:0:0:
343,197,11256,1,2,1:2:0:0:
413,119,11487,2,0,L|402:69,2,47.9999985351563,2|2|10,3:2|3:2|1:2,0:0:0:0:
512,181,11949,2,0,L|501:231,2,47.9999985351563,2|2|2,3:2|3:2|1:2,0:0:0:0:
427,113,12410,2,0,L|416:63,2,47.9999985351563,2|2|10,3:2|3:2|1:2,0:0:0:0:
343,197,12872,5,2,3:2:0:0:
343,197,12987,1,2,3:2:0:0:
343,197,13103,1,2,1:2:0:0:
401,284,13333,1,2,3:2:0:0:
332,364,13564,1,10,1:2:0:0:
230,334,13795,1,2,3:2:0:0:
226,224,14026,5,2,1:2:0:0:
226,224,14141,1,0,3:2:0:0:
226,224,14256,1,2,3:2:0:0:
121,290,14487,2,0,P|77:280|17:272,1,95.9999970703126,8|0,1:2|0:2,0:0:0:0:
26,272,14949,6,0,P|90:225|40:131,1,195.999994018555,4|2,1:1|0:2,0:0:0:0:
42,131,15987,6,0,P|81:121|140:113,1,88.000002685547,2|0,0:2|0:2,0:0:0:0:
146,100,16333,2,0,P|175:155|245:144,1,132.00000402832,2|0,0:2|0:2,0:0:0:0:
237,150,17372,2,0,L|228:102,2,44.0000013427735,2|2|2,0:2|0:2|0:2,0:0:0:0:
268,167,17718,2,0,L|253:80,2,88.000002685547,2|2|2,0:2|0:2|0:2,0:0:0:0:
268,167,19372,6,0,L|272:218,1,44.0000013427735,2|0,0:2|0:2,0:0:0:0:
241,242,19603,2,0,L|243:290,2,44.0000013427735,2|2|2,0:2|0:2|0:2,0:0:0:0:
223,317,19949,2,0,P|166:274|101:300,1,146.666671142578,2|0,0:2|0:2,0:0:0:0:
101,299,21180,2,0,L|52:289,1,44.0000013427735,2|0,0:2|0:2,0:0:0:0:
24,282,21410,2,0,L|41:180,2,102.666669799805,2|2|2,0:2|0:2|0:2,0:0:0:0:
112,359,23141,5,2,0:2:0:0:
113,346,23256,2,0,L|232:330,1,110.000003356934,2|0,0:2|0:2,0:0:0:0:
240,349,23660,2,0,P|312:360|347:308,1,132.00000402832,2|0,0:2|0:2,0:0:0:0:
345,318,24987,1,2,0:2:0:0:
346,305,25103,2,0,L|404:302,2,44.0000013427735,2|2|2,0:2|0:2|0:2,0:0:0:0:
270,228,25564,2,0,P|254:189|271:149,1,88.000002685547,2|0,0:2|0:2,0:0:0:0:
271,149,26756,6,0,L|328:154,1,44.0000013427735,2|0,0:2|0:2,0:0:0:0:
341,132,26987,2,0,L|398:135,2,44.0000013427735,2|2|2,0:2|0:2|0:2,0:0:0:0:
411,114,27333,2,0,P|394:192|386:270,1,146.666671142578,2|0,0:2|0:2,0:0:0:0:
386,258,28564,2,0,L|350:253,1,29.3333342285157,2|2,0:2|0:2,0:0:0:0:
329,281,28756,2,0,L|222:265,1,102.666669799805,2|2,0:2|0:2,0:0:0:0:
2,243,29256,5,8,0:2:0:0:
68,361,29487,1,8,0:2:0:0:
68,361,29603,1,8,0:2:0:0:
68,361,29718,6,0,L|170:348,1,95.9999970703126,4|0,1:2|0:2,0:0:0:0:
228,266,30180,1,10,1:2:0:0:
160,181,30410,2,0,P|145:131|173:91,1,95.9999970703126,2|0,0:2|1:2,0:0:0:0:
247,29,30872,1,2,0:2:0:0:
335,78,31103,1,10,1:2:0:0:
451,30,31333,5,2,3:2:0:0:
451,30,31449,1,0,3:2:0:0:
451,30,31564,2,0,P|456:68|470:143,1,95.9999970703126,0|2,1:2|0:2,0:0:0:0:
489,229,32026,1,10,1:2:0:0:
423,314,32256,2,0,P|384:272|393:226,1,95.9999970703126,2|0,0:2|1:2,0:0:0:0:
362,134,32718,1,2,0:2:0:0:
252,119,32949,1,10,1:2:0:0:
210,229,33180,5,2,3:2:0:0:
210,229,33295,1,0,3:2:0:0:
210,229,33410,2,0,P|159:237|95:245,1,95.9999970703126,2|0,1:2|0:2,0:0:0:0:
26,319,33872,2,0,L|35:380,2,47.9999985351563,8|0|0,1:2|3:2|3:2,0:0:0:0:
0,169,34333,5,2,1:2:0:0:
17,140,34449,1,2,0:2:0:0:
48,127,34564,1,2,0:2:0:0:
81,132,34680,1,2,0:2:0:0:
107,152,34795,2,0,P|150:123|126:38,1,143.999995605469,10|0,1:2|3:2,0:0:0:0:
128,23,35256,6,0,B|86:27|86:27|79:34|79:34|19:40,2,95.9999970703126,2|0|8,1:2|0:2|1:2,0:0:0:0:
231,4,35949,1,2,0:2:0:0:
281,90,36180,1,2,1:2:0:0:
234,175,36410,1,2,0:2:0:0:
301,251,36641,2,0,P|350:236|408:226,1,95.9999970703126,10|0,1:2|0:2,0:0:0:0:
499,371,37103,5,2,1:3:0:0:
411,333,37333,1,8,1:2:0:0:
328,383,37564,1,0,1:2:0:0:
242,338,37795,2,0,P|201:347|139:376,1,95.9999970703126,10|2,1:2|1:3,0:0:0:0:
55,368,38256,5,10,1:2:0:0:
0,287,38487,1,2,1:2:0:0:
58,210,38718,2,0,P|56:159|45:107,1,95.9999970703126,10|2,1:2|1:3,0:0:0:0:
74,22,39180,5,10,1:2:0:0:
169,23,39410,1,2,1:2:0:0:
200,113,39641,2,0,P|192:165|188:217,1,95.9999970703126,10|2,1:2|1:3,0:0:0:0:
267,284,40103,1,10,1:2:0:0:
360,241,40333,1,2,1:2:0:0:
316,141,40564,1,10,1:2:0:0:
428,85,40795,5,10,1:2:0:0:
428,85,40910,1,8,0:2:0:0:
428,85,41026,2,0,L|476:82,1,47.9999985351563,10|8,0:2|0:2,0:0:0:0:
436,164,41256,2,0,L|484:161,1,47.9999985351563,8|8,1:2|0:2,0:0:0:0:
443,241,41487,2,0,L|491:238,1,47.9999985351563,10|8,0:2|0:2,0:0:0:0:
491,319,41718,6,0,L|442:321,3,47.9999985351563,8|8|8|8,1:2|0:2|0:2|0:2,0:0:0:0:
369,359,42180,5,8,0:2:0:0:
338,359,42295,1,8,0:2:0:0:
311,350,42410,1,10,0:2:0:0:
287,332,42526,1,10,0:2:0:0:
273,312,42641,2,0,B|285:250|285:250|324:230|324:230|337:161,2,160,2|2|2,3:2|0:0|0:2,0:0:0:0:
36,354,43910,5,2,0:0:0:0:
26,358,44026,2,0,L|18:312,1,40,2|2,3:3|3:3,0:0:0:0:
54,248,44256,2,0,L|45:204,1,40,2|2,3:3|3:3,0:0:0:0:
7,145,44487,6,0,P|78:171|127:104,1,155.999992858887,4|0,1:2|0:2,0:0:0:0:
148,48,44949,2,0,P|217:59|318:75,1,155.999992858887,8|0,1:2|0:2,0:0:0:0:
374,44,45410,1,4,1:3:0:0:
504,131,45641,1,2,0:2:0:0:
504,131,45756,1,2,0:2:0:0:
504,131,45872,2,0,P|492:174|481:239,1,103.999995239258,10|2,1:2|3:2,0:0:0:0:
385,360,46333,6,0,P|314:334|308:259,1,155.999992858887,4|0,1:3|0:2,0:0:0:0:
372,222,46795,2,0,P|308:181|241:220,1,155.999992858887,8|0,1:2|0:2,0:0:0:0:
197,280,47256,1,4,1:3:0:0:
101,176,47487,1,2,0:2:0:0:
101,176,47603,1,2,0:2:0:0:
101,176,47718,2,0,P|109:122|119:62,1,103.999995239258,10|2,1:2|3:2,0:0:0:0:
261,61,48180,6,0,P|251:144|241:230,1,155.999992858887,4|0,1:3|0:2,0:0:0:0:
298,275,48641,2,0,B|389:291|341:212|438:221,1,155.999992858887,8|0,1:2|0:2,0:0:0:0:
509,227,49103,1,4,1:3:0:0:
512,67,49333,1,2,0:2:0:0:
512,67,49449,1,2,0:2:0:0:
511,66,49564,2,0,P|455:78|402:82,1,103.999995239258,10|2,1:2|3:2,0:0:0:0:
261,31,50026,6,0,P|319:79|304:149,1,155.999992858887,4|0,1:3|0:2,0:0:0:0:
247,202,50487,2,0,P|172:181|73:177,1,155.999992858887,8|0,1:2|0:2,0:0:0:0:
19,179,50949,1,2,1:2:0:0:
32,318,51180,1,2,0:2:0:0:
32,318,51295,1,2,0:2:0:0:
32,318,51410,1,8,1:2:0:0:
147,264,51641,1,2,3:2:0:0:
19,179,51872,6,0,P|0:104|63:57,1,155.999992858887,4|0,1:2|0:2,0:0:0:0:
130,45,52333,2,0,P|172:108|250:85,1,155.999992858887,8|0,1:2|0:2,0:0:0:0:
301,44,52795,1,4,1:3:0:0:
429,134,53026,1,2,0:2:0:0:
429,134,53141,1,2,0:2:0:0:
429,134,53256,2,0,P|460:96|449:38,1,103.999995239258,10|2,1:2|3:2,0:0:0:0:
328,126,53718,6,0,P|342:209|353:298,1,155.999992858887,4|0,1:3|0:2,0:0:0:0:
395,351,54180,2,0,P|463:322|422:257,1,155.999992858887,8|0,1:2|0:2,0:0:0:0:
351,280,54641,1,4,1:3:0:0:
233,362,54872,1,2,0:2:0:0:
233,362,54987,1,2,0:2:0:0:
233,362,55103,2,0,P|182:349|109:335,1,103.999995239258,10|2,1:2|3:2,0:0:0:0:
31,261,55564,6,0,B|10:217|10:217|49:183,1,95.9999970703126,2|2,1:3|1:3,0:0:0:0:
127,139,56026,1,2,1:3:0:0:
210,213,56256,1,2,1:3:0:0:
315,145,56487,2,0,L|368:156,1,47.9999985351563,0|0,1:2|1:2,0:0:0:0:
374,187,56718,2,0,L|434:197,1,47.9999985351563,0|0,1:2|1:2,0:0:0:0:
435,226,56949,1,0,1:2:0:0:
431,254,57064,1,0,1:2:0:0:
425,282,57180,1,0,1:2:0:0:
419,310,57295,1,0,1:2:0:0:
412,333,57410,6,0,P|467:315|517:344,2,111.999996582031,2|0|0,0:1|0:2|0:2,0:0:0:0:
14,188,58795,5,8,3:1:0:0:
123,353,59256,5,0,1:2:0:0:
130,362,59372,2,0,L|148:245,1,103.999995239258,2|0,0:2|3:2,0:0:0:0:
155,186,59718,1,10,1:2:0:0:
71,107,59949,1,2,0:2:0:0:
159,34,60180,2,0,L|219:44,1,51.999997619629,2|2,1:3|0:3,0:0:0:0:
281,132,60526,1,2,0:3:0:0:
271,144,60641,2,0,L|388:130,1,103.999995239258,10|0,1:2|0:0,0:0:0:0:
467,64,61103,5,0,1:2:0:0:
474,50,61218,2,0,L|489:169,1,103.999995239258,2|0,0:2|3:2,0:0:0:0:
497,228,61564,1,10,1:2:0:0:
426,318,61795,1,2,0:2:0:0:
331,252,62026,2,0,L|274:259,1,51.999997619629,2|2,1:3|0:3,0:0:0:0:
193,329,62372,1,2,0:3:0:0:
187,338,62487,2,0,B|143:300|143:300|166:246,1,103.999995239258,10|0,1:2|0:2,0:0:0:0:
261,147,62949,5,0,1:2:0:0:
263,160,63064,2,0,L|155:142,1,103.999995239258,2|0,0:2|3:2,0:0:0:0:
85,134,63410,1,10,1:2:0:0:
7,218,63641,1,2,0:2:0:0:
70,312,63872,2,0,L|129:322,1,51.999997619629,2|2,1:3|0:3,0:0:0:0:
227,364,64218,1,2,0:3:0:0:
234,375,64333,2,0,P|249:298|329:287,1,155.999992858887,10|0,1:2|0:2,0:0:0:0:
395,317,64795,5,4,1:2:0:0:
406,328,64910,2,0,L|420:222,1,103.999995239258,2|0,0:2|3:2,0:0:0:0:
432,147,65256,1,10,1:2:0:0:
512,252,65487,1,2,0:2:0:0:
432,147,65718,6,0,L|380:155,1,51.999997619629,2|0,1:2|0:0,0:0:0:0:
338,219,65949,2,0,L|287:211,1,51.999997619629,10|0,3:3|0:0,0:0:0:0:
233,157,66180,2,0,L|178:167,1,51.999997619629,6|0,3:3|0:0,0:0:0:0:
139,231,66410,1,10,3:3:0:0:
9,149,66641,5,0,1:2:0:0:
0,161,66756,2,0,L|20:49,1,103.999995239258,2|0,0:2|3:2,0:0:0:0:
72,0,67103,1,10,1:2:0:0:
162,68,67333,1,2,0:2:0:0:
262,13,67564,2,0,L|316:24,1,51.999997619629,2|2,1:3|0:3,0:0:0:0:
412,76,67910,1,2,0:3:0:0:
416,90,68026,2,0,B|519:73,1,103.999995239258,10|0,1:2|0:0,0:0:0:0:
450,181,68487,5,0,1:2:0:0:
453,192,68603,2,0,B|406:213|406:213|364:180,1,103.999995239258,2|0,0:2|3:2,0:0:0:0:
305,127,68949,1,10,1:2:0:0:
215,188,69180,1,2,0:2:0:0:
122,120,69410,2,0,L|130:66,1,51.999997619629,2|2,1:3|0:3,0:0:0:0:
16,171,69756,1,2,0:3:0:0:
12,157,69872,2,0,L|2:260,1,103.999995239258,10|0,1:2|0:2,0:0:0:0:
86,337,70333,5,0,1:2:0:0:
95,351,70449,2,0,P|133:317|183:325,1,103.999995239258,2|0,0:2|3:2,0:0:0:0:
251,361,70795,1,10,1:2:0:0:
351,306,71026,1,2,0:2:0:0:
283,213,71256,2,0,L|217:218,1,51.999997619629,2|2,1:3|0:3,0:0:0:0:
192,108,71603,1,2,0:3:0:0:
185,98,71718,2,0,L|306:88,1,103.999995239258,10|2,1:2|0:2,0:0:0:0:
425,48,72180,6,0,B|471:21|471:21|451:128,1,155.999992858887,6|0,1:2|0:2,0:0:0:0:
402,180,72641,2,0,B|440:217|440:217|493:187,1,103.999995239258,10|2,1:2|0:2,0:0:0:0:
358,299,73103,2,0,B|320:262|320:262|267:292,1,103.999995239258,2|10,1:2|3:3,0:0:0:0:
263,304,73449,1,6,3:3:0:0:
252,317,73564,1,8,3:2:0:0:
42,202,74141,6,0,P|73:163|65:113,1,103.999995239258,2|0,0:2|0:2,0:0:0:0:
23,50,74487,1,10,1:2:0:0:
145,71,74718,2,0,L|261:86,1,103.999995239258,2|2,0:2|1:3,0:0:0:0:
257,100,75064,1,2,0:3:0:0:
265,117,75180,1,2,0:0:0:0:
365,44,75410,1,10,1:2:0:0:
465,127,75641,5,2,3:3:0:0:
465,127,75756,1,2,3:3:0:0:
465,127,75872,2,0,P|453:174|449:245,1,103.999995239258,0|2,1:2|0:2,0:0:0:0:
507,327,76333,1,10,1:2:0:0:
448,229,76564,2,0,P|399:211|351:244,1,103.999995239258,2|2,0:2|1:3,0:0:0:0:
350,256,76910,1,2,0:3:0:0:
348,275,77026,1,2,0:2:0:0:
273,361,77256,1,10,1:2:0:0:
202,284,77487,5,2,3:2:0:0:
202,284,77603,1,0,3:2:0:0:
202,284,77718,2,0,P|211:232|219:181,1,103.999995239258,0|0,1:2|0:0,0:0:0:0:
160,82,78180,1,10,1:2:0:0:
55,128,78410,2,0,P|47:178|30:244,1,103.999995239258,2|2,0:2|1:3,0:0:0:0:
26,248,78756,1,2,0:3:0:0:
16,260,78872,1,2,0:2:0:0:
95,338,79103,1,10,1:2:0:0:
210,310,79333,5,2,3:3:0:0:
210,310,79449,1,2,3:3:0:0:
210,310,79564,2,0,P|219:224|244:138,1,155.999992858887,4|2,1:2|3:2,0:0:0:0:
298,109,80026,2,0,P|260:76|211:85,1,103.999995239258,10|2,1:2|0:2,0:0:0:0:
246,242,80487,6,0,L|305:228,1,51.999997619629,2|0,1:2|0:0,0:0:0:0:
348,169,80718,2,0,L|405:182,1,51.999997619629,10|0,0:3|0:0,0:0:0:0:
448,240,80949,2,2,B|496:205|496:205|450:102,1,155.999992858887,2|0,3:2|0:2,0:1:0:0:
475,38,81410,5,0,1:2:0:0:
478,25,81526,2,0,P|435:39|363:68,1,103.999995239258,2|0,0:2|0:2,0:0:0:0:
311,91,81872,1,8,1:2:0:0:
220,20,82103,2,0,P|187:58|196:108,1,103.999995239258,2|2,0:2|1:3,0:0:0:0:
204,125,82449,1,2,0:3:0:0:
212,136,82564,1,2,0:2:0:0:
272,232,82795,1,10,1:2:0:0:
197,332,83026,5,2,3:3:0:0:
197,332,83141,1,2,3:3:0:0:
197,332,83256,2,0,L|76:311,1,103.999995239258,0|2,1:2|0:2,0:0:0:0:
30,218,83718,1,10,1:2:0:0:
120,147,83949,2,0,P|145:102|125:50,1,103.999995239258,2|2,0:2|1:3,0:0:0:0:
118,42,84295,1,2,0:3:0:0:
107,34,84410,1,2,0:2:0:0:
11,96,84641,1,10,1:2:0:0:
30,218,84872,5,2,3:2:0:0:
30,218,84987,1,0,3:2:0:0:
30,217,85103,2,0,P|80:214|115:250,1,103.999995239258,2|2,1:2|0:2,0:0:0:0:
43,339,85564,1,8,1:2:0:0:
115,250,85795,2,0,P|164:243|202:277,1,103.999995239258,2|2,0:2|1:3,0:0:0:0:
200,298,86141,1,2,0:3:0:0:
197,316,86256,1,2,0:2:0:0:
293,380,86487,1,10,1:2:0:0:
407,358,86718,1,2,3:2:0:0:
448,236,86949,6,0,P|423:167|420:67,1,155.999992858887,6|0,1:2|0:2,0:0:0:0:
333,84,87410,2,0,P|328:161|302:234,1,155.999992858887,10|0,1:2|3:2,0:0:0:0:
246,290,87872,1,2,1:2:0:0:
166,202,88103,1,6,3:3:0:0:
166,202,88218,1,10,3:3:0:0:
166,202,88333,1,10,3:2:0:0:
62,280,88564,2,0,L|69:323,1,44.0000013427735,2|0,3:2|0:0,0:0:0:0:
74,349,88795,6,0,B|114:315|190:332|149:371|219:402|275:393|293:313|236:286|212:322,1,269.999991760254,2|0,0:3|0:2,0:0:0:0:
