osu file format v14

[General]
AudioFilename: audio.mp3
AudioLeadIn: 0
PreviewTime: 42303
Countdown: 0
SampleSet: Soft
StackLeniency: 0.7
Mode: 0
LetterboxInBreaks: 0
WidescreenStoryboard: 0

[Editor]
Bookmarks: 59256,74141
DistanceSpacing: 0.6
BeatDivisor: 8
GridSize: 8
TimelineZoom: 2.799999

[Metadata]
Title:Contradiction (feat. Tyler Carter) (TV Size)
TitleUnicode:Contradiction (feat. Tyler Carter) (TV Size)
Artist:KSUKE
ArtistUnicode:KSUKE
Creator:AirinCat
Version:Extra
Source:THE GOD OF HIGH SCHOOL ゴッド・オブ・ハイスクール
Tags:anime english opening op 갓 오브 하이스쿨 webtoon line goh gohs highschool Yongje Park web manga crunchyroll pop electronic dubstep korean manhwa mori jin han daewi yu mira mappa animation
BeatmapID:2523873
BeatmapSetID:1212562

[Difficulty]
HPDrainRate:6
CircleSize:3.8
OverallDifficulty:8.2
ApproachRate:9.2
SliderMultiplier:2
SliderTickRate:1

[Events]
//Background and Video events
0,0,"82709471_p0.jpg",0,0
Video,-163,"mori.mp4"
//Break Periods
//Storyboard Layer 0 (Background)
//Storyboard Layer 1 (Fail)
//Storyboard Layer 2 (Pass)
//Storyboard Layer 3 (Foreground)
//Storyboard Layer 4 (Overlay)
//Storyboard Sound Samples

[TimingPoints]
180,461.538461538462,4,2,1,70,1,0
180,-76.9230769230769,4,2,1,70,0,0
3872,-71.4285714285714,4,2,1,70,0,0
13103,-62.5,4,2,1,76,0,0
14026,-58.8235294117647,4,2,1,80,0,0
14487,-71.4285714285714,4,2,1,80,0,0
14949,-333.333333333333,4,2,4,80,0,0
15410,-333.333333333333,4,2,4,5,0,0
15756,-125,4,2,1,50,0,0
29256,-66.6666666666667,4,2,1,65,0,0
29718,-66.6666666666667,4,2,1,70,0,0
37103,-66.6666666666667,4,2,1,60,0,0
38026,-66.6666666666667,4,2,1,62,0,0
38949,-66.6666666666667,4,2,1,64,0,0
39872,-66.6666666666667,4,2,1,68,0,0
40795,-66.6666666666667,4,2,1,50,0,0
41256,-66.6666666666667,4,2,1,55,0,0
41718,-66.6666666666667,4,2,1,60,0,0
42180,-66.6666666666667,4,2,1,70,0,0
42641,-200,4,2,1,60,0,0
44487,-47.6190476190476,4,2,1,80,0,0
45641,-52.6315789473684,4,2,1,80,0,0
45699,-52.6315789473684,4,2,1,10,0,0
45756,-52.6315789473684,4,2,1,80,0,0
45814,-52.6315789473684,4,2,1,10,0,0
45872,-52.6315789473684,4,2,1,80,0,0
45930,-52.6315789473684,4,2,1,10,0,0
45987,-52.6315789473684,4,2,1,80,0,0
46045,-52.6315789473684,4,2,1,10,0,0
46103,-52.6315789473684,4,2,1,80,0,0
46160,-52.6315789473684,4,2,1,10,0,0
46218,-52.6315789473684,4,2,1,80,0,0
46276,-52.6315789473684,4,2,1,10,0,0
46333,-50,4,2,1,80,0,0
47487,-52.6315789473684,4,2,1,80,0,0
47545,-52.6315789473684,4,2,1,10,0,0
47602,-52.6315789473684,4,2,1,80,0,0
47660,-52.6315789473684,4,2,1,10,0,0
47718,-52.6315789473684,4,2,1,80,0,0
47776,-52.6315789473684,4,2,1,10,0,0
47833,-52.6315789473684,4,2,1,80,0,0
47891,-52.6315789473684,4,2,1,10,0,0
47949,-52.6315789473684,4,2,1,80,0,0
48006,-52.6315789473684,4,2,1,10,0,0
48064,-52.6315789473684,4,2,1,80,0,0
48122,-52.6315789473684,4,2,1,10,0,0
48180,-50,4,2,1,80,0,0
49333,-52.6315789473684,4,2,1,80,0,0
49391,-52.6315789473684,4,2,1,10,0,0
49448,-52.6315789473684,4,2,1,80,0,0
49506,-52.6315789473684,4,2,1,10,0,0
49564,-52.6315789473684,4,2,1,80,0,0
49622,-52.6315789473684,4,2,1,10,0,0
49679,-52.6315789473684,4,2,1,80,0,0
49737,-52.6315789473684,4,2,1,10,0,0
49795,-52.6315789473684,4,2,1,80,0,0
49852,-52.6315789473684,4,2,1,10,0,0
49910,-52.6315789473684,4,2,1,80,0,0
49968,-52.6315789473684,4,2,1,10,0,0
50026,-50,4,2,1,80,0,0
50949,-52.6315789473684,4,2,1,80,0,0
51872,-50,4,2,1,80,0,0
53026,-52.6315789473684,4,2,1,80,0,0
53083,-52.6315789473684,4,2,1,10,0,0
53140,-52.6315789473684,4,2,1,80,0,0
53198,-52.6315789473684,4,2,1,10,0,0
53256,-52.6315789473684,4,2,1,80,0,0
53314,-52.6315789473684,4,2,1,10,0,0
53371,-52.6315789473684,4,2,1,80,0,0
53429,-52.6315789473684,4,2,1,10,0,0
53487,-52.6315789473684,4,2,1,80,0,0
53544,-52.6315789473684,4,2,1,10,0,0
53602,-52.6315789473684,4,2,1,80,0,0
53660,-52.6315789473684,4,2,1,10,0,0
53718,-50,4,2,1,80,0,0
54872,-52.6315789473684,4,2,1,80,0,0
54930,-52.6315789473684,4,2,1,10,0,0
54987,-52.6315789473684,4,2,1,80,0,0
55045,-52.6315789473684,4,2,1,10,0,0
55103,-52.6315789473684,4,2,1,80,0,0
55161,-52.6315789473684,4,2,1,10,0,0
55218,-52.6315789473684,4,2,1,80,0,0
55276,-52.6315789473684,4,2,1,10,0,0
55334,-52.6315789473684,4,2,1,80,0,0
55391,-52.6315789473684,4,2,1,10,0,0
55449,-52.6315789473684,4,2,1,80,0,0
55507,-52.6315789473684,4,2,1,10,0,0
55564,-62.5,4,2,1,80,0,0
57410,-200,4,2,1,60,0,0
58333,-66.6666666666667,4,2,1,60,0,0
58795,-500,4,2,1,86,0,0
59141,-500,4,2,1,5,0,0
59256,-55.5555555555556,4,2,1,88,0,0
60641,-66.6666666666667,4,2,1,88,0,0
61103,-55.5555555555556,4,2,1,88,0,0
62487,-66.6666666666667,4,2,1,88,0,0
63064,-55.5555555555556,4,2,1,88,0,0
64333,-66.6666666666667,4,2,1,88,0,0
64795,-62.5,4,2,1,88,0,0
65891,-62.5,4,2,1,5,0,0
65949,-71.4285714285714,4,2,1,88,0,0
66122,-71.4285714285714,4,2,1,5,0,0
66180,-83.3333333333333,4,2,1,88,0,0
66353,-83.3333333333333,4,2,1,5,0,0
66410,-100,4,2,1,88,0,0
66641,-55.5555555555556,4,2,1,88,0,0
68026,-66.6666666666667,4,2,1,88,0,0
68487,-55.5555555555556,4,2,1,88,0,0
69872,-66.6666666666667,4,2,1,88,0,0
70449,-55.5555555555556,4,2,1,88,0,0
71718,-62.5,4,2,1,88,0,0
72814,-62.5,4,2,1,5,0,0
72872,-62.5,4,2,1,88,0,0
73045,-62.5,4,2,1,5,0,0
73103,-66.6666666666667,4,2,1,78,0,0
73795,-125,4,2,1,68,0,0
74083,-125,4,2,1,5,0,0
74141,-58.8235294117647,4,2,1,88,0,0
74487,-55.5555555555556,4,2,1,88,0,0
80026,-62.5,4,2,1,88,0,0
80487,-50,4,2,1,88,0,0
80660,-50,4,2,1,5,0,0
80718,-100,4,2,1,88,0,0
80891,-100,4,2,1,5,0,0
80949,-38.4615384615385,4,2,1,88,0,0
81410,-55.5555555555556,4,2,1,88,0,0
88564,-76.9230769230769,4,2,1,88,0,0
88737,-76.9230769230769,4,2,1,5,0,0
88795,-111.111111111111,4,2,1,68,0,0
89660,-111.111111111111,4,2,1,5,0,0

[Colours]
Combo1 : 253,213,151
Combo2 : 235,105,86
Combo3 : 242,152,98
Combo4 : 215,193,185

[HitObjects]
0,132,180,5,6,1:2:0:0:
0,132,295,1,0,3:2:0:0:
0,132,410,2,0,L|76:122,1,64.9999970245363,0|0,3:2|0:2,0:2:0:0:
145,172,641,2,0,P|173:185|207:177,1,64.9999970245363,10|0,1:2|0:2,0:2:0:0:
215,81,872,2,0,P|186:67|155:74,1,64.9999970245363,2|0,0:2|0:2,0:2:0:0:
310,160,1103,5,2,1:2:0:0:
310,160,1218,2,0,P|315:118|320:80,1,64.9999970245363,0|0,0:2|0:2,0:2:0:0:
433,54,1449,1,2,0:2:0:0:
420,40,1564,2,0,L|412:119,1,64.9999970245363,8|0,1:2|0:2,0:2:0:0:
505,170,1795,2,0,L|514:92,1,64.9999970245363,2|0,0:2|0:2,0:2:0:0:
394,270,2026,5,2,1:2:0:0:
394,270,2141,1,0,3:2:0:0:
394,270,2256,2,0,L|476:279,1,64.9999970245363,0|0,3:2|0:2,0:2:0:0:
319,381,2487,2,0,L|297:316,1,64.9999970245363,10|0,1:2|0:2,0:2:0:0:
311,160,2718,2,0,L|282:246,1,64.9999970245363,2|0,0:2|0:2,0:2:0:0:
135,283,2949,5,2,1:2:0:0:
135,283,3064,2,0,L|217:268,1,64.9999970245363,0|0,0:2|0:2,0:2:0:0:
34,186,3295,1,2,0:2:0:0:
16,195,3410,2,0,L|98:208,1,64.9999970245363,8|0,1:2|0:2,0:2:0:0:
43,359,3641,2,0,L|18:274,1,64.9999970245363,2|0,0:2|0:2,0:2:0:0:
195,114,3872,5,2,1:2:0:0:
195,114,3987,1,0,3:2:0:0:
195,114,4103,2,0,L|180:202,1,69.9999978637696,0|0,3:2|0:2,0:2:0:0:
258,272,4333,2,0,P|290:283|323:274,1,69.9999978637696,10|0,1:2|0:2,0:2:0:0:
406,187,4564,2,0,P|399:149|393:103,1,69.9999978637696,2|0,0:2|0:2,0:2:0:0:
496,1,4795,5,2,1:2:0:0:
496,1,4910,2,0,L|479:91,1,69.9999978637696,0|0,0:2|0:2,0:2:0:0:
377,129,5141,1,2,0:2:0:0:
361,140,5256,2,0,L|344:50,1,69.9999978637696,8|0,1:2|0:2,0:2:0:0:
512,165,5487,2,0,L|495:255,1,69.9999978637696,2|0,0:2|0:2,0:2:0:0:
378,354,5718,5,2,1:2:0:0:
378,354,5833,1,0,3:2:0:0:
378,354,5949,2,0,L|460:367,1,69.9999978637696,0|0,3:2|0:2,0:2:0:0:
301,207,6180,2,0,P|294:244|287:282,1,69.9999978637696,10|0,1:2|0:2,0:2:0:0:
198,384,6410,2,0,P|191:347|184:309,1,69.9999978637696,2|0,0:2|0:2,0:2:0:0:
3,298,6641,5,2,1:2:0:0:
3,298,6756,2,0,L|88:282,1,69.9999978637696,0|0,0:2|0:2,0:2:0:0:
171,153,6987,1,2,0:2:0:0:
180,169,7103,2,0,L|94:184,1,69.9999978637696,8|0,1:2|0:2,0:2:0:0:
0,92,7333,2,0,L|85:76,1,69.9999978637696,2|0,0:2|0:2,0:2:0:0:
319,80,7564,6,0,P|330:47|316:17,1,69.9999978637696,2|0,1:2|0:2,0:2:0:0:
222,20,7795,2,0,P|210:52|225:84,1,69.9999978637696,2|0,3:2|0:2,0:2:0:0:
410,243,8026,2,0,L|480:235,1,69.9999978637696,10|0,1:2|0:2,0:2:0:0:
467,140,8256,2,0,L|398:148,1,69.9999978637696,2|0,3:2|0:2,0:2:0:0:
231,303,8487,2,0,L|237:372,1,69.9999978637696,2|0,1:2|0:2,0:2:0:0:
335,365,8718,2,0,L|328:295,1,69.9999978637696,2|0,3:2|0:2,0:2:0:0:
167,180,8949,2,0,L|95:187,1,69.9999978637696,10|0,1:2|0:2,0:2:0:0:
266,79,9180,5,2,3:2:0:0:
266,79,9295,1,2,0:0:0:0:
266,79,9410,2,0,L|258:-7,1,69.9999978637696,2|0,1:2|0:2,0:2:0:0:
453,136,9641,1,2,3:2:0:0:
453,136,9756,1,0,3:2:0:0:
453,136,9872,2,0,P|411:142|378:146,1,69.9999978637696,10|0,1:2|0:2,0:2:0:0:
393,275,10103,2,0,P|435:270|483:264,1,69.9999978637696,2|0,3:2|0:2,0:2:0:0:
169,174,10333,6,0,L|179:249,1,69.9999978637696,2|0,1:2|0:2,0:2:0:0:
66,354,10564,1,2,3:2:0:0:
66,354,10680,1,0,3:2:0:0:
66,354,10795,2,0,L|55:272,1,69.9999978637696,10|0,1:2|0:2,0:2:0:0:
242,341,11026,5,2,3:2:0:0:
251,317,11141,1,2,3:2:0:0:
259,296,11256,2,0,L|346:313,1,69.9999978637696,2|0,1:2|0:2,0:2:0:0:
474,218,11487,1,2,3:2:0:0:
455,192,11603,1,2,3:2:0:0:
440,173,11718,2,0,L|353:190,1,69.9999978637696,10|0,1:2|0:2,0:2:0:0:
230,41,11949,5,2,3:2:0:0:
266,19,12064,1,2,3:2:0:0:
303,35,12180,2,0,L|294:106,1,69.9999978637696,2|0,1:2|0:2,0:2:0:0:
143,288,12410,1,2,3:2:0:0:
182,314,12526,1,2,3:2:0:0:
214,305,12641,2,0,L|205:234,1,69.9999978637696,10|0,1:2|0:2,0:2:0:0:
18,51,12872,1,2,3:2:0:0:
0,128,12987,1,2,3:2:0:0:
77,168,13103,6,0,L|162:152,1,80,2|0,1:2|0:2,0:2:0:0:
274,34,13333,2,0,L|189:18,1,80,2|0,3:2|0:2,0:2:0:0:
354,242,13564,2,0,L|370:157,1,80,10|0,1:2|0:2,0:2:0:0:
488,45,13795,2,0,L|504:130,1,80,2|0,3:2|0:2,0:2:0:0:
284,303,14026,5,2,1:2:0:0:
229,231,14141,1,0,3:0:0:0:
290,161,14256,2,0,P|328:147|369:163,1,85.0000016212464,2|0,3:2|0:2,0:2:0:0:
197,312,14487,2,0,B|135:276|75:321|117:341|60:376|10:353,1,209.999993591309,8|0,1:2|0:2,0:2:0:0:
10,353,14949,6,0,P|17:308|21:263,1,89.9999972534181,4|0,1:1|0:2,0:2:0:0:
20,263,15756,5,2,0:2:0:0:
166,279,15987,2,0,L|251:263,1,80,2|0,0:2|0:2,0:2:0:0:
244,264,16333,2,0,P|284:304|338:288,1,120,2|0,0:2|0:2,0:2:0:0:
350,299,17372,1,2,0:2:0:0:
350,299,17487,1,2,0:2:0:0:
350,299,17603,1,2,0:2:0:0:
350,299,17718,2,0,P|347:266|338:220,2,80,2|2|2,0:2|0:2|0:2,0:2:0:0:
323,265,19372,6,0,L|271:272,1,40,2|0,0:2|0:2,0:2:0:0:
364,360,19603,1,2,0:2:0:0:
364,360,19718,1,2,0:2:0:0:
364,360,19833,1,2,0:2:0:0:
364,360,19949,2,0,P|421:354|446:283,1,133.333333333333,2|0,0:2|0:2,0:2:0:0:
447,289,21180,2,0,L|487:282,1,40,2|0,0:2|0:2,0:2:0:0:
379,237,21410,2,0,P|368:188|361:141,2,93.3333333333333,2|2|2,0:2|0:2|0:2,0:2:0:0:
384,241,23141,5,2,0:2:0:0:
384,241,23256,2,0,L|274:256,1,100,2|0,0:2|0:2,0:2:0:0:
277,245,23660,2,0,P|246:293|188:293,1,120,2|0,0:2|0:2,0:2:0:0:
201,305,24987,1,2,0:2:0:0:
201,305,25103,1,2,0:2:0:0:
201,305,25218,1,2,0:2:0:0:
201,305,25333,2,0,L|208:250,1,40,2|0,0:2|0:2,0:2:0:0:
135,358,25564,2,0,L|53:340,1,80,2|0,0:2|0:2,0:2:0:0:
56,340,26756,6,0,L|63:299,1,40,2|0,0:2|0:2,0:2:0:0:
141,268,26987,1,2,0:2:0:0:
141,268,27103,1,2,0:2:0:0:
141,268,27218,1,2,0:2:0:0:
141,268,27333,2,0,P|192:279|275:294,1,133.333333333333,2|0,0:2|0:2,0:2:0:0:
271,293,28564,2,0,L|268:260,1,26.6666666666667,2|2,0:2|0:2,0:2:0:0:
341,221,28756,2,0,L|351:316,1,93.3333333333333,2|2,0:2|0:2,0:2:0:0:
2,153,29256,5,8,0:2:0:0:
250,109,29487,1,8,0:2:0:0:
182,50,29603,1,8,0:2:0:0:
132,124,29718,6,0,P|145:194|158:278,1,150.000005722046,4|0,1:2|0:2,0:2:0:0:
499,367,30180,2,0,L|511:293,1,75.0000028610231,10|0,1:2|0:2,0:2:0:0:
512,190,30410,2,0,B|473:178|431:202|460:228|420:248|379:235,1,150.000005722046,2|0,0:2|1:2,0:2:0:0:
318,40,30872,2,0,P|353:45|372:76,1,75.0000028610231,2|0,0:2|0:2,0:2:0:0:
277,214,31103,2,0,P|241:208|222:177,1,75.0000028610231,10|0,1:2|0:2,0:2:0:0:
300,132,31333,5,2,3:2:0:0:
300,132,31449,1,0,3:2:0:0:
300,132,31564,1,0,1:2:0:0:
105,0,31795,2,0,L|117:84,1,75.0000028610231,2|0,0:2|0:2,0:2:0:0:
35,196,32026,2,0,P|5:172|-1:136,1,75.0000028610231,10|0,1:2|0:2,0:2:0:0:
126,183,32256,2,0,P|64:220|79:294,2,150.000005722046,2|0|2,0:2|1:2|0:2,0:2:0:0:
278,354,32949,2,0,P|243:364|204:376,1,75.0000028610231,10|0,1:2|0:2,0:2:0:0:
296,263,33180,37,2,3:2:0:0:
296,263,33295,1,0,3:2:0:0:
296,263,33410,2,0,B|344:256|368:294|345:294|376:337|430:325,1,150.000005722046,2|0,1:2|0:2,0:2:0:0:
293,77,33872,1,8,1:2:0:0:
293,77,33987,1,0,3:2:0:0:
293,77,34103,2,0,L|272:154,1,75.0000028610231,0|0,3:2|0:2,0:2:0:0:
457,240,34333,5,2,1:2:0:0:
506,205,34449,1,2,0:2:0:0:
496,145,34564,1,2,0:2:0:0:
437,130,34680,1,2,0:2:0:0:
395,171,34795,2,0,L|422:322,1,150.000005722046,10|0,1:2|3:2,0:2:0:0:
349,346,35141,1,0,3:2:0:0:
285,295,35256,6,0,B|243:307|243:307|214:359|214:359|170:375,2,150.000005722046,2|0|8,1:2|0:2|1:2,0:2:0:0:
41,116,35949,2,0,L|25:197,1,75.0000028610231,2|0,0:2|0:2,0:2:0:0:
91,275,36180,2,0,B|117:304|117:304|149:291,1,75.0000028610231,2|0,1:2|0:2,0:2:0:0:
177,209,36410,2,0,B|151:179|151:179|118:192,1,75.0000028610231,2|0,0:2|0:2,0:2:0:0:
20,364,36641,2,0,P|24:293|92:275,1,150.000005722046,10|0,1:2|0:2,0:2:0:0:
318,356,37103,5,2,1:3:0:0:
452,360,37333,1,8,1:2:0:0:
512,241,37564,1,0,1:0:0:0:
407,98,37795,2,0,L|397:175,1,75.0000028610231,10|0,1:2|0:0,0:0:0:0:
222,176,38026,5,2,1:3:0:0:
222,176,38256,2,0,B|256:156|256:156|300:189,1,75.0000028610231,10|0,1:2|0:2,0:2:0:0:
282,293,38487,2,0,B|248:313|248:313|204:280,1,75.0000028610231,2|0,1:2|0:2,0:2:0:0:
398,173,38718,2,0,L|388:261,1,75.0000028610231,10|0,1:2|0:2,0:2:0:0:
153,363,38949,5,2,1:3:0:0:
153,363,39180,2,0,L|79:357,1,75.0000028610231,10|0,1:2|0:2,0:2:0:0:
15,182,39410,2,0,B|-9:212|-9:212|7:248,1,75.0000028610231,2|0,1:2|0:2,0:2:0:0:
138,257,39641,2,0,B|161:226|161:226|145:190,1,75.0000028610231,10|0,1:2|0:2,0:2:0:0:
100,5,39872,5,2,1:3:0:0:
100,5,40103,2,0,L|90:89,1,75.0000028610231,10|0,1:2|0:2,0:2:0:0:
246,165,40333,2,0,L|238:81,1,75.0000028610231,2|0,1:2|0:2,0:2:0:0:
392,4,40564,2,0,L|384:88,1,75.0000028610231,10|0,1:2|0:2,0:2:0:0:
410,323,40795,5,10,1:2:0:0:
457,341,40910,1,8,0:2:0:0:
500,311,41026,2,0,L|509:224,1,75.0000028610231,10|8,0:2|0:2,0:2:0:0:
385,79,41256,1,8,1:2:0:0:
326,63,41372,1,8,0:2:0:0:
288,109,41487,2,0,L|300:191,1,75.0000028610231,10|8,0:2|0:2,0:2:0:0:
76,370,41718,1,8,1:2:0:0:
2,319,41833,1,8,0:2:0:0:
54,245,41949,2,0,L|144:230,1,75.0000028610231,8|8,0:2|0:2,0:2:0:0:
326,379,42180,5,8,0:2:0:0:
331,271,42295,1,8,0:2:0:0:
226,230,42410,1,10,0:2:0:0:
157,317,42526,1,10,0:2:0:0:
238,213,42641,6,0,B|233:174|233:174|236:172|236:172|230:131,1,75,2|0,3:2|0:2,0:2:0:0:
192,71,43103,2,0,B|221:48|221:48|254:64,1,75,2|0,0:0|0:2,0:2:0:0:
312,120,43564,2,0,L|315:156,1,25,2|0,0:2|0:2,0:2:0:0:
380,188,43795,1,2,0:2:0:0:
450,153,43910,1,2,0:2:0:0:
426,80,44026,5,2,3:3:0:0:
412,69,44141,1,2,3:3:0:0:
416,54,44256,1,2,3:3:0:0:
429,52,44372,1,2,3:3:0:0:
438,61,44487,6,0,B|415:129|309:120|283:77|327:59|276:14|189:21|172:63,1,314.999990386963,4|0,1:2|0:2,0:2:0:0:
112,0,44949,2,0,B|70:17|63:104|108:155|126:111|169:137|178:243|110:266,1,314.999990386963,8|0,1:2|0:2,0:2:0:0:
43,335,45410,2,0,P|9:295|29:240,1,104.999996795654,4|0,1:3|0:2,0:2:0:0:
252,321,45641,6,0,L|202:330,1,47.4999987316132,2|0,0:2|0:2,0:2:0:0:
248,349,45756,2,0,L|201:327,1,47.4999987316132,2|0,0:2|0:2,0:2:0:0:
230,370,45872,2,0,L|203:326,1,47.4999987316132,10|0,1:2|0:2,0:2:0:0:
202,376,45987,2,0,L|205:325,1,47.4999987316132,2|0,0:2|0:2,0:2:0:0:
176,367,46103,2,0,L|207:327,1,47.4999987316132,2|0,3:2|0:2,0:2:0:0:
159,343,46218,2,0,L|206:328,1,47.4999987316132,2|0,0:2|0:2,0:2:0:0:
157,319,46333,6,0,B|355:303|355:303|264:233,1,300,4|0,1:3|0:2,0:2:0:0:
188,188,46795,2,0,P|140:66|282:41,1,300,8|0,1:2|0:2,0:2:0:0:
360,67,47256,2,0,B|353:112|353:112|347:118|347:118|339:183,1,100,4|0,1:3|0:2,0:2:0:0:
396,279,47487,6,0,L|449:269,1,47.4999987316132,2|0,0:2|0:2,0:2:0:0:
410,305,47603,2,0,L|447:266,1,47.4999987316132,2|0,0:2|0:2,0:2:0:0:
436,318,47718,2,0,L|444:264,1,47.4999987316132,10|0,1:2|0:2,0:2:0:0:
464,314,47833,2,0,L|440:265,1,47.4999987316132,2|0,0:2|0:2,0:2:0:0:
485,295,47949,2,0,L|438:268,1,47.4999987316132,2|0,3:2|0:2,0:2:0:0:
491,266,48064,2,0,L|437:271,1,47.4999987316132,2|0,0:2|0:2,0:2:0:0:
484,243,48180,6,0,B|455:195|388:207|340:263|391:260|383:298|314:335|275:314|237:263|284:234,1,300,4|0,1:3|0:2,0:2:0:0:
191,160,48641,2,0,B|269:65|269:65|274:255,1,300,8|0,1:2|0:2,0:2:0:0:
232,339,49103,2,0,B|273:372|273:372|310:343,1,100,4|0,1:3|0:2,0:2:0:0:
142,255,49333,6,0,L|94:285,1,47.4999987316132,2|0,0:2|0:2,0:2:0:0:
121,237,49449,2,0,L|98:289,1,47.4999987316132,2|0,0:2|0:2,0:2:0:0:
93,234,49564,2,0,L|104:289,1,47.4999987316132,10|0,1:2|0:2,0:2:0:0:
67,248,49680,2,0,L|108:286,1,47.4999987316132,2|0,0:2|0:2,0:2:0:0:
55,275,49795,2,0,L|111:282,1,47.4999987316132,2|0,3:2|0:2,0:2:0:0:
59,302,49910,2,0,L|109:276,1,47.4999987316132,2|0,0:2|0:2,0:2:0:0:
80,318,50026,6,0,P|225:286|373:315,1,300,4|0,1:3|0:2,0:2:0:0:
472,252,50487,2,0,B|568:147|513:78|441:40|375:124|401:161|453:183,1,300,8|0,1:2|0:2,0:2:0:0:
423,164,50949,6,0,B|456:122|456:122|419:61,1,94.9999974632264,2|0,1:2|0:2,0:2:0:0:
229,44,51180,1,2,0:2:0:0:
159,127,51295,1,2,0:2:0:0:
236,203,51410,2,0,L|352:186,1,94.9999974632264,8|0,1:2|0:2,0:2:0:0:
217,320,51641,2,0,L|122:297,1,94.9999974632264,2|0,3:2|0:2,0:2:0:0:
49,40,51872,6,0,P|25:178|-1:341,1,300,4|0,1:2|0:2,0:2:0:0:
103,372,52333,2,0,P|219:314|160:180,1,300,8|0,1:2|0:2,0:2:0:0:
87,116,52795,2,0,B|39:138|39:138|62:183,1,100,4|0,1:3|0:2,0:2:0:0:
268,101,53026,6,0,L|218:88,1,47.4999987316132,2|0,0:2|0:2,0:2:0:0:
267,73,53141,2,0,L|219:91,1,47.4999987316132,2|0,0:2|0:2,0:2:0:0:
250,51,53256,2,0,L|221:93,1,47.4999987316132,10|0,1:2|0:2,0:2:0:0:
222,42,53372,2,0,L|223:93,1,47.4999987316132,2|0,0:2|0:2,0:2:0:0:
196,51,53487,2,0,L|226:92,1,47.4999987316132,2|0,3:2|0:2,0:2:0:0:
178,74,53603,2,0,L|226:90,1,47.4999987316132,2|0,0:2|0:2,0:2:0:0:
174,100,53718,6,0,P|324:72|329:199,1,300,4|0,1:3|0:2,0:2:0:0:
328,309,54180,2,0,P|342:208|488:260,1,300,8|0,1:2|0:2,0:2:0:0:
512,350,54641,2,0,B|472:376|472:376|423:329,1,100,4|0,1:3|0:2,0:2:0:0:
418,96,54872,6,0,L|467:105,1,47.4999987316132,2|0,0:2|0:2,0:2:0:0:
432,70,54987,2,0,L|466:106,1,47.4999987316132,2|0,0:2|0:2,0:2:0:0:
458,58,55103,2,0,L|465:107,1,47.4999987316132,10|0,1:2|0:2,0:2:0:0:
487,63,55218,2,0,L|464:107,1,47.4999987316132,2|0,0:2|0:2,0:2:0:0:
507,83,55333,2,0,L|463:107,1,47.4999987316132,2|0,3:2|0:2,0:2:0:0:
511,110,55449,2,0,L|461:104,1,47.4999987316132,2|0,0:2|0:2,0:2:0:0:
506,135,55564,6,0,L|394:118,1,80,2|0,1:3|0:2,0:2:0:0:
348,177,55795,2,0,L|263:164,1,80,2|0,1:3|0:2,0:2:0:0:
166,317,56026,2,0,B|196:286|196:286|181:246,1,80,2|0,1:3|0:2,0:2:0:0:
40,216,56256,2,0,B|10:246|10:246|24:286,1,80,2|0,1:3|0:2,0:2:0:0:
129,154,56487,6,0,L|137:101,2,40,0|0|0,1:2|1:2|1:2,0:2:0:0:
191,63,56718,1,0,1:2:0:0:
262,92,56833,1,0,1:2:0:0:
259,167,56949,1,0,1:2:0:0:
343,212,57064,1,0,1:2:0:0:
422,156,57180,1,0,1:2:0:0:
386,67,57295,1,0,1:2:0:0:
417,177,57410,6,0,B|458:166|458:166|475:174|475:174|519:163,2,100,2|0|0,0:1|0:2|0:2,0:2:0:0:
47,233,58564,1,2,0:3:0:0:
130,286,58680,1,2,0:3:0:0:
153,190,58795,6,0,L|148:159,1,30,8|0,3:1|0:0,0:0:0:0:
74,58,59256,37,0,1:2:0:0:
62,136,59372,2,0,B|115:159|167:101|115:99|164:55|215:65,1,179.999994506836,2|0,0:2|3:2,0:2:0:0:
349,8,59718,2,0,L|329:109,1,89.9999972534181,10|0,1:2|0:2,0:2:0:0:
475,180,59949,2,0,B|490:137|490:137|454:106,1,89.9999972534181,2|0,0:2|0:2,0:2:0:0:
367,299,60180,5,2,1:3:0:0:
443,271,60295,1,2,0:3:0:0:
192,153,60526,1,2,0:3:0:0:
209,64,60641,2,0,P|231:170|254:301,1,225.000008583069,10|0,1:2|0:2,0:2:0:0:
91,370,61103,5,0,1:2:0:0:
37,308,61218,2,0,B|69:276|69:276|126:295,1,89.9999972534181,2|0,0:2|0:2,0:2:0:0:
340,374,61449,1,0,3:2:0:0:
335,366,61564,2,0,L|351:270,1,89.9999972534181,10|0,1:2|0:2,0:2:0:0:
192,136,61795,2,0,L|206:224,1,89.9999972534181,2|0,0:2|0:2,0:2:0:0:
429,90,62026,5,2,1:3:0:0:
352,69,62141,1,2,0:3:0:0:
430,305,62372,1,2,0:3:0:0:
464,223,62487,2,0,P|392:219|349:278,2,150.000005722046,10|0|0,1:2|0:2|1:2,0:2:0:0:
298,351,63064,6,0,P|252:340|201:330,1,89.9999972534181,2|0,0:2|0:2,0:2:0:0:
178,147,63295,1,0,3:2:0:0:
185,143,63410,2,0,B|202:184|202:184|173:217,1,89.9999972534181,10|0,1:2|0:2,0:2:0:0:
24,194,63641,2,0,B|7:152|7:152|34:118,1,89.9999972534181,2|0,0:2|0:2,0:2:0:0:
120,342,63872,5,2,1:3:0:0:
46,313,63987,1,2,0:3:0:0:
367,199,64218,1,2,0:3:0:0:
310,268,64333,2,0,B|277:227|277:227|294:108|294:108|258:67,1,225.000008583069,10|0,1:2|0:2,0:2:0:0:
31,18,64795,5,4,1:2:0:0:
29,112,64910,2,0,B|74:120|119:79|74:71|121:31|159:42,1,160,2|0,0:2|3:2,0:2:0:0:
159,42,65256,2,0,L|175:137,1,80,10|0,1:2|0:2,0:2:0:0:
107,272,65487,2,0,L|86:175,1,80,2|0,0:2|0:2,0:2:0:0:
348,322,65718,6,0,P|404:310|420:255,1,120,2|0,1:2|0:2,0:2:0:0:
420,255,65949,2,0,P|393:204|426:158,1,104.999996795654,10|0,3:3|3:2,0:2:0:0:
412,165,66180,2,0,P|468:154|497:187,1,89.9999972534181,6|0,3:3|0:2,0:2:0:0:
490,172,66410,2,0,L|498:107,1,50,10|0,3:3|0:2,0:2:0:0:
229,95,66641,5,0,1:2:0:0:
256,0,66756,2,0,L|283:199,1,179.999994506836,2|0,0:2|3:2,0:2:0:0:
313,333,67103,2,0,B|276:358|276:358|221:321,1,89.9999972534181,10|0,1:2|0:2,0:2:0:0:
281,179,67333,2,0,B|320:156|320:156|371:192,1,89.9999972534181,2|0,0:2|0:2,0:2:0:0:
133,291,67564,5,2,1:3:0:0:
196,223,67680,2,0,L|177:126,1,89.9999972534181,2|0,0:3|0:2,0:2:0:0:
37,47,67910,1,2,0:3:0:0:
7,127,68026,2,0,B|37:148|94:145|132:91|82:95|134:39|178:36|225:68,1,225.000008583069,10|0,1:2|0:2,0:2:0:0:
356,181,68487,5,0,1:2:0:0:
268,212,68603,2,0,L|282:105,1,89.9999972534181,2|0,0:2|0:2,0:2:0:0:
512,105,68833,1,0,3:2:0:0:
511,115,68949,2,0,B|472:89|472:89|428:115,1,89.9999972534181,10|0,1:2|0:2,0:2:0:0:
436,240,69180,2,0,B|476:263|476:263|518:235,1,89.9999972534181,2|0,0:2|0:2,0:2:0:0:
383,355,69410,5,2,1:3:0:0:
342,269,69526,2,0,L|356:176,1,89.9999972534181,2|0,0:3|0:2,0:2:0:0:
166,340,69756,1,2,0:3:0:0:
254,331,69872,2,0,P|206:255|136:262,2,150.000005722046,10|0|0,1:2|0:2|1:2,0:2:0:0:
61,334,70449,6,0,L|42:235,1,89.9999972534181,2|0,0:2|0:2,0:2:0:0:
126,90,70680,1,0,3:2:0:0:
132,83,70795,2,0,B|161:119|161:119|136:160,1,89.9999972534181,10|0,1:2|0:2,0:2:0:0:
4,170,71026,2,0,B|-24:136|-24:136|0:92,1,89.9999972534181,2|0,0:2|0:2,0:2:0:0:
199,0,71256,5,2,1:3:0:0:
258,67,71372,2,0,L|242:159,1,89.9999972534181,2|0,0:3|0:2,0:2:0:0:
417,261,71603,1,2,0:3:0:0:
435,173,71718,2,0,P|397:167|363:192,1,80,10|0,1:2|0:2,0:2:0:0:
399,345,71949,2,0,P|437:349|471:323,1,80,2|0,0:2|0:2,0:2:0:0:
285,240,72180,5,6,1:2:0:0:
233,320,72295,2,0,B|177:308|177:308|155:266|155:266|75:248,1,160,2|0,0:2|0:2,0:2:0:0:
15,299,72641,2,0,P|-8:244|25:198,1,120,10|0,1:2|0:2,0:2:0:0:
21,199,72872,2,0,P|62:161|40:109,1,120,2|0,0:2|0:2,0:2:0:0:
39,108,73103,6,0,P|97:150|167:98,1,150.000005722046,2|10,1:2|3:3,0:2:0:0:
237,29,73449,1,6,3:3:0:0:
307,107,73564,2,0,L|295:189,1,75.0000028610231,8|0,3:2|0:2,0:2:0:0:
448,337,73795,2,0,B|475:294|475:294|437:263,1,100,2|0,3:2|0:2,0:2:0:0:
436,262,74141,6,0,P|353:284|272:309,1,170.000003242493,2|0,0:2|0:2,0:2:0:0:
120,274,74487,2,0,P|93:238|102:196,1,89.9999972534181,10|0,1:2|0:2,0:2:0:0:
247,99,74718,2,0,P|237:141|230:197,1,89.9999972534181,2|0,0:2|0:2,0:2:0:0:
52,48,74949,1,2,1:3:0:0:
52,48,75064,1,2,0:3:0:0:
52,48,75180,2,0,P|95:38|138:83,1,89.9999972534181,2|0,0:0|0:2,0:2:0:0:
102,196,75410,2,0,P|58:205|15:160,1,89.9999972534181,10|0,1:2|0:2,0:2:0:0:
247,99,75641,5,2,3:3:0:0:
312,168,75756,1,2,3:3:0:0:
383,107,75872,2,0,L|398:5,1,89.9999972534181,0|0,1:2|0:2,0:2:0:0:
512,201,76103,2,0,P|471:183|427:197,1,89.9999972534181,2|0,0:2|0:2,0:2:0:0:
287,374,76333,1,10,1:2:0:0:
287,374,76449,1,2,0:2:0:0:
287,374,76564,2,0,P|362:334|351:250,1,179.999994506836,2|2,0:2|1:3,0:2:0:0:
247,99,76910,5,2,0:3:0:0:
185,149,77026,2,0,L|200:242,1,89.9999972534181,2|0,0:2|0:2,0:2:0:0:
118,354,77256,2,0,P|80:333|64:292,1,89.9999972534181,10|0,1:2|0:2,0:2:0:0:
0,176,77487,2,0,L|89:163,1,89.9999972534181,2|0,3:2|3:2,0:2:0:0:
335,93,77718,5,0,1:2:0:0:
304,0,77833,2,0,P|292:89|279:183,1,179.999994506836,2|0,0:2|0:2,0:2:0:0:
427,336,78180,2,0,P|465:355|509:336,1,89.9999972534181,10|0,1:2|0:2,0:2:0:0:
507,206,78410,2,0,P|469:187|425:206,1,89.9999972534181,2|0,0:2|0:2,0:2:0:0:
300,363,78641,1,2,1:3:0:0:
300,363,78756,1,2,0:3:0:0:
300,363,78872,2,0,P|292:314|279:259,1,89.9999972534181,2|0,0:2|0:2,0:2:0:0:
442,115,79103,2,0,P|431:160|426:220,1,89.9999972534181,10|0,1:2|0:2,0:2:0:0:
243,134,79333,5,2,3:3:0:0:
180,61,79449,1,2,3:3:0:0:
257,9,79564,2,0,L|362:25,1,89.9999972534181,4|0,1:2|0:2,0:2:0:0:
138,225,79795,1,2,3:2:0:0:
138,225,79910,1,2,3:2:0:0:
138,225,80026,2,0,L|153:132,1,80,10|0,1:2|0:2,0:2:0:0:
45,126,80256,2,0,L|30:221,1,80,2|0,0:2|0:2,0:2:0:0:
276,364,80487,38,0,B|318:320|318:320|291:235,1,150,2|0,1:2|0:2,0:2:0:0:
292,236,80718,38,0,L|214:263,1,75,10|0,0:3|0:2,0:2:0:0:
221,261,80949,6,2,B|208:222|208:222|239:187|239:187|284:198|284:198|321:312|321:312|369:330|369:330|397:287|397:287|383:241,1,389.999982147218,2|0,3:2|0:2,0:1:0:0:
408,169,81410,5,0,1:2:0:0:
387,255,81526,2,0,P|479:253|491:172,1,179.999994506836,2|0,0:2|0:2,0:2:0:0:
425,52,81872,2,0,P|376:64|327:77,1,89.9999972534181,8|0,1:2|0:2,0:2:0:0:
213,156,82103,2,0,P|186:119|193:76,1,89.9999972534181,2|0,0:2|0:2,0:2:0:0:
284,282,82333,1,2,1:3:0:0:
284,282,82449,1,2,0:3:0:0:
284,282,82564,2,0,P|307:318|297:360,1,89.9999972534181,2|0,0:2|0:2,0:2:0:0:
153,376,82795,2,0,P|128:338|138:296,1,89.9999972534181,10|0,1:2|0:2,0:2:0:0:
320,177,83026,5,2,3:3:0:0:
361,96,83141,1,2,3:3:0:0:
280,54,83256,2,0,L|186:78,1,89.9999972534181,0|0,1:2|0:2,0:2:0:0:
65,196,83487,2,0,P|102:218|145:209,1,89.9999972534181,2|0,0:2|0:2,0:2:0:0:
16,27,83718,2,0,L|-2:129,1,89.9999972534181,10|0,1:2|0:2,0:2:0:0:
90,304,83949,2,0,L|116:125,1,179.999994506836,2|2,0:2|1:3,0:2:0:0:
210,0,84295,5,2,0:3:0:0:
280,54,84410,2,0,L|374:35,1,89.9999972534181,2|0,0:2|0:2,0:2:0:0:
469,194,84641,2,0,P|426:182|403:145,1,89.9999972534181,10|0,1:2|0:2,0:2:0:0:
506,0,84872,2,0,L|484:96,1,89.9999972534181,2|0,3:2|3:2,0:2:0:0:
340,258,85103,5,2,1:2:0:0:
340,258,85218,1,2,0:2:0:0:
340,258,85333,2,0,L|318:162,1,89.9999972534181,2|0,0:2|0:2,0:2:0:0:
201,72,85564,2,0,P|236:45|283:57,1,89.9999972534181,10|0,1:2|0:2,0:2:0:0:
179,185,85795,2,0,B|119:196|89:132|121:144|89:87|38:97,1,179.999994506836,2|2,0:2|1:3,0:2:0:0:
0,234,86141,5,2,0:3:0:0:
54,299,86256,2,0,L|152:278,1,89.9999972534181,2|0,0:2|0:2,0:2:0:0:
288,364,86487,2,0,L|194:380,1,89.9999972534181,10|0,1:2|0:2,0:2:0:0:
361,211,86718,2,0,P|397:235|405:278,1,89.9999972534181,2|0,3:2|3:2,0:2:0:0:
192,149,86949,5,6,1:2:0:0:
260,268,87064,2,0,P|274:179|293:91,1,179.999994506836,2|0,0:2|0:2,0:2:0:0:
76,11,87410,2,0,P|95:103|114:221,1,179.999994506836,10|0,1:2|0:2,0:2:0:0:
36,263,87756,5,0,3:2:0:0:
33,272,87872,2,0,B|-6:244|-6:244|0:200,1,89.9999972534181,2|0,1:2|0:2,0:2:0:0:
214,65,88103,1,6,3:3:0:0:
189,169,88218,1,10,3:3:0:0:
285,215,88333,2,0,L|383:190,1,89.9999972534181,10|0,3:2|3:2,0:2:0:0:
507,62,88564,2,0,B|462:42|462:42|429:76,1,97.4999955368044,2|0,3:2|0:2,0:2:0:0:
428,76,88795,6,0,B|448:127|448:127|443:165|443:165|490:172|533:208|533:269|499:311|417:297|430:242,1,337.499989700318,2|0,0:3|0:2,0:2:0:0:
