osu file format v14

[General]
AudioFilename: audio.mp3
AudioLeadIn: 0
PreviewTime: 52959
Countdown: 0
SampleSet: Soft
StackLeniency: 0.7
Mode: 0
LetterboxInBreaks: 0
WidescreenStoryboard: 1

[Editor]
DistanceSpacing: 0.9
BeatDivisor: 4
GridSize: 4
TimelineZoom: 3.899998

[Metadata]
Title:Holiday (Cut Ver.)
TitleUnicode:Holiday (Cut Ver.)
Artist:KSI
ArtistUnicode:KSI
Creator:Sayuka
Version:You're my Holiday~
Source:
Tags:jj olatunji single british english male vocals vocalist pop fatneek all over the place brit award julie tritobandito dcs dabbe dabbe_01 rison amats euryalle
BeatmapID:4023580
BeatmapSetID:1936050

[Difficulty]
HPDrainRate:4.2
CircleSize:3.8
OverallDifficulty:8
ApproachRate:8.2
SliderMultiplier:1.8
SliderTickRate:1

[Events]
//Background and Video events
0,0,"holiday.jpg",0,0
//Break Periods
//Storyboard Layer 0 (Background)
//Storyboard Layer 1 (Fail)
//Storyboard Layer 2 (Pass)
//Storyboard Layer 3 (Foreground)
//Storyboard Layer 4 (Overlay)
//Storyboard Sound Samples

[TimingPoints]
78,677.966101694915,4,2,2,50,1,0
10925,-66.6666666666667,4,2,2,60,0,0
21772,-58.8235294117647,4,2,2,60,0,0
49145,-58.8235294117647,4,2,2,60,0,0
49230,-58.8235294117647,4,2,2,60,0,0
51179,-58.8235294117647,4,2,2,5,0,0
51264,-58.8235294117647,4,2,2,60,0,0
54315,-50,4,2,2,70,0,1
61349,-50,4,2,2,70,0,1
61433,-50,4,2,2,70,0,1
64061,-50,4,2,2,70,0,1
64145,-50,4,2,2,70,0,1
67789,-50,4,2,2,70,0,1
97705,-50,4,2,2,70,0,0
104739,-50,4,2,2,70,0,0
104823,-50,4,2,2,70,0,0
108552,-166.666666666667,4,2,2,50,0,0

[Colours]
Combo1 : 103,111,88
Combo2 : 171,174,155

[HitObjects]
266,132,10925,6,0,P|301:124|420:96,1,135.000005149842,0|2,3:0|0:0,0:0:0:0:
456,158,11433,1,2,3:2:0:0:
309,258,11603,2,0,P|274:253|235:248,1,67.5000025749208,2|2,3:3|0:0,0:0:0:0:
446,327,11942,2,0,P|481:322|520:317,1,67.5000025749208,2|2,3:0|3:0,0:0:0:0:
375,363,12281,6,0,B|359:326|373:286|384:296|391:263|382:231,1,135.000005149842,2|2,3:0|0:0,0:0:0:0:
338,168,12789,1,2,3:2:0:0:
453,33,12959,2,0,P|441:75|403:100,1,67.5000025749208,2|2,3:3|0:0,0:0:0:0:
294,42,13298,2,0,P|349:30|367:28,1,67.5000025749208,2|2,3:0|3:0,0:0:0:0:
206,172,13637,6,0,B|175:168|145:166|145:166|139:158|139:158|102:155|55:149,1,135.000005149842,2|2,3:0|0:0,0:0:0:0:
17,99,14145,1,2,3:2:0:0:
141,6,14315,2,0,P|133:48|125:88,1,67.5000025749208,2|0,3:3|0:0,0:0:0:0:
294,193,14654,2,0,P|287:159|281:126,1,67.5000025749208,2|0,3:0|3:0,0:0:0:0:
26,285,14993,6,0,P|61:340|131:342,1,135.000005149842,2|2,3:0|0:0,0:0:0:0:
199,311,15501,1,2,3:2:0:0:
87,128,15671,2,0,P|99:200|107:281,1,135.000005149842,2|2,3:3|3:0,0:0:0:0:
287,383,16349,6,0,P|329:360|343:269,1,135.000005149842,0|2,3:0|0:0,0:0:0:0:
316,207,16857,1,2,3:2:0:0:
195,294,17027,2,0,P|236:297|294:303,1,67.5000025749208,2|2,3:3|0:0,0:0:0:0:
403,183,17366,2,0,P|362:186|304:192,1,67.5000025749208,2|2,3:0|3:0,0:0:0:0:
204,94,17705,6,0,P|220:44|304:29,1,135.000005149842,2|2,3:0|0:0,0:0:0:0:
356,72,18213,1,2,3:2:0:0:
263,226,18383,2,0,P|247:191|229:154,1,67.5000025749208,2|2,3:3|0:0,0:0:0:0:
398,57,18722,2,0,P|383:87|369:118,1,67.5000025749208,2|2,3:0|3:0,0:0:0:0:
443,233,19061,6,0,P|472:218|507:204,1,67.5000025749208,2|2,3:0|0:0,0:0:0:0:
369,193,19400,2,0,P|361:225|363:259,1,67.5000025749208,2|2,0:0|3:2,0:0:0:0:
348,337,19739,2,0,P|312:326|290:296,2,67.5000025749208,2|0|2,3:3|0:0|3:0,0:0:0:0:
201,163,20416,6,0,P|206:228|213:323,1,135.000005149842,2|2,3:0|0:0,0:0:0:0:
153,380,20925,1,2,3:2:0:0:
153,380,21094,1,2,3:3:0:0:
18,177,21772,6,0,B|103:151|87:225|191:188,1,153.000002918243,2|2,3:0|0:0,0:0:0:0:
240,161,22281,1,2,3:2:0:0:
124,41,22450,2,0,P|135:87|142:125,1,76.5000014591217,2|0,3:3|0:0,0:0:0:0:
53,257,22789,1,2,3:0:0:0:
53,257,22959,1,2,3:0:0:0:
152,369,23128,6,0,P|190:309|248:226,2,153.000002918243,2|2|2,3:0|0:0|3:3,0:0:0:0:
387,10,24484,6,0,P|396:51|407:103,1,76.5000014591217,0|2,3:0|0:0,0:0:0:0:
465,158,24823,1,2,0:0:0:0:
465,158,24993,1,2,3:2:0:0:
295,42,25162,6,0,P|217:48|191:125,1,153.000002918243,2|2,3:3|3:0,0:0:0:0:
134,167,25671,1,0,3:0:0:0:
305,181,25840,6,0,P|281:132|264:98,1,76.5000014591217,2|0,3:0|0:0,0:0:0:0:
116,3,26179,2,0,P|86:73|42:175,1,153.000002918243,2|2,0:0|3:3,0:0:0:0:
43,277,27196,6,0,P|78:316|122:317,1,76.5000014591217,0|2,3:0|0:0,0:0:0:0:
187,208,27535,2,0,P|135:218|112:256,1,76.5000014591217,2|2,0:0|3:2,0:0:0:0:
300,222,27874,6,0,P|310:173|323:127,1,76.5000014591217,2|2,3:3|0:0,0:0:0:0:
185,289,28213,2,0,P|194:326|201:363,1,76.5000014591217,2|2,3:0|3:0,0:0:0:0:
108,118,28552,6,0,P|36:109|0:173,2,153.000002918243,2|2|2,3:0|0:0|3:3,0:0:0:0:
300,222,29569,6,0,P|442:209|443:57,1,306.000005836487,2|0,3:0|0:0,0:0:0:0:
338,102,30416,1,2,3:2:0:0:
338,102,30586,1,2,3:3:0:0:
164,101,31942,5,2,3:3:0:0:
164,101,32620,5,2,1:2:0:0:
95,172,32790,2,0,L|102:248,1,76.5000014591217
165,110,33128,5,2,1:2:0:0:
236,172,33298,2,0,L|222:247,1,76.5000014591217,2|0,3:0|0:0,0:0:0:0:
166,119,33637,5,2,3:0:0:0:
162,299,33806,2,0,L|162:380,2,76.5000014591217,2|0|0,3:2|3:2|0:0,0:0:0:0:
293,100,34315,5,2,1:2:0:0:
293,100,35332,6,0,P|335:62|448:84,1,153.000002918243,0|2,1:2|0:0,0:0:0:0:
505,65,35840,1,2,1:2:0:0:
360,223,36010,6,0,P|369:170|374:133,1,76.5000014591217,2|0,3:3|0:0,0:0:0:0:
239,23,36349,1,2,0:0:0:0:
174,117,36519,2,0,P|134:123|100:98,1,76.5000014591217,2|2,3:0|3:0,0:0:0:0:
67,30,36857,1,2,0:0:0:0:
273,130,37027,5,2,1:2:0:0:
18,280,38044,6,0,P|72:333|145:328,1,153.000002918243,0|2,1:2|0:0,0:0:0:0:
209,282,38552,1,2,1:2:0:0:
153,102,38722,6,0,P|130:168|102:271,1,153.000002918243,2|2,3:3|3:0,0:0:0:0:
261,371,39230,1,2,3:0:0:0:
140,321,39400,1,2,0:0:0:0:
264,224,39569,1,2,0:0:0:0:
220,298,39739,5,2,1:2:0:0:
448,88,40755,6,0,P|471:158|500:244,1,153.000002918243,0|2,1:2|0:0,0:0:0:0:
492,321,41264,1,2,1:2:0:0:
348,276,41433,2,0,P|283:253|215:311,1,153.000002918243,2|2,3:3|3:0,0:0:0:0:
187,369,41942,1,2,3:0:0:0:
271,219,42111,1,2,0:0:0:0:
102,210,42281,1,2,0:0:0:0:
293,334,42450,5,2,1:2:0:0:
286,331,43467,5,0,1:2:0:0:
341,235,43637,2,0,P|362:215|408:206,1,76.5000014591217,2|0,0:0|0:0,0:0:0:0:
281,343,43976,5,2,1:2:0:0:
201,256,44146,2,0,P|172:238|129:238,1,76.5000014591217,2|0,3:3|0:0,0:0:0:0:
283,359,44484,5,2,3:0:0:0:
264,201,44654,2,0,P|260:167|252:106,2,76.5000014591217,2|2|2,3:0|0:0|0:0,0:0:0:0:
147,316,45162,1,2,1:2:0:0:
0,64,46179,6,0,P|37:30|131:50,1,153.000002918243,0|2,1:2|0:0,0:0:0:0:
172,118,46688,1,2,1:2:0:0:
13,257,46857,6,0,P|33:201|76:103,1,153.000002918243,2|0,3:3|3:0,0:0:0:0:
213,50,47366,1,2,3:0:0:0:
175,204,47535,1,2,0:0:0:0:
69,96,47705,1,2,0:0:0:0:
279,156,47874,5,2,1:2:0:0:
434,0,48891,6,0,P|444:46|459:116,1,114.750002188683,0|0,1:2|0:0,0:0:0:0:
455,153,49230,2,0,P|419:133|358:133,1,76.5000014591217,2|2,0:0|1:2,0:0:0:0:
344,357,49569,6,0,P|418:365|467:288,1,153.000002918243,2|2,3:3|3:0,0:0:0:0:
472,226,50078,1,2,3:0:0:0:
338,198,50247,6,0,P|373:259|387:299,1,76.5000014591217,2|0,0:0|0:0,0:0:0:0:
218,384,50586,2,0,P|238:351|255:317,1,76.5000014591217,2|0,1:2|3:2,0:0:0:0:
145,149,50925,6,0,P|81:154|30:194,1,114.750002188683,2|0,3:3|0:0,0:0:0:0:
23,217,51264,2,0,P|41:260|53:298,1,76.5000014591217,2|0,3:0|3:0,0:0:0:0:
13,371,51603,5,0,1:2:0:0:
122,231,51772,1,2,0:0:0:0:
21,374,51942,1,2,0:0:0:0:
163,321,52111,1,2,1:2:0:0:
29,377,52281,5,2,3:3:0:0:
445,71,52959,6,0,P|413:99|413:18,2,153.000002918243,2|2|2,0:0|0:0|0:0,0:0:0:0:
313,302,54315,6,0,P|252:351|149:298,1,180,6|2,1:2|0:0,0:0:0:0:
75,357,54823,1,0,1:2:0:0:
259,168,54993,2,0,P|235:247|232:288,1,90,10|0,0:2|0:0,0:0:0:0:
40,181,55332,2,0,P|30:136|15:94,1,90,2|0,0:0|0:0,0:0:0:0:
322,19,55671,6,0,B|345:5|367:20|367:20|343:33|322:23,1,90,2|0,0:0|0:0,0:0:0:0:
159,134,56010,2,0,B|142:142|118:129|118:129|140:114|163:128,1,90,2|2,1:2|0:0,0:0:0:0:
226,0,56349,6,0,P|244:72|271:203,1,180,10|2,0:2|0:0,0:0:0:0:
232,247,56857,1,0,0:0:0:0:
479,371,57027,6,0,P|490:324|373:274,1,180,2|2,1:2|0:0,0:0:0:0:
433,180,57535,1,0,1:2:0:0:
317,361,57705,2,0,P|383:343|443:338,1,90,10|0,0:2|0:0,0:0:0:0:
463,156,58044,2,0,P|397:138|337:133,1,90,2|0,0:0|0:0,0:0:0:0:
220,344,58383,6,0,P|160:320|143:282,1,90,2|0,0:0|0:0,0:0:0:0:
133,170,58722,1,2,1:2:0:0:
227,258,58891,1,2,0:0:0:0:
29,363,59061,2,0,P|45:308|60:254,1,90,10|0,0:2|0:0,0:0:0:0:
3,149,59400,1,2,0:0:0:0:
3,149,59484,1,2,0:0:0:0:
3,149,59569,1,2,0:0:0:0:
252,23,59739,6,0,P|288:76|226:163,1,180,2|2,1:2|0:0,0:0:0:0:
227,258,60247,1,2,1:2:0:0:
23,109,60416,2,0,P|102:99|233:82,1,180,10|2,0:2|0:0,0:0:0:0:
469,12,61094,6,0,P|496:59|459:140,1,135,2|0,0:0|0:0,0:0:0:0:
435,152,61433,2,0,P|399:113|354:107,1,90,2|0,1:2|0:0,0:0:0:0:
190,103,61772,1,10,0:2:0:0:
358,188,61942,1,2,0:0:0:0:
293,2,62111,2,0,P|281:76|274:117,1,90,2|0,0:0|0:0,0:0:0:0:
207,338,62450,6,0,P|125:359|61:297,1,180,2|2,1:2|0:0,0:0:0:0:
0,250,62959,1,0,1:2:0:0:
163,184,63128,2,0,P|149:265|142:308,1,90,10|0,0:2|0:0,0:0:0:0:
301,384,63467,2,0,P|293:339|286:295,1,90,2|0,0:0|0:0,0:0:0:0:
435,152,63806,6,0,P|502:189|497:254,1,135,2|0,0:0|0:0,0:0:0:0:
486,279,64145,2,0,P|467:253|387:245,1,90,2|2,1:2|0:0,0:0:0:0:
286,295,64484,2,0,P|242:304|184:262,1,90,10|0,0:2|0:0,0:0:0:0:
287,114,64823,2,0,P|312:185|327:232,1,90,2|0,0:0|0:0,0:0:0:0:
167,384,65162,6,0,B|136:379|109:375|109:375|98:305|75:227,1,180,2|2,1:2|0:0,0:0:0:0:
12,205,65671,1,0,1:2:0:0:
192,301,65840,6,0,P|213:252|237:213,1,90,10|0,0:2|0:0,0:0:0:0:
81,23,66179,2,0,P|17:28|-12:63,1,90,2|0,0:0|0:0,0:0:0:0:
92,172,66518,6,0,B|189:199|160:114|267:140,1,180,2|2,0:0|1:2,0:0:0:0:
331,179,67027,1,2,0:0:0:0:
264,334,67196,2,0,P|248:265|234:212,1,90,10|0,0:2|0:0,0:0:0:0:
383,21,67535,6,0,P|434:29|487:115,1,135,2|0,0:0|0:0,0:0:0:0:
476,131,67874,2,0,P|436:116|379:124,1,90,2|2,1:2|0:0,0:0:0:0:
324,260,68213,1,2,0:0:0:0:
424,195,68383,1,0,1:2:0:0:
252,24,68552,6,0,P|265:85|274:133,1,90,10|0,0:2|0:0,0:0:0:0:
131,269,68891,2,0,P|139:224|149:180,1,90,2|0,0:0|0:0,0:0:0:0:
88,20,69230,6,0,P|38:18|0:48,1,90,2|0,0:0|0:0,0:0:0:0:
25,121,69569,2,0,P|75:123|113:93,1,90,2|2,1:2|0:0,0:0:0:0:
201,3,69908,6,0,B|219:15|244:28|244:28|237:73|228:191,1,180,10|2,0:2|0:0,0:0:0:0:
295,203,70416,1,0,0:0:0:0:
78,384,70586,6,0,P|17:334|53:237,1,180,2|2,1:2|0:0,0:0:0:0:
74,174,71094,1,2,1:2:0:0:
277,277,71264,6,0,P|209:287|78:309,1,180,10|2,0:2|0:0,0:0:0:0:
468,24,71942,6,0,P|485:60|469:126,1,90,2|0,0:0|0:0,0:0:0:0:
271,128,72281,2,0,P|293:95|358:76,1,90,2|0,1:2|0:0,0:0:0:0:
494,238,72620,5,10,0:2:0:0:
351,157,72789,1,2,0:0:0:0:
502,246,72959,2,0,P|488:311|449:332,1,90,2|0,0:0|0:0,0:0:0:0:
211,228,73298,6,0,B|307:187|285:273|394:239,1,180,0|2,1:2|0:0,0:0:0:0:
435,184,73806,1,2,1:2:0:0:
253,297,73976,2,0,P|267:346|279:397,1,90,10|0,0:2|0:0,0:0:0:0:
351,157,74315,5,2,0:0:0:0:
154,81,74484,1,2,0:0:0:0:
250,283,74654,1,2,0:0:0:0:
299,76,74823,1,2,0:0:0:0:
144,234,74993,1,2,1:2:0:0:
351,252,75162,1,2,0:0:0:0:
60,143,75332,6,0,B|40:159|23:175|23:175|38:239|52:321,1,180,10|2,0:2|0:0,0:0:0:0:
5,371,75840,1,0,0:0:0:0:
122,213,76010,6,0,B|168:172|226:186|226:186|248:221|312:212,1,180,6|2,1:2|0:0,0:0:0:0:
364,197,76518,1,0,1:2:0:0:
311,18,76688,2,0,P|300:75|290:121,1,90,10|0,0:2|0:0,0:0:0:0:
208,222,77027,1,2,0:0:0:0:
208,222,77111,1,0,0:0:0:0:
208,222,77196,1,2,0:0:0:0:
321,288,77366,5,2,0:0:0:0:
181,123,77535,1,2,0:0:0:0:
144,324,77705,1,0,1:2:0:0:
364,197,77874,1,2,0:0:0:0:
81,38,78044,6,0,P|90:100|96:144,1,90,10|0,0:2|0:0,0:0:0:0:
208,222,78383,1,2,0:0:0:0:
16,165,78552,1,0,0:0:0:0:
225,237,78722,6,0,P|303:259|423:291,1,180,2|2,1:2|0:0,0:0:0:0:
455,346,79230,1,0,1:2:0:0:
175,313,79400,6,0,P|129:229|199:148,1,180,10|2,0:2|0:0,0:0:0:0:
454,21,79908,6,0,P|487:66|478:116,1,90,2|2,0:0|0:0,0:0:0:0:
428,203,80247,1,2,0:0:0:0:
241,114,80416,2,0,P|304:120|345:127,1,90,0|2,1:2|0:0,0:0:0:0:
404,84,80755,5,10,0:2:0:0:
193,206,80925,1,0,0:0:0:0:
408,99,81094,1,2,0:0:0:0:
245,28,81264,1,0,0:0:0:0:
337,239,81433,6,0,P|325:298|313:356,1,90,2|2,1:2|0:0,0:0:0:0:
151,384,81772,1,2,0:0:0:0:
243,274,81942,1,0,1:2:0:0:
80,202,82111,2,0,P|119:275|128:310,1,90,10|0,0:2|0:0,0:0:0:0:
245,368,82450,2,0,P|293:357|322:317,1,90,2|0,0:0|0:0,0:0:0:0:
191,120,82789,5,2,0:0:0:0:
243,274,82959,1,0,0:0:0:0:
290,65,83128,1,2,1:2:0:0:
119,201,83298,1,0,0:0:0:0:
382,276,83467,6,0,P|425:261|453:219,1,90,10|2,0:2|0:0,0:0:0:0:
261,49,83806,2,0,P|280:114|286:158,1,90,2|0,0:0|0:0,0:0:0:0:
108,291,84145,6,0,P|47:255|49:145,1,180,2|2,1:2|0:0,0:0:0:0:
82,87,84654,1,0,1:2:0:0:
256,213,84823,2,0,P|304:218|348:190,1,90,10|0,0:2|0:0,0:0:0:0:
177,130,85162,2,0,P|132:181|102:221,1,90,2|2,0:0|0:0,0:0:0:0:
203,356,85501,5,2,0:0:0:0:
283,135,85671,1,2,0:0:0:0:
399,287,85840,1,2,1:2:0:0:
188,171,86010,1,2,0:0:0:0:
279,384,86179,6,0,B|286:336|288:305|288:305|300:287|300:287|300:257|312:192,1,180,10|2,0:2|0:0,0:0:0:0:
418,105,86688,1,0,0:0:0:0:
490,349,86857,6,0,B|393:376|422:291|315:317,1,180,2|2,1:2|0:0,0:0:0:0:
279,384,87366,1,0,1:2:0:0:
461,270,87535,2,0,P|471:228|483:173,1,90,10|0,0:2|0:0,0:0:0:0:
335,52,87874,1,2,0:0:0:0:
335,52,87959,1,2,0:0:0:0:
335,52,88044,1,2,0:0:0:0:
253,180,88213,5,2,0:0:0:0:
434,82,88383,1,2,0:0:0:0:
162,43,88552,1,2,1:2:0:0:
386,217,88722,1,2,0:0:0:0:
147,372,88891,6,0,P|100:331|141:218,1,180,10|2,0:2|0:0,0:0:0:0:
161,153,89400,1,0,0:0:0:0:
410,332,89569,6,0,P|346:320|304:312,1,90,2|2,1:2|0:0,0:0:0:0:
140,138,89908,2,0,P|204:126|246:118,1,90,2|0,0:0|1:2,0:0:0:0:
469,19,90247,6,0,P|504:65|435:166,1,180,10|0,0:2|0:0,0:0:0:0:
386,217,90755,1,2,0:0:0:0:
334,30,90925,2,0,P|389:67|426:101,1,90,2|2,0:0|0:0,0:0:0:0:
389,299,91264,2,0,P|323:269|317:235,1,90,0|2,1:2|0:0,0:0:0:0:
208,98,91603,5,10,0:2:0:0:
386,217,91772,1,2,0:0:0:0:
179,238,91942,1,2,0:0:0:0:
312,45,92111,1,0,0:0:0:0:
36,7,92281,6,0,P|48:112|56:208,1,180,2|2,1:2|0:0,0:0:0:0:
2,248,92789,1,0,1:2:0:0:
137,373,92959,2,0,P|195:343|207:307,1,90,10|0,0:2|0:0,0:0:0:0:
150,254,93298,2,0,P|92:284|80:320,1,90,2|0,0:0|0:0,0:0:0:0:
311,384,93637,6,0,P|335:337|365:301,1,90,2|0,0:0|0:0,0:0:0:0:
186,126,93976,2,0,P|213:161|233:201,1,90,2|0,1:2|0:0,0:0:0:0:
355,164,94315,1,10,0:2:0:0:
217,305,94484,1,2,0:0:0:0:
285,88,94654,1,2,0:0:0:0:
285,88,94739,1,0,0:0:0:0:
285,88,94823,1,0,0:0:0:0:
437,252,94993,6,0,P|453:200|492:75,1,180,0|2,1:2|0:0,0:0:0:0:
445,5,95501,1,2,1:2:0:0:
282,176,95671,2,0,P|230:163|206:123,1,90,10|0,0:2|0:0,0:0:0:0:
287,3,96010,2,0,P|339:16|363:56,1,90,2|0,0:0|0:0,0:0:0:0:
429,161,96349,5,2,0:0:0:0:
285,88,96518,1,0,0:0:0:0:
477,63,96688,1,2,1:2:0:0:
350,219,96857,1,0,0:0:0:0:
375,37,97027,5,10,0:2:0:0:
500,206,97196,1,2,0:0:0:0:
500,206,97281,1,0,0:0:0:0:
500,206,97366,2,0,P|462:236|408:240,1,90,2|2,0:0|0:0,0:0:0:0:
209,135,97705,6,0,P|145:114|76:200,1,180,6|2,1:2|0:0,0:0:0:0:
13,237,98213,1,0,1:2:0:0:
249,340,98383,6,0,P|276:311|265:234,1,90,10|0,0:2|0:0,0:0:0:0:
155,190,98722,2,0,P|184:242|202:290,1,90,2|0,0:0|0:0,0:0:0:0:
182,384,99061,1,2,0:0:0:0:
261,171,99230,1,0,0:0:0:0:
88,284,99400,1,2,1:2:0:0:
309,317,99569,1,2,0:0:0:0:
155,190,99739,6,0,P|139:147|123:106,1,90,10|0,0:2|0:0,0:0:0:0:
334,1,100078,2,0,P|317:42|301:85,1,90,2|0,0:0|0:0,0:0:0:0:
487,281,100416,6,0,P|507:216|415:155,1,180,2|2,1:2|0:0,0:0:0:0:
386,87,100925,1,0,1:2:0:0:
342,270,101094,2,0,P|397:241|450:227,1,90,10|0,0:2|0:0,0:0:0:0:
472,69,101433,2,0,P|446:22|390:11,1,90,2|0,0:0|0:0,0:0:0:0:
205,136,101772,5,2,0:0:0:0:
386,87,101942,1,0,0:0:0:0:
215,142,102111,1,2,1:2:0:0:
365,217,102281,1,2,0:0:0:0:
225,21,102450,5,10,0:2:0:0:
192,248,102620,1,0,0:0:0:0:
192,248,102705,1,0,0:0:0:0:
192,248,102789,1,2,0:0:0:0:
305,144,102959,1,0,0:0:0:0:
67,35,103128,6,0,B|43:55|23:72|23:72|33:122|50:208,1,180,2|2,1:2|0:0,0:0:0:0:
13,263,103637,1,0,1:2:0:0:
123,120,103806,2,0,P|180:104|229:126,1,90,10|0,0:2|0:0,0:0:0:0:
217,219,104145,2,0,P|160:235|111:213,1,90,2|0,0:0|0:0,0:0:0:0:
286,10,104484,6,0,P|296:72|306:169,1,135,2|0,0:0|0:0,0:0:0:0:
318,182,104823,2,0,P|349:207|398:196,1,90,2|0,1:2|0:0,0:0:0:0:
472,138,105162,1,10,0:2:0:0:
386,80,105332,1,2,0:0:0:0:
468,241,105501,2,0,P|444:302|430:355,1,90,2|0,0:0|0:0,0:0:0:0:
296,384,105840,6,0,P|268:337|340:248,1,180,2|0,1:2|0:0,0:0:0:0:
396,198,106349,1,2,1:2:0:0:
206,45,106518,6,0,P|148:42|77:38,1,90,10|0,0:2|0:0,0:0:0:0:
10,160,106857,2,0,P|16:211|65:245,1,90,2|0,0:0|0:0,0:0:0:0:
193,301,107196,1,2,0:0:0:0:
97,172,107366,1,0,0:0:0:0:
56,357,107535,1,2,1:2:0:0:
100,160,107705,1,0,0:0:0:0:
214,325,107874,5,10,0:2:0:0:
25,269,108044,1,2,0:0:0:0:
25,269,108128,1,2,0:0:0:0:
25,269,108213,1,2,0:0:0:0:
111,297,108383,1,2,0:0:0:0:
204,214,108552,5,6,0:2:0:0:
