osu file format v14

[General]
AudioFilename: audio.mp3
AudioLeadIn: 0
PreviewTime: 52959
Countdown: 0
SampleSet: Soft
StackLeniency: 0.7
Mode: 0
LetterboxInBreaks: 0
WidescreenStoryboard: 1

[Editor]
Bookmarks: 108552
DistanceSpacing: 1.2
BeatDivisor: 4
GridSize: 32
TimelineZoom: 3.999998

[Metadata]
Title:Holiday (Cut Ver.)
TitleUnicode:Holiday (Cut Ver.)
Artist:KSI
ArtistUnicode:KSI
Creator:Sayuka
Version:Trito's Normal
Source:
Tags:jj olatunji single british english male vocals vocalist pop fatneek all over the place brit award julie tritobandito dcs dabbe dabbe_01 rison amats euryalle
BeatmapID:4023579
BeatmapSetID:1936050

[Difficulty]
HPDrainRate:2
CircleSize:2.8
OverallDifficulty:3.5
ApproachRate:4
SliderMultiplier:2
SliderTickRate:1

[Events]
//Background and Video events
0,0,"holiday.jpg",0,0
//Break Periods
2,48891,52995
//Storyboard Layer 0 (Background)
//Storyboard Layer 1 (Fail)
//Storyboard Layer 2 (Pass)
//Storyboard Layer 3 (Foreground)
//Storyboard Layer 4 (Overlay)
//Storyboard Sound Samples

[TimingPoints]
78,677.966101694915,4,2,2,50,1,0
10925,-100,4,2,2,60,0,0
21772,-95.2380952380952,4,2,2,60,0,0
32620,-90.9090909090909,4,2,2,60,0,0
54315,-86.9565217391304,4,2,2,70,0,0
97705,-86.9565217391304,4,2,2,70,0,0
108552,-86.9565217391304,4,2,2,50,0,0

[Colours]
Combo1 : 103,111,88
Combo2 : 171,174,155

[HitObjects]
78,126,10925,5,0,3:0:0:0:
186,44,11433,2,0,P|210:39|235:40,1,50,2|2,3:2|3:3,0:0:0:0:
321,66,11942,1,2,3:0:0:0:
257,130,12281,5,2,3:0:0:0:
376,192,12789,2,0,L|381:271,1,50,2|2,3:2|3:3,0:0:0:0:
386,331,13298,1,2,3:0:0:0:
303,294,13637,5,2,3:0:0:0:
173,255,14145,2,0,P|166:278|152:299,1,50,2|2,3:2|3:3,0:0:0:0:
89,363,14654,1,2,3:0:0:0:
24,299,14993,6,0,B|30:244|30:244|6:213|6:213|13:158,1,150,2|2,3:0|3:2,0:0:0:0:
22,113,15671,1,2,3:3:0:0:
103,150,16010,1,2,3:0:0:0:
176,97,16349,5,0,3:0:0:0:
297,37,16857,2,0,L|381:44,1,50,2|2,3:2|3:3,0:0:0:0:
436,52,17366,1,2,3:0:0:0:
486,126,17705,5,2,3:0:0:0:
392,223,18213,2,0,L|342:218,1,50,2|2,3:2|3:3,0:0:0:0:
252,209,18722,1,2,3:0:0:0:
230,296,19061,5,2,3:0:0:0:
351,353,19569,2,0,L|401:348,1,50,2|2,3:2|3:3,0:0:0:0:
490,338,20077,1,2,3:0:0:0:
475,249,20416,6,0,B|469:194|469:194|493:163|493:163|486:108,1,150,2|2,3:0|3:2,0:0:0:0:
481,63,21094,1,2,3:3:0:0:
402,18,21433,1,2,3:0:0:0:
352,95,21772,5,2,3:0:0:0:
225,31,22281,2,0,L|131:42,1,52.4999983978272,2|2,3:2|3:3,0:0:0:0:
79,49,22789,1,2,3:0:0:0:
97,141,23128,6,0,P|145:158|174:201,1,104.999996795654,2|2,3:0|0:0,0:0:0:0:
192,251,23637,1,2,3:2:0:0:
192,251,23806,1,2,3:3:0:0:
120,312,24145,1,2,3:0:0:0:
186,379,24484,5,0,3:0:0:0:
303,300,24993,2,0,P|331:297|377:302,1,52.4999983978272,2|2,3:2|3:3,0:0:0:0:
446,323,25501,1,2,3:0:0:0:
491,240,25840,6,0,P|504:190|483:143,1,104.999996795654,2|2,3:0|0:0,0:0:0:0:
449,118,26349,1,2,0:0:0:0:
449,118,26518,1,2,3:3:0:0:
442,23,26857,1,2,3:0:0:0:
350,2,27196,5,0,3:0:0:0:
231,79,27705,2,0,P|203:83|174:72,1,52.4999983978272,2|2,3:2|3:3,0:0:0:0:
98,28,28213,1,2,3:0:0:0:
23,86,28552,2,0,L|38:213,1,104.999996795654,2|2,3:0|0:0,0:0:0:0:
46,241,29061,1,2,3:2:0:0:
46,241,29230,1,2,3:3:0:0:
59,334,29569,1,2,3:0:0:0:
150,357,29908,5,2,3:0:0:0:
198,224,30416,2,0,L|205:160,1,52.4999983978272,2|2,3:2|3:3,0:0:0:0:
145,97,30925,1,2,3:0:0:0:
206,25,31264,5,0,3:0:0:0:
321,106,31772,2,0,P|353:103|380:89,1,52.4999983978272,0|2,3:2|3:3,0:0:0:0:
437,28,32281,1,0,3:0:0:0:
512,99,32620,5,2,1:2:0:0:
512,99,32789,1,0,0:0:0:0:
486,197,33128,1,2,1:2:0:0:
486,197,33298,2,0,P|430:202|383:242,1,110.000003356934,2|2,3:0|3:0,0:0:0:0:
362,329,33976,1,0,3:2:0:0:
453,369,34315,2,0,L|462:299,1,55.0000016784668,2|0,1:2|3:2,0:0:0:0:
508,302,34654,1,2,3:0:0:0:
402,141,35332,5,0,1:2:0:0:
402,141,35501,1,2,0:0:0:0:
312,176,35840,1,2,1:2:0:0:
312,176,36010,2,0,B|256:189|256:189|208:165,1,110.000003356934,2|2,3:3|3:0,0:0:0:0:
110,176,36688,1,2,0:0:0:0:
32,114,37027,2,0,L|45:27,1,55.0000016784668,2|0,1:2|3:2,0:0:0:0:
11,19,37366,1,2,3:3:0:0:
208,17,38044,5,0,1:2:0:0:
288,75,38383,2,0,P|320:78|352:68,1,55.0000016784668,2|2,0:0|1:2,0:0:0:0:
385,48,38722,1,2,3:3:0:0:
483,61,39061,1,2,3:0:0:0:
502,157,39400,1,2,0:0:0:0:
421,212,39739,2,0,P|411:238|411:266,1,55.0000016784668,2|0,1:2|3:2,0:0:0:0:
423,313,40077,1,2,3:3:0:0:
230,359,40755,5,0,1:2:0:0:
230,359,40925,1,2,0:0:0:0:
152,306,41264,1,2,1:2:0:0:
152,306,41433,2,0,P|99:317|56:285,1,110.000003356934,2|2,3:3|3:0,0:0:0:0:
5,200,42111,1,2,0:0:0:0:
98,168,42450,2,0,L|94:75,1,55.0000016784668,2|0,1:2|3:2,0:0:0:0:
93,63,42789,1,2,3:3:0:0:
295,75,43467,5,0,1:2:0:0:
295,75,43637,1,2,0:0:0:0:
387,35,43976,1,2,1:2:0:0:
387,35,44145,2,0,P|446:54|471:122,1,110.000003356934,2|2,3:3|3:0,0:0:0:0:
420,179,44823,1,2,0:0:0:0:
458,270,45162,2,0,L|466:339,1,55.0000016784668,2|0,1:2|3:2,0:0:0:0:
495,362,45501,1,2,3:3:0:0:
303,335,46179,5,0,1:2:0:0:
303,335,46349,1,2,0:0:0:0:
211,375,46688,1,2,1:2:0:0:
211,375,46857,2,0,P|152:356|127:288,1,110.000003356934,2|0,3:3|3:0,0:0:0:0:
178,231,47535,1,2,0:0:0:0:
140,140,47874,2,0,L|132:71,1,55.0000016784668,2|2,1:2|3:2,0:0:0:0:
103,48,48213,1,2,3:3:0:0:
410,125,54315,6,0,L|260:113,1,115.000002193451,6|2,1:2|0:0,0:0:0:0:
248,112,54823,1,0,1:2:0:0:
248,112,54993,1,10,0:2:0:0:
163,51,55332,1,2,0:0:0:0:
77,110,55671,5,2,0:0:0:0:
111,207,56010,1,2,1:2:0:0:
214,213,56349,1,10,0:2:0:0:
287,285,56688,1,2,0:0:0:0:
209,353,57027,6,0,B|162:348|162:348|140:362|140:362|98:356,1,115.000002193451,2|2,1:2|0:0,0:0:0:0:
51,351,57535,1,0,1:2:0:0:
51,351,57705,1,10,0:2:0:0:
7,257,58044,1,2,0:0:0:0:
84,188,58383,5,2,0:0:0:0:
37,95,58722,1,2,1:2:0:0:
115,27,59061,2,0,B|172:17|172:17|225:36,1,115.000002193451,10|2,0:2|0:0,0:0:0:0:
297,111,59739,6,0,B|346:103|346:103|360:91|360:91|426:82,1,115.000002193451,2|2,1:2|0:0,0:0:0:0:
461,82,60247,1,2,1:2:0:0:
461,82,60416,1,10,0:2:0:0:
508,173,60755,1,2,0:0:0:0:
427,238,61094,5,2,0:0:0:0:
478,327,61433,1,2,1:2:0:0:
381,364,61772,2,0,L|320:354,1,57.5000010967255,10|2,0:2|0:0,0:0:0:0:
273,344,62111,1,2,0:0:0:0:
171,364,62450,6,0,L|154:222,1,115.000002193451,2|2,1:2|0:0,0:0:0:0:
151,202,62959,1,0,1:2:0:0:
151,202,63128,1,10,0:2:0:0:
254,200,63467,1,2,0:0:0:0:
341,255,63806,5,2,0:0:0:0:
424,193,64145,1,2,1:2:0:0:
391,94,64484,1,10,0:2:0:0:
287,91,64823,1,2,0:0:0:0:
186,114,65162,6,0,B|130:126|130:126|66:98,1,115.000002193451,2|2,1:2|0:0,0:0:0:0:
36,70,65671,1,0,1:2:0:0:
36,70,65840,1,10,0:2:0:0:
11,170,66179,1,2,0:0:0:0:
97,227,66518,5,2,0:0:0:0:
44,316,66857,1,2,1:2:0:0:
125,380,67196,1,10,0:2:0:0:
216,331,67535,1,2,0:0:0:0:
206,227,67874,6,0,P|214:171|253:129,1,115.000002193451,2|2,1:2|0:0,0:0:0:0:
305,113,68383,1,0,1:2:0:0:
305,113,68552,1,10,0:2:0:0:
344,208,68891,1,2,0:0:0:0:
447,205,69230,5,2,0:0:0:0:
495,296,69569,1,2,1:2:0:0:
411,356,69908,2,0,B|360:331|360:331|302:340,1,115.000002193451,10|2,0:2|0:0,0:0:0:0:
201,363,70586,6,0,L|177:200,1,115.000002193451,2|2,1:2|0:0,0:0:0:0:
178,202,71094,1,2,1:2:0:0:
178,202,71264,1,10,0:2:0:0:
80,237,71603,1,2,0:0:0:0:
13,157,71942,5,2,0:0:0:0:
60,64,72281,1,2,1:2:0:0:
160,90,72620,2,0,P|188:93|216:87,1,57.5000010967255,10|2,0:2|0:0,0:0:0:0:
258,56,72959,1,2,0:0:0:0:
357,29,73298,6,0,P|407:56|422:110,1,115.000002193451,2|2,1:2|0:0,0:0:0:0:
429,162,73806,1,2,1:2:0:0:
429,162,73976,1,10,0:2:0:0:
475,260,74315,5,2,0:0:0:0:
475,260,74484,2,0,B|420:276|420:276|350:248,1,115.000002193451,2|2,0:0|0:0,0:0:0:0:
318,232,74993,2,0,B|294:219|294:219|263:221,1,57.5000010967255,2|2,1:2|0:0,0:0:0:0:
213,234,75332,1,10,0:2:0:0:
174,330,75671,1,2,0:0:0:0:
70,334,76010,6,0,L|87:191,1,115.000002193451,6|2,1:2|0:0,0:0:0:0:
94,172,76518,1,0,1:2:0:0:
94,172,76688,1,10,0:2:0:0:
35,93,77027,5,2,0:0:0:0:
34,93,77196,2,0,P|88:74|143:86,1,115.000002193451,2|2,0:0|0:0,0:0:0:0:
188,113,77705,2,0,P|215:120|244:121,1,57.5000010967255,0|2,1:2|0:0,0:0:0:0:
296,119,78044,1,10,0:2:0:0:
386,68,78383,1,2,0:0:0:0:
477,116,78722,6,0,B|461:229,1,115.000002193451,2|2,1:2|0:0,0:0:0:0:
456,281,79230,1,0,1:2:0:0:
456,281,79400,1,10,0:2:0:0:
407,374,79739,5,2,0:0:0:0:
407,374,79908,2,0,B|345:383|345:383|298:359,1,115.000002193451,2|2,0:0|0:0,0:0:0:0:
264,320,80416,2,0,B|251:229,1,57.5000010967255,0|2,1:2|0:0,0:0:0:0:
249,211,80755,1,10,0:2:0:0:
334,153,81094,1,2,0:0:0:0:
283,62,81433,6,0,B|233:86|233:86|174:77,1,115.000002193451,2|0,1:2|0:0,0:0:0:0:
122,69,81942,1,0,1:2:0:0:
122,69,82111,1,10,0:2:0:0:
30,118,82450,1,2,0:0:0:0:
105,188,82789,5,2,0:0:0:0:
32,262,83128,1,2,1:2:0:0:
110,346,83467,1,10,0:2:0:0:
110,346,83637,1,2,0:0:0:0:
110,346,83806,1,2,0:0:0:0:
199,293,84145,6,0,B|267:297|267:297|287:321|287:321|374:325,1,172.500003290176,2|0,1:2|1:2,0:0:0:0:
411,327,84823,1,10,0:2:0:0:
495,265,85162,5,2,0:0:0:0:
495,265,85332,2,0,P|517:212|506:157,1,115.000002193451,2|2,0:0|0:0,0:0:0:0:
466,124,85840,2,0,L|396:130,1,57.5000010967255,2|2,1:2|0:0,0:0:0:0:
358,143,86179,1,10,0:2:0:0:
273,82,86518,1,2,0:0:0:0:
169,86,86857,6,0,L|161:201,1,115.000002193451,2|2,1:2|0:0,0:0:0:0:
161,256,87366,1,0,1:2:0:0:
161,256,87535,1,10,0:2:0:0:
121,354,87874,5,2,0:0:0:0:
121,354,88044,2,0,B|64:368|64:368|-12:317,1,115.000002193451,2|2,0:0|0:0,0:0:0:0:
9,285,88552,2,0,L|14:221,1,57.5000010967255,2|2,1:2|0:0,0:0:0:0:
17,175,88891,1,10,0:2:0:0:
75,89,89230,1,2,0:0:0:0:
169,132,89569,6,0,P|225:138|277:115,1,115.000002193451,2|2,1:2|0:0,0:0:0:0:
319,84,90077,1,0,1:2:0:0:
319,84,90247,1,10,0:2:0:0:
418,46,90586,5,0,0:0:0:0:
418,46,90755,2,0,L|401:186,1,115.000002193451,2|2,0:0|0:0,0:0:0:0:
436,201,91264,2,0,L|443:270,1,57.5000010967255,0|2,1:2|0:0,0:0:0:0:
449,309,91603,1,10,0:2:0:0:
369,374,91942,1,2,0:0:0:0:
297,298,92281,6,0,B|250:304|250:304|234:320|234:320|188:326,1,115.000002193451,2|2,1:2|0:0,0:0:0:0:
142,338,92789,1,0,1:2:0:0:
142,338,92959,1,10,0:2:0:0:
64,269,93298,1,2,0:0:0:0:
116,179,93637,5,2,0:0:0:0:
48,100,93976,1,2,1:2:0:0:
127,33,94315,1,10,0:2:0:0:
127,33,94484,1,2,0:0:0:0:
127,33,94654,1,2,0:0:0:0:
218,82,94993,6,0,P|276:95|325:72,1,115.000002193451,0|2,1:2|0:0,0:0:0:0:
367,42,95501,1,2,1:2:0:0:
367,42,95671,1,10,0:2:0:0:
469,56,96010,1,2,0:0:0:0:
490,157,96349,5,2,0:0:0:0:
400,209,96688,1,2,1:2:0:0:
298,190,97027,2,0,L|304:250,1,57.5000010967255,10|2,0:2|0:0,0:0:0:0:
318,307,97366,1,2,0:0:0:0:
318,307,97535,1,2,0:0:0:0:
318,307,97705,6,0,B|250:298|250:298|217:312|217:312|122:300,1,172.500003290176,6|0,1:2|1:2,0:0:0:0:
98,295,98383,1,10,0:2:0:0:
153,207,98722,1,2,0:0:0:0:
70,144,99061,5,2,0:0:0:0:
81,41,99400,1,2,1:2:0:0:
183,29,99739,1,10,0:2:0:0:
237,116,100077,1,2,0:0:0:0:
331,157,100416,6,0,P|369:157|393:150,1,57.5000010967255,2|2,1:2|0:0,0:0:0:0:
485,113,100925,1,0,1:2:0:0:
485,113,101094,2,0,L|475:255,1,115.000002193451,10|2,0:2|0:0,0:0:0:0:
465,330,101772,5,2,0:0:0:0:
371,284,102111,1,2,1:2:0:0:
291,350,102450,1,10,0:2:0:0:
199,301,102789,1,2,0:0:0:0:
187,198,103128,2,0,P|204:175|229:162,1,57.5000010967255,2|2,1:2|0:0,0:0:0:0:
336,184,103637,5,0,1:2:0:0:
336,184,103806,2,0,L|323:43,1,115.000002193451,10|2,0:2|0:0,0:0:0:0:
231,24,104484,5,2,0:0:0:0:
152,90,104823,1,2,1:2:0:0:
57,47,105162,1,10,0:2:0:0:
57,47,105332,1,2,0:0:0:0:
57,47,105501,1,2,0:0:0:0:
23,147,105840,5,2,1:2:0:0:
23,147,106010,2,0,P|55:191|53:251,1,115.000002193451,2|2,0:0|1:2,0:0:0:0:
29,295,106518,1,10,0:2:0:0:
98,371,106857,1,2,0:0:0:0:
191,326,107196,5,2,0:0:0:0:
262,251,107535,1,2,1:2:0:0:
365,257,107874,2,0,P|373:288|371:320,1,57.5000010967255,10|2,0:2|0:0,0:0:0:0:
365,364,108213,1,2,0:0:0:0:
365,364,108383,1,2,0:0:0:0:
365,364,108552,1,6,0:2:0:0:
