osu file format v14

[General]
AudioFilename: audio.mp3
AudioLeadIn: 0
PreviewTime: 52959
Countdown: 0
SampleSet: Soft
StackLeniency: 0.7
Mode: 0
LetterboxInBreaks: 0
WidescreenStoryboard: 1

[Editor]
Bookmarks: 10925,21772,32620,43467,54315,65162,76010,86857,97705,108552
DistanceSpacing: 0.9
BeatDivisor: 4
GridSize: 4
TimelineZoom: 2.599999

[Metadata]
Title:Holiday (Cut Ver.)
TitleUnicode:Holiday (Cut Ver.)
Artist:KSI
ArtistUnicode:KSI
Creator:Sayuka
Version:Eury & Sayuka's Insane
Source:
Tags:jj olatunji single british english male vocals vocalist pop fatneek all over the place brit award julie tritobandito dcs dabbe dabbe_01 rison amats euryalle
BeatmapID:4024173
BeatmapSetID:1936050

[Difficulty]
HPDrainRate:4
CircleSize:3.8
OverallDifficulty:7.5
ApproachRate:8
SliderMultiplier:1.8
SliderTickRate:1

[Events]
//Background and Video events
0,0,"holiday.jpg",0,0
//Break Periods
//Storyboard Layer 0 (Background)
//Storyboard Layer 1 (Fail)
//Storyboard Layer 2 (Pass)
//Storyboard Layer 3 (Foreground)
//Storyboard Layer 4 (Overlay)
//Storyboard Sound Samples

[TimingPoints]
78,677.966101694915,4,2,2,50,1,0
10925,-90.9090909090909,4,2,2,60,0,0
51179,-90.9090909090909,4,2,2,60,0,0
51264,-90.9090909090909,4,2,2,60,0,0
54315,-66.6666666666667,4,2,2,70,0,1
76010,-57.1428571428571,4,2,2,70,0,1
97705,-66.6666666666667,4,2,2,70,0,0
108552,-66.6666666666667,4,2,2,50,0,0

[Colours]
Combo1 : 103,111,88
Combo2 : 171,174,155

[HitObjects]
30,137,10925,6,0,P|87:103|138:116,1,99.0000030212403,0|2,3:0|0:0,0:0:0:0:
184,49,11433,1,2,3:2:0:0:
205,139,11603,2,0,L|212:212,1,49.5000015106202,2|2,3:3|0:0,0:0:0:0:
109,241,11942,2,0,L|104:191,1,49.5000015106202,2|2,3:0|3:0,0:0:0:0:
270,27,12281,6,0,P|321:27|361:59,1,99.0000030212403,2|2,3:0|0:0,0:0:0:0:
380,139,12789,1,2,3:2:0:0:
293,109,12959,2,0,L|304:233,1,99.0000030212403,2|2,3:3|3:0,0:0:0:0:
244,281,13467,1,2,3:0:0:0:
352,365,13637,2,0,L|357:302,1,49.5000015106202,2|2,3:0|0:0,0:0:0:0:
425,257,13976,2,0,L|419:194,1,49.5000015106202,2|2,0:0|3:2,0:0:0:0:
293,109,14315,6,0,P|246:95|192:114,1,99.0000030212403,2|2,3:3|3:0,0:0:0:0:
121,85,14823,1,0,3:0:0:0:
124,262,14993,2,0,P|181:278|242:167,1,198.000006042481,2|2,3:0|3:3,0:0:0:0:
453,110,16349,5,0,3:0:0:0:
453,110,16518,2,0,L|462:179,2,49.5000015106202,2|2|2,0:0|0:0|3:2,0:0:0:0:
511,40,17027,6,0,P|457:18|393:46,1,99.0000030212403,2|2,3:3|3:0,0:0:0:0:
368,94,17535,1,2,3:0:0:0:
293,157,17705,2,0,L|280:44,1,99.0000030212403,2|2,3:0|0:0,0:0:0:0:
211,14,18213,1,2,3:2:0:0:
128,108,18383,5,2,3:3:0:0:
128,108,18552,2,0,L|63:121,2,49.5000015106202,2|2|2,0:0|3:0|3:0,0:0:0:0:
193,173,19061,2,0,L|188:230,1,49.5000015106202,2|2,3:0|0:0,0:0:0:0:
99,263,19400,2,0,L|103:213,1,49.5000015106202,2|2,0:0|3:2,0:0:0:0:
27,186,19739,1,2,3:3:0:0:
27,186,19908,1,0,0:0:0:0:
173,307,20077,2,0,L|242:300,1,49.5000015106202,2|0,3:0|3:0,0:0:0:0:
303,124,20416,6,0,P|344:117|362:242,1,198.000006042481,2|2,3:0|3:3,0:0:0:0:
448,376,21772,6,0,L|457:314,1,49.5000015106202,2|0,3:0|0:0,0:0:0:0:
373,236,22111,2,0,L|365:284,1,49.5000015106202,2|2,0:0|3:2,0:0:0:0:
287,349,22450,1,2,3:3:0:0:
287,349,22620,1,0,0:0:0:0:
240,259,22789,2,0,L|247:210,1,49.5000015106202,2|2,3:0|3:0,0:0:0:0:
323,153,23128,2,0,L|307:45,2,99.0000030212403,2|2|2,3:0|0:0|3:3,0:0:0:0:
67,344,24484,5,0,3:0:0:0:
67,344,24654,2,0,L|12:357,2,49.5000015106202,2|2|2,0:0|0:0|3:2,0:0:0:0:
161,378,25162,6,0,P|168:346|162:314,1,49.5000015106202,2|0,3:3|0:0,0:0:0:0:
106,255,25501,1,2,3:0:0:0:
106,255,25671,1,0,3:0:0:0:
198,131,25840,6,0,P|239:119|303:137,2,99.0000030212403,2|2|2,3:0|0:0|3:3,0:0:0:0:
480,32,27196,5,0,3:0:0:0:
480,32,27366,2,0,L|489:88,2,49.5000015106202,2|2|2,0:0|0:0|3:2,0:0:0:0:
412,154,27874,5,2,3:3:0:0:
412,154,28044,2,0,L|403:210,2,49.5000015106202,2|2|2,0:0|3:0|3:0,0:0:0:0:
346,40,28552,6,0,P|322:26|267:24,1,49.5000015106202,2|0,3:0|0:0,0:0:0:0:
242,139,28891,2,0,P|266:125|295:78,1,49.5000015106202,2|2,0:0|3:2,0:0:0:0:
152,41,29230,2,0,L|165:106,1,49.5000015106202,2|0,3:3|0:0,0:0:0:0:
157,179,29569,2,0,L|144:244,1,49.5000015106202,2|0,3:0|3:0,0:0:0:0:
184,316,29908,1,2,3:0:0:0:
184,316,30077,2,0,L|194:375,2,49.5000015106202,0|0|2,0:0|0:0|3:2,0:0:0:0:
250,250,30586,1,2,3:3:0:0:
475,341,32620,5,2,1:2:0:0:
443,189,32790,2,0,L|451:237,1,49.5000015106202
329,278,33128,1,2,1:2:0:0:
362,126,33298,2,0,L|353:174,1,49.5000015106202,2|0,3:0|0:0,0:0:0:0:
258,358,33637,6,0,P|214:368|157:339,1,99.0000030212403,2|0,3:0|3:2,0:0:0:0:
84,353,34145,1,0,0:0:0:0:
222,281,34315,1,2,1:2:0:0:
23,74,35332,5,0,1:2:0:0:
0,154,35501,2,0,L|15:211,2,49.5000015106202,2|2|2,0:0|0:0|1:2,0:0:0:0:
111,39,36010,6,0,B|198:28|168:76|256:59,1,148.50000453186,2|2,3:3|3:0,0:0:0:0:
316,7,36688,1,2,0:0:0:0:
316,7,36857,1,2,0:0:0:0:
410,126,37027,1,2,1:2:0:0:
258,358,38044,6,0,L|247:293,1,49.5000015106202,0|2,1:2|0:0,0:0:0:0:
275,222,38383,1,2,0:0:0:0:
275,222,38552,1,2,1:2:0:0:
153,112,38722,2,0,P|115:106|88:113,1,49.5000015106202,2|0,3:3|0:0,0:0:0:0:
23,174,39061,1,2,3:0:0:0:
23,174,39230,1,2,3:0:0:0:
111,242,39400,2,0,L|120:181,2,49.5000015106202,2|2|2,0:0|0:0|1:2,0:0:0:0:
403,34,40755,6,0,P|451:40|483:97,1,99.0000030212403,0|2,1:2|0:0,0:0:0:0:
388,173,41264,1,2,1:2:0:0:
388,173,41433,2,0,L|408:83,1,49.5000015106202,2|0,3:3|0:0,0:0:0:0:
495,193,41772,2,0,L|505:241,1,49.5000015106202,2|2,3:0|3:0,0:0:0:0:
458,338,42111,1,2,0:0:0:0:
458,338,42281,1,2,0:0:0:0:
339,243,42450,1,2,1:2:0:0:
13,25,43467,5,0,1:2:0:0:
35,128,43637,2,0,L|44:177,1,49.5000015106202,2|0,0:0|0:0,0:0:0:0:
170,53,43975,1,2,1:2:0:0:
145,162,44145,2,0,L|137:211,1,49.5000015106202,2|0,3:3|0:0,0:0:0:0:
157,358,44484,5,2,3:0:0:0:
157,358,44654,2,0,P|201:368|258:339,1,99.0000030212403,2|2,3:0|0:0,0:0:0:0:
253,207,45162,1,2,1:2:0:0:
438,346,46179,5,0,1:2:0:0:
443,240,46349,2,0,L|447:188,2,49.5000015106202,2|2|2,0:0|0:0|1:2,0:0:0:0:
333,376,46857,2,0,L|342:267,1,99.0000030212403,2|0,3:3|3:0,0:0:0:0:
260,195,47366,1,2,3:0:0:0:
260,195,47535,2,0,L|266:119,2,49.5000015106202,2|2|2,0:0|0:0|1:2,0:0:0:0:
38,374,48891,6,0,P|34:335|49:303,1,49.5000015106202,0|2,1:2|0:0,0:0:0:0:
178,323,49230,2,0,L|126:341,1,49.5000015106202,2|2,0:0|1:2,0:0:0:0:
0,216,49569,2,0,L|46:232,2,49.5000015106202,2|0|2,3:3|0:0|3:0,0:0:0:0:
159,85,50247,6,0,L|164:146,1,49.5000015106202,2|0,0:0|0:0,0:0:0:0:
255,145,50586,2,0,L|260:206,1,49.5000015106202,2|0,1:2|3:2,0:0:0:0:
352,273,50925,6,0,L|357:211,1,49.5000015106202,2|0,3:3|0:0,0:0:0:0:
449,213,51264,2,0,L|454:151,1,49.5000015106202,2|0,3:0|3:0,0:0:0:0:
366,77,51603,1,0,1:2:0:0:
366,77,51772,2,0,L|310:68,1,49.5000015106202,2|2,0:0|0:0,0:0:0:0:
259,194,52111,1,2,1:2:0:0:
259,194,52280,2,0,L|203:203,1,49.5000015106202,2|0,3:3|0:0,0:0:0:0:
88,68,52620,1,2,3:0:0:0:
88,68,54315,6,0,P|154:63|200:110,1,135.000005149842,6|2,1:2|0:0,0:0:0:0:
165,309,54823,1,0,1:2:0:0:
150,205,54993,2,0,L|217:218,1,67.5000025749208,10|0,0:2|0:0,0:0:0:0:
350,340,55332,2,0,L|283:327,1,67.5000025749208,2|0,0:0|0:0,0:0:0:0:
346,169,55671,6,0,P|321:212|315:236,1,67.5000025749208,2|0,0:0|0:0,0:0:0:0:
194,368,56010,2,0,P|182:336|164:308,1,67.5000025749208,2|2,1:2|0:0,0:0:0:0:
350,340,56349,2,0,P|428:366|486:323,1,135.000005149842,10|2,0:2|0:0,0:0:0:0:
506,258,56857,1,0,0:0:0:0:
374,133,57027,6,0,P|387:172|409:279,1,135.000005149842,2|2,1:2|0:0,0:0:0:0:
305,244,57535,1,0,1:2:0:0:
484,140,57705,2,0,P|476:107|465:75,1,67.5000025749208,10|0,0:2|0:0,0:0:0:0:
295,29,58044,2,0,P|287:61|276:93,1,67.5000025749208,2|0,0:0|0:0,0:0:0:0:
201,239,58383,6,0,P|120:259|72:187,1,135.000005149842,2|2,0:0|1:2,0:0:0:0:
21,110,58891,1,2,0:0:0:0:
156,52,59061,1,10,0:2:0:0:
60,229,59230,1,0,0:0:0:0:
60,229,59315,1,0,0:0:0:0:
60,229,59400,1,2,0:0:0:0:
99,348,59569,1,2,0:0:0:0:
153,164,59739,6,0,B|184:129|228:132|228:132|246:162|276:175,1,135.000005149842,2|2,1:2|0:0,0:0:0:0:
463,107,60247,1,2,1:2:0:0:
434,203,60416,2,0,P|430:125|316:96,1,202.500007724762,10|0,0:2|0:0,0:0:0:0:
271,272,61094,6,0,L|353:245,1,67.5000025749208,2|0,0:0|0:0,0:0:0:0:
483,327,61433,2,0,L|401:354,1,67.5000025749208,2|0,1:2|0:0,0:0:0:0:
445,210,61772,1,10,0:2:0:0:
326,353,61942,1,2,0:0:0:0:
217,189,62111,1,2,0:0:0:0:
345,237,62281,1,0,0:0:0:0:
166,301,62450,6,0,P|100:319|48:270,1,135.000005149842,2|2,1:2|0:0,0:0:0:0:
114,206,62959,1,0,1:2:0:0:
0,102,63128,2,0,P|19:139|28:173,1,67.5000025749208,10|0,0:2|0:0,0:0:0:0:
112,85,63467,2,0,P|101:52|85:23,1,67.5000025749208,2|0,0:0|0:0,0:0:0:0:
200,150,63806,6,0,P|232:182|306:166,1,101.250003862381,2|0,0:0|0:0,0:0:0:0:
311,151,64145,2,0,P|343:119|417:135,1,101.250003862381,2|0,1:2|0:0,0:0:0:0:
433,135,64484,2,0,L|420:216,1,67.5000025749208,10|0,0:2|0:0,0:0:0:0:
424,226,64739,1,0,0:0:0:0:
424,226,64823,1,2,0:0:0:0:
319,368,64993,1,0,0:0:0:0:
453,322,65162,6,0,P|395:271|322:284,1,135.000005149842,2|2,1:2|0:0,0:0:0:0:
156,328,65671,1,0,1:2:0:0:
213,250,65840,2,0,P|238:272|252:302,1,67.5000025749208,10|0,0:2|0:0,0:0:0:0:
117,240,66179,2,0,P|123:207|142:179,1,67.5000025749208,2|0,0:0|0:0,0:0:0:0:
156,328,66518,6,0,L|68:350,1,67.5000025749208,2|0,0:0|0:0,0:0:0:0:
233,160,66857,2,0,L|321:182,1,67.5000025749208,2|2,1:2|0:0,0:0:0:0:
118,93,67196,2,0,L|150:226,1,135.000005149842,10|2,0:2|0:0,0:0:0:0:
48,209,67705,1,0,0:0:0:0:
211,71,67874,6,0,P|257:57|322:112,1,135.000005149842,2|2,1:2|0:0,0:0:0:0:
416,69,68383,1,0,1:2:0:0:
343,261,68552,2,0,P|333:230|309:176,1,67.5000025749208,10|0,0:2|0:0,0:0:0:0:
465,250,68891,2,0,P|477:281|488:313,1,67.5000025749208,2|0,0:0|0:0,0:0:0:0:
250,384,69230,6,0,P|229:319|203:257,1,135.000005149842,2|2,0:0|1:2,0:0:0:0:
94,335,69739,1,2,0:0:0:0:
232,168,69908,1,10,0:2:0:0:
87,107,70077,1,0,0:0:0:0:
87,107,70162,1,0,0:0:0:0:
87,107,70247,1,2,0:0:0:0:
193,275,70416,1,0,0:0:0:0:
265,41,70586,6,0,B|302:51|329:83|329:83|346:48|385:42,1,135.000005149842,2|2,1:2|0:0,0:0:0:0:
467,239,71094,1,2,1:2:0:0:
358,218,71264,2,0,B|375:255|420:245|420:245|459:212|449:152|387:119,1,202.500007724762,10|0,0:2|0:0,0:0:0:0:
247,201,71942,6,0,P|238:240|229:292,1,67.5000025749208,2|0,0:0|0:0,0:0:0:0:
63,319,72281,2,0,P|72:280|81:228,1,67.5000025749208,2|0,1:2|0:0,0:0:0:0:
0,115,72620,1,10,0:2:0:0:
154,217,72789,1,2,0:0:0:0:
243,54,72959,1,2,0:0:0:0:
102,131,73128,1,0,0:0:0:0:
229,285,73298,6,0,P|281:232|352:250,1,135.000005149842,2|2,1:2|0:0,0:0:0:0:
467,289,73806,1,2,1:2:0:0:
462,150,73976,2,0,P|438:170|424:213,1,67.5000025749208,10|0,0:2|0:0,0:0:0:0:
467,289,74315,1,2,0:0:0:0:
355,115,74484,6,0,B|342:68|317:62|317:62|304:108|246:114,1,135.000005149842,2|2,0:0|0:0,0:0:0:0:
81,54,74993,1,2,1:2:0:0:
189,48,75162,2,0,P|180:89|170:133,1,67.5000025749208,2|10,0:0|0:2,0:0:0:0:
148,264,75501,1,0,0:0:0:0:
148,264,75586,1,0,0:0:0:0:
148,264,75671,2,0,P|103:219|78:215,1,67.5000025749208,2|0,0:0|0:0,0:0:0:0:
57,220,75925,1,0,0:0:0:0:
57,220,76010,6,0,P|75:302|95:390,1,157.500001502037,6|2,1:2|0:0,0:0:0:0:
247,245,76518,1,0,1:2:0:0:
298,367,76688,2,0,P|261:357|221:349,1,78.7500007510185,10|0,0:2|0:0,0:0:0:0:
392,250,77027,1,2,0:0:0:0:
392,250,77111,1,0,0:0:0:0:
392,250,77196,6,0,P|429:260|468:267,1,78.7500007510185,2|2,0:0|0:0,0:0:0:0:
347,152,77535,1,2,0:0:0:0:
266,249,77705,1,0,1:2:0:0:
416,350,77874,1,2,0:0:0:0:
454,155,78044,2,0,P|424:85|343:67,1,157.500001502037,10|2,0:2|0:0,0:0:0:0:
437,0,78552,1,0,0:0:0:0:
260,106,78722,6,0,P|216:98|167:81,1,78.7500007510185,2|2,1:2|0:0,0:0:0:0:
75,246,79061,2,0,P|112:234|151:227,1,78.7500007510185,2|0,0:0|1:2,0:0:0:0:
132,7,79400,2,0,B|102:37|72:61|72:61|93:100|108:142,1,157.500001502037,10|2,0:2|0:0,0:0:0:0:
262,210,79908,6,0,L|243:286,1,78.7500007510185,2|2,0:0|0:0,0:0:0:0:
435,224,80247,2,0,L|378:169,1,78.7500007510185,2|0,0:0|1:2,0:0:0:0:
337,365,80586,2,0,L|412:342,1,78.7500007510185,2|10,0:0|0:2,0:0:0:0:
348,263,80925,1,0,0:0:0:0:
504,376,81094,1,2,0:0:0:0:
348,263,81264,1,0,0:0:0:0:
509,144,81433,6,0,P|488:219|473:310,1,157.500001502037,2|2,1:2|0:0,0:0:0:0:
379,142,81942,1,0,1:2:0:0:
439,54,82111,2,0,P|381:104|305:87,1,157.500001502037,10|2,0:2|0:0,0:0:0:0:
291,78,82535,1,0,0:0:0:0:
291,78,82620,1,0,0:0:0:0:
149,0,82789,6,0,P|159:37|166:82,1,78.7500007510185,2|0,0:0|0:0,0:0:0:0:
129,249,83128,2,0,P|135:210|146:172,1,78.7500007510185,2|0,1:2|0:0,0:0:0:0:
238,229,83467,1,10,0:2:0:0:
76,348,83637,1,2,0:0:0:0:
52,162,83806,1,2,0:0:0:0:
191,325,83976,1,0,0:0:0:0:
314,178,84145,6,0,P|258:135|173:164,1,157.500001502037,2|2,1:2|0:0,0:0:0:0:
300,296,84654,1,0,1:2:0:0:
410,246,84823,2,0,P|419:205|432:165,1,78.7500007510185,10|0,0:2|0:0,0:0:0:0:
512,259,85162,5,2,0:0:0:0:
369,87,85332,6,0,B|417:88|456:61|456:61|412:68|390:52,1,157.500001502037,2|2,0:0|0:0,0:0:0:0:
270,14,85840,1,2,1:2:0:0:
169,83,86010,2,0,P|134:64|84:53,1,78.7500007510185,2|10,0:0|0:2,0:0:0:0:
16,249,86348,1,0,0:0:0:0:
138,172,86518,1,2,0:0:0:0:
6,63,86688,1,0,0:0:0:0:
150,182,86857,6,0,P|186:214|159:318,1,157.500001502037,2|2,1:2|0:0,0:0:0:0:
65,336,87366,1,0,1:2:0:0:
231,228,87535,2,0,P|271:240|310:250,1,78.7500007510185,10|0,0:2|0:0,0:0:0:0:
441,286,87874,1,2,0:0:0:0:
444,142,88044,1,2,0:0:0:0:
444,142,88128,1,0,0:0:0:0:
444,142,88213,6,0,P|408:164|392:217,1,78.7500007510185,2|2,0:0|0:0,0:0:0:0:
330,58,88552,1,2,1:2:0:0:
460,17,88722,1,2,0:0:0:0:
307,150,88891,2,0,B|245:133|245:133|222:139|222:139|137:117,1,157.500001502037,10|2,0:2|0:0,0:0:0:0:
12,82,89400,1,0,0:0:0:0:
98,196,89569,6,0,P|117:233|134:285,1,78.7500007510185,2|2,1:2|0:0,0:0:0:0:
299,316,89908,2,0,P|285:279|267:244,1,78.7500007510185,2|0,0:0|1:2,0:0:0:0:
72,376,90247,2,0,P|136:316|216:338,1,157.500001502037,10|0,0:2|0:0,0:0:0:0:
365,371,90755,2,0,P|410:371|454:353,1,78.7500007510185,2|2,0:0|0:0,0:0:0:0:
315,210,91094,2,0,P|292:248|286:296,1,78.7500007510185,2|0,0:0|1:2,0:0:0:0:
479,248,91433,2,0,P|456:209|418:179,1,78.7500007510185,2|10,0:0|0:2,0:0:0:0:
392,278,91772,1,2,0:0:0:0:
453,101,91942,1,2,0:0:0:0:
392,278,92111,1,0,0:0:0:0:
316,67,92281,6,0,B|299:27|263:16|220:26|220:26|243:45|250:87,1,157.500001502037,2|2,1:2|0:0,0:0:0:0:
98,17,92789,1,0,1:2:0:0:
64,125,92959,2,0,L|147:92,1,78.7500007510185,10|0,0:2|0:0,0:0:0:0:
248,234,93298,2,0,L|165:201,1,78.7500007510185,2|0,0:0|0:0,0:0:0:0:
156,197,93552,1,0,0:0:0:0:
156,197,93637,6,0,P|116:236|123:267,1,78.7500007510185,2|0,0:0|0:0,0:0:0:0:
261,368,93976,2,0,P|301:329|294:298,1,78.7500007510185,2|0,1:2|0:0,0:0:0:0:
430,384,94314,1,10,0:2:0:0:
347,225,94484,1,2,0:0:0:0:
506,239,94654,1,2,0:0:0:0:
331,131,94823,1,0,0:0:0:0:
478,28,94993,6,0,P|448:101|425:176,1,157.500001502037,0|2,1:2|0:0,0:0:0:0:
506,239,95501,1,2,1:2:0:0:
375,40,95671,2,0,B|290:5|241:76|241:76|187:92|160:44,1,236.250002253056,10|0,0:2|0:0,0:0:0:0:
12,22,96349,2,0,P|30:70|42:109,1,78.7500007510185,2|0,0:0|0:0,0:0:0:0:
219,189,96688,2,0,P|206:151|192:114,1,78.7500007510185,2|0,1:2|0:0,0:0:0:0:
0,299,97027,1,10,0:2:0:0:
107,155,97196,1,2,0:0:0:0:
191,379,97366,1,2,0:0:0:0:
119,256,97535,1,2,0:0:0:0:
119,256,97620,1,0,0:0:0:0:
119,256,97705,6,0,B|158:207|212:226|212:226|246:257,1,135.000005149842,6|2,1:2|0:0,0:0:0:0:
397,372,98213,1,0,1:2:0:0:
303,341,98383,2,0,L|335:209,1,135.000005149842,10|2,0:2|0:0,0:0:0:0:
457,289,98891,1,0,0:0:0:0:
403,144,99061,6,0,P|365:114|300:125,1,101.250003862381,2|0,0:0|0:0,0:0:0:0:
281,141,99400,2,0,P|245:161|201:152,1,67.5000025749208,2|2,1:2|0:0,0:0:0:0:
193,137,99654,1,0,0:0:0:0:
193,137,99739,2,0,L|170:55,1,67.5000025749208,10|0,0:2|0:0,0:0:0:0:
24,177,100077,1,2,0:0:0:0:
85,35,100247,1,0,0:0:0:0:
24,177,100416,6,0,P|39:241|167:256,1,202.500007724762,2|0,1:2|1:2,0:0:0:0:
302,197,101094,2,0,L|283:261,1,67.5000025749208,10|0,0:2|0:0,0:0:0:0:
388,350,101433,2,0,L|406:285,1,67.5000025749208,2|0,0:0|0:0,0:0:0:0:
447,143,101772,5,2,0:0:0:0:
298,182,101942,1,0,0:0:0:0:
381,42,102112,1,2,1:2:0:0:
290,195,102281,1,2,0:0:0:0:
255,28,102450,2,0,P|209:46|171:54,1,67.5000025749208,10|0,0:2|0:0,0:0:0:0:
163,81,102705,1,0,0:0:0:0:
163,81,102789,2,0,P|117:63|79:55,1,67.5000025749208,2|0,0:0|0:0,0:0:0:0:
59,243,103128,6,0,P|121:216|272:180,1,202.500007724762,2|0,1:2|1:2,0:0:0:0:
298,194,103806,2,0,P|330:232|334:276,1,67.5000025749208,10|0,0:2|0:0,0:0:0:0:
220,332,104145,2,0,P|245:278|261:247,1,67.5000025749208,2|0,0:0|0:0,0:0:0:0:
444,52,104484,6,0,P|474:56|508:88,1,67.5000025749208,2|0,0:0|0:0,0:0:0:0:
380,158,104823,2,0,P|405:136|438:131,1,67.5000025749208,2|0,1:2|0:0,0:0:0:0:
352,235,105162,1,10,0:2:0:0:
288,100,105332,1,2,0:0:0:0:
356,245,105501,2,0,L|366:325,1,67.5000025749208,2|0,0:0|0:0,0:0:0:0:
144,381,105840,6,0,P|132:310|114:228,1,135.000005149842,2|0,1:2|0:0,0:0:0:0:
46,197,106349,1,2,1:2:0:0:
85,44,106518,2,0,P|117:26|168:32,1,67.5000025749208,10|0,0:2|0:0,0:0:0:0:
225,80,106857,2,0,P|257:98|308:92,1,67.5000025749208,2|0,0:0|0:0,0:0:0:0:
433,7,107196,5,2,0:0:0:0:
354,161,107365,1,0,0:0:0:0:
508,112,107535,1,2,1:2:0:0:
362,148,107705,1,0,0:0:0:0:
457,323,107874,6,0,L|466:250,1,67.5000025749208,10|2,0:2|0:0,0:0:0:0:
452,224,108128,1,2,0:0:0:0:
452,224,108213,2,0,L|443:151,1,67.5000025749208,2|2,0:0|0:0,0:0:0:0:
512,35,108552,5,6,0:2:0:0:
