osu file format v14

[General]
AudioFilename: audio.mp3
AudioLeadIn: 0
PreviewTime:52959
Countdown: 0
SampleSet: Soft
StackLeniency: 0.7
Mode: 0
LetterboxInBreaks: 0
WidescreenStoryboard: 1

[Editor]
Bookmarks:10925,32620,54315,76010,97705,108552
DistanceSpacing: 2
BeatDivisor: 8
GridSize: 32
TimelineZoom: 1.9

[Metadata]
Title:Holiday (Cut Ver.)
TitleUnicode:Holiday (Cut Ver.)
Artist:KSI
ArtistUnicode:KSI
Creator:Sayuka
Version:Collab Hard
Source:
Tags:jj olatunji single british english male vocals vocalist pop fatneek all over the place brit award julie tritobandito dcs dabbe dabbe_01 rison amats euryalle
BeatmapID:4023578
BeatmapSetID:1936050

[Difficulty]
HPDrainRate:3
CircleSize:3.5
OverallDifficulty:6
ApproachRate:7
SliderMultiplier:1.4
SliderTickRate:1

[Events]
//Background and Video events
0,0,"holiday.jpg",0,0
//Break Periods
//Storyboard Layer 0 (Background)
//Storyboard Layer 1 (Fail)
//Storyboard Layer 2 (Pass)
//Storyboard Layer 3 (Foreground)
//Storyboard Layer 4 (Overlay)
//Storyboard Sound Samples

[TimingPoints]
78,677.966101694915,4,2,2,50,1,0
10925,-100,4,2,2,60,0,0
32620,-100,4,2,2,60,0,0
54315,-76.9230769230769,4,2,2,70,0,0
97705,-100,4,2,2,70,0,0
108552,-100,4,2,2,50,0,0

[Colours]
Combo1 : 103,111,88
Combo2 : 171,174,155

[HitObjects]
96,104,10925,6,0,L|182:88,1,70,0|2,3:0|0:0,0:0:0:0:
240,132,11433,1,2,3:2:0:0:
240,132,11603,2,0,L|326:116,1,70,2|2,3:3|3:0,0:0:0:0:
468,144,12281,6,0,P|481:175|475:209,1,70,2|2,3:0|0:0,0:0:0:0:
404,248,12789,1,2,3:2:0:0:
404,248,12959,2,0,P|390:279|396:313,1,70,2|2,3:3|3:0,0:0:0:0:
244,364,13637,6,0,L|157:348,1,70,2|2,3:0|0:0,0:0:0:0:
108,316,14145,1,2,3:2:0:0:
108,316,14315,2,0,L|39:328,1,70,2|2,3:3|3:0,0:0:0:0:
160,224,14993,6,0,L|228:236,1,70,2|2,3:0|0:0,0:0:0:0:
296,280,15501,1,2,3:2:0:0:
296,280,15671,2,0,L|364:267,1,70,2|2,3:3|3:0,0:0:0:0:
504,196,16349,6,0,P|517:164|511:130,1,70,0|2,3:0|0:0,0:0:0:0:
444,100,16857,1,2,3:2:0:0:
444,100,17027,2,0,P|430:68|436:34,1,70,2|2,3:3|3:0,0:0:0:0:
300,124,17705,6,0,L|231:111,1,70,2|2,3:0|0:0,0:0:0:0:
164,76,18213,1,2,3:2:0:0:
164,76,18383,2,0,L|95:88,1,70,2|2,3:3|3:0,0:0:0:0:
44,240,19061,6,0,L|112:227,1,70,2|2,3:0|0:0,0:0:0:0:
196,252,19569,1,2,3:2:0:0:
196,252,19739,2,0,L|264:239,2,70,2|2|2,3:3|3:0|3:0,0:0:0:0:
72,148,20755,6,0,L|63:100,1,35,2|2,0:0|3:2,0:0:0:0:
56,32,21094,2,0,P|87:18|121:24,1,70,2|2,3:3|3:0,0:0:0:0:
268,108,21772,5,2,3:0:0:0:
268,108,21942,2,0,L|336:95,1,70,0|2,0:0|3:2,0:0:0:0:
416,88,22450,2,0,P|429:119|423:153,1,70,2|2,3:3|3:0,0:0:0:0:
364,208,22959,1,2,3:0:0:0:
364,208,23128,6,0,P|350:239|356:273,2,70,2|2|2,3:0|0:0|3:3,0:0:0:0:
240,104,24145,2,0,L|248:56,2,35,2|0|0,3:0|3:0|3:0,0:0:0:0:
172,148,24654,5,2,0:0:0:0:
172,148,24823,2,0,L|180:195,1,35,2|2,0:0|3:2,0:0:0:0:
252,216,25162,2,0,L|239:284,1,70,2|2,3:3|3:0,0:0:0:0:
392,340,25840,6,0,L|404:271,1,70,2|2,3:0|0:0,0:0:0:0:
476,232,26349,1,2,3:2:0:0:
476,232,26519,2,0,L|488:163,1,70,2|2,3:3|3:0,0:0:0:0:
360,64,27196,6,0,P|326:57|294:71,1,70,0|2,3:0|0:0,0:0:0:0:
232,120,27705,1,2,3:2:0:0:
232,120,27874,2,0,P|200:133|166:127,1,70,2|2,3:3|3:0,0:0:0:0:
96,100,28383,1,2,3:0:0:0:
96,100,28552,6,0,L|83:168,2,70,2|2|2,3:0|0:0|3:3,0:0:0:0:
236,20,29569,2,0,L|283:28,1,35,2|0,3:0|3:0,0:0:0:0:
352,40,29908,6,0,P|365:71|359:105,1,70,2|0,3:0|0:0,0:0:0:0:
248,220,30586,2,0,L|179:207,1,70,2|2,3:3|3:0,0:0:0:0:
32,276,31264,6,0,L|100:288,1,70,0|2,3:0|0:0,0:0:0:0:
160,352,31772,1,0,3:2:0:0:
160,352,31942,2,0,L|228:339,1,70,2|0,3:3|3:0,0:0:0:0:
394,326,32620,5,2,1:2:0:0:
394,326,32789,2,0,P|399:284|410:241,1,70,0|2,0:0|1:2,0:0:0:0:
416,216,33298,1,2,3:0:0:0:
268,272,33637,5,2,3:0:0:0:
268,272,33806,2,0,P|263:230|252:187,1,70,2|0,3:2|0:0,0:0:0:0:
246,162,34315,1,2,1:2:0:0:
52,52,35332,6,0,L|61:107,1,35,0|2,1:2|0:0,0:0:0:0:
128,124,35671,2,0,L|118:179,1,35,2|2,0:0|1:2,0:0:0:0:
48,196,36010,2,0,L|61:270,1,70,2|2,3:3|3:0,0:0:0:0:
200,348,36688,6,0,L|255:338,1,35,2|2,0:0|0:0,0:0:0:0:
292,288,37027,2,0,L|366:301,1,70,2|2,1:2|3:3,0:0:0:0:
484,380,38044,6,0,L|494:307,1,70,0|2,1:2|0:0,0:0:0:0:
428,272,38552,1,2,1:2:0:0:
428,272,38722,2,0,L|418:199,1,70,2|2,3:3|3:0,0:0:0:0:
368,148,39230,1,2,3:0:0:0:
368,148,39400,6,0,L|312:157,1,35,2|2,0:0|0:0,0:0:0:0:
260,184,39739,2,0,P|244:148|260:96,1,70,2|2,1:2|3:3,0:0:0:0:
392,48,40416,1,2,3:0:0:0:
508,160,40755,5,0,1:2:0:0:
412,299,41094,1,2,0:0:0:0:
412,299,41264,1,2,1:2:0:0:
412,299,41433,6,0,P|415:339|420:371,1,70,2|2,3:3|3:0,0:0:0:0:
276,296,42111,2,0,L|236:302,1,35,2|2,0:0|0:0,0:0:0:0:
172,340,42450,2,0,P|137:335|102:333,1,70,2|2,1:2|3:3,0:0:0:0:
28,300,42959,1,0,0:0:0:0:
120,80,43467,5,0,1:2:0:0:
120,80,43637,1,2,0:0:0:0:
228,208,43976,1,2,1:2:0:0:
228,208,44145,2,0,P|262:203|297:201,1,70,2|2,3:3|3:0,0:0:0:0:
364,248,44654,1,2,3:0:0:0:
504,164,44993,1,2,0:0:0:0:
504,164,45162,2,0,P|499:129|497:94,1,70,2|2,1:2|3:3,0:0:0:0:
184,164,46179,5,0,1:2:0:0:
184,164,46349,2,0,B|188:198|188:198|192:202|192:202|195:233,1,70,2|2,0:0|1:2,0:0:0:0:
208,312,46857,2,0,P|244:320|280:304,1,70,2|0,3:3|3:0,0:0:0:0:
356,168,47535,6,0,L|396:174,1,35,2|2,0:0|0:0,0:0:0:0:
472,160,47874,2,0,L|461:238,1,70,2|2,1:2|3:3,0:0:0:0:
360,356,48552,1,2,3:0:0:0:
224,268,48891,6,0,L|184:274,1,35,0|2,1:2|0:0,0:0:0:0:
124,320,49230,2,0,L|84:314,1,35,2|2,0:0|1:2,0:0:0:0:
16,280,49569,2,0,P|15:245|32:215,1,70,2|2,3:3|3:0,0:0:0:0:
88,160,50077,1,2,3:0:0:0:
88,160,50247,2,0,L|166:171,1,70,2|2,0:0|1:2,0:0:0:0:
292,256,50925,6,0,L|370:245,1,70,2|2,3:3|3:0,0:0:0:0:
428,292,51433,1,0,3:0:0:0:
484,228,51603,2,0,B|479:186|479:186|465:171|465:171|459:129,2,105,0|2|2,1:2|1:2|3:0,0:0:0:0:
426,269,54315,6,0,P|425:219|437:169,1,90.9999958343508,6|2,1:2|0:0,0:0:0:0:
495,124,54823,1,0,1:2:0:0:
452,53,54993,2,0,P|410:34|341:67,1,90.9999958343508,10|2,0:2|0:0,0:0:0:0:
285,132,55671,6,0,L|330:136,1,45.4999979171754,2|0,0:0|0:0,0:0:0:0:
339,55,56010,2,0,L|293:50,1,45.4999979171754,2|2,1:2|0:0,0:0:0:0:
205,78,56349,1,10,0:2:0:0:
205,78,56518,1,0,0:0:0:0:
135,33,56688,2,0,P|97:33|53:64,1,90.9999958343508,2|2,0:0|1:2,0:0:0:0:
148,196,57366,5,2,0:0:0:0:
68,264,57535,1,0,1:2:0:0:
125,357,57705,2,0,L|225:347,1,90.9999958343508,10|2,0:2|0:0,0:0:0:0:
320,255,58383,6,0,L|327:302,1,45.4999979171754,2|0,0:0|0:0,0:0:0:0:
407,287,58722,2,0,L|400:241,1,45.4999979171754,2|2,1:2|0:0,0:0:0:0:
342,168,59061,1,10,0:2:0:0:
421,115,59230,5,0,0:0:0:0:
421,115,59315,1,0,0:0:0:0:
421,115,59400,2,0,P|413:85|411:64,1,45.4999979171754,2|0,0:0|0:0,0:0:0:0:
345,8,59739,2,0,P|296:1|253:35,1,90.9999958343508,2|2,1:2|0:0,0:0:0:0:
241,101,60247,1,2,1:2:0:0:
154,63,60416,2,0,P|160:113|164:160,1,90.9999958343508,10|2,0:2|0:0,0:0:0:0:
233,312,61094,6,0,L|184:306,1,45.4999979171754,2|0,0:0|0:0,0:0:0:0:
111,336,61433,2,0,L|62:342,1,45.4999979171754,2|0,1:2|0:0,0:0:0:0:
11,280,61772,1,10,0:2:0:0:
56,211,61942,1,2,0:0:0:0:
56,211,62111,1,2,0:0:0:0:
14,71,62450,6,0,P|59:62|98:34,2,90.9999958343508,2|2|10,1:2|0:0|0:2,0:0:0:0:
177,93,63467,1,2,0:0:0:0:
329,34,63806,6,0,B|373:25|373:25|406:57,1,90.9999958343508,2|2,0:0|1:2,0:0:0:0:
472,124,64315,1,2,0:0:0:0:
384,152,64484,6,0,L|390:204,1,45.4999979171754,10|0,0:2|0:0,0:0:0:0:
432,224,64739,1,0,0:0:0:0:
432,224,64823,6,0,L|426:269,1,45.4999979171754,2|0,0:0|0:0,0:0:0:0:
348,316,65162,2,0,P|298:310|251:306,1,90.9999958343508,2|2,1:2|0:0,0:0:0:0:
180,256,65671,1,0,1:2:0:0:
116,329,65840,2,0,P|69:330|33:299,1,90.9999958343508,10|2,0:2|0:0,0:0:0:0:
94,170,66518,6,0,L|89:215,1,45.4999979171754,2|0,0:0|0:0,0:0:0:0:
12,207,66857,2,0,L|16:161,1,45.4999979171754,2|2,1:2|0:0,0:0:0:0:
66,84,67196,1,10,0:2:0:0:
200,164,67535,2,0,P|229:154|242:141,1,45.4999979171754,2|0,0:0|0:0,0:0:0:0:
253,63,67874,6,0,P|302:61|346:81,1,90.9999958343508,2|2,1:2|0:0,0:0:0:0:
376,150,68383,1,0,1:2:0:0:
465,130,68552,2,0,P|460:177|457:221,1,90.9999958343508,10|2,0:2|0:0,0:0:0:0:
413,359,69230,6,0,L|365:355,1,45.4999979171754,2|0,0:0|0:0,0:0:0:0:
302,304,69569,2,0,L|254:308,1,45.4999979171754,2|2,1:2|0:0,0:0:0:0:
182,365,69908,1,10,0:2:0:0:
126,301,70077,1,0,0:0:0:0:
126,301,70162,1,0,0:0:0:0:
126,301,70247,2,0,L|131:244,1,45.4999979171754,2|0,0:0|0:0,0:0:0:0:
104,169,70586,6,0,P|140:143|189:145,1,90.9999958343508,2|2,1:2|0:0,0:0:0:0:
243,200,71094,1,2,1:2:0:0:
323,151,71264,2,0,P|314:104|311:59,1,90.9999958343508,10|2,0:2|0:0,0:0:0:0:
488,16,71942,2,0,L|484:61,1,45.4999979171754,2|0,0:0|0:0,0:0:0:0:
396,88,72281,2,0,L|399:133,1,45.4999979171754,2|0,1:2|0:0,0:0:0:0:
484,172,72620,1,10,0:2:0:0:
412,228,72790,1,2,0:0:0:0:
412,228,72959,2,0,L|416:274,1,45.4999979171754,2|0,0:0|0:0,0:0:0:0:
468,356,73298,6,0,P|419:355|369:363,1,90.9999958343508,2|2,1:2|0:0,0:0:0:0:
306,305,73806,1,2,1:2:0:0:
224,348,73976,6,0,P|217:303|203:259,1,90.9999958343508,10|2,0:2|0:0,0:0:0:0:
132,200,74484,6,0,L|43:220,1,90.9999958343508,2|2,0:0|0:0,0:0:0:0:
20,132,74993,2,0,L|65:122,1,45.4999979171754,2|2,1:2|0:0,0:0:0:0:
108,44,75332,1,10,0:2:0:0:
196,92,75501,1,0,0:0:0:0:
196,92,75586,1,0,0:0:0:0:
196,92,75671,2,0,L|241:82,1,45.4999979171754,2|0,0:0|0:0,0:0:0:0:
326,135,76010,6,0,B|370:144|370:144|403:112,1,90.9999958343508,6|2,1:2|0:0,0:0:0:0:
463,54,76518,1,0,1:2:0:0:
504,126,76688,2,0,P|493:178|487:218,1,90.9999958343508,10|2,0:2|0:0,0:0:0:0:
447,292,77196,1,2,0:0:0:0:
447,292,77366,6,0,L|491:301,1,45.4999979171754,2|2,0:0|0:0,0:0:0:0:
474,381,77705,2,0,L|429:371,1,45.4999979171754,0|2,1:2|0:0,0:0:0:0:
358,314,78044,5,10,0:2:0:0:
209,384,78383,1,2,0:0:0:0:
223,303,78552,1,0,0:0:0:0:
240,222,78722,6,0,P|288:211|336:201,1,90.9999958343508,2|2,1:2|0:0,0:0:0:0:
372,126,79230,1,0,1:2:0:0:
292,107,79400,2,0,P|247:116|203:126,1,90.9999958343508,10|2,0:2|0:0,0:0:0:0:
118,229,79908,6,0,L|128:184,1,45.4999979171754,2|2,0:0|0:0,0:0:0:0:
65,131,80247,2,0,L|54:86,1,45.4999979171754,2|0,0:0|1:2,0:0:0:0:
84,9,80586,2,0,P|62:2|39:3,2,45.4999979171754,2|10|0,0:0|0:2|0:0,0:0:0:0:
203,126,81264,1,0,0:0:0:0:
265,63,81433,6,0,P|309:72|353:82,1,90.9999958343508,2|2,1:2|0:0,0:0:0:0:
433,45,81942,1,0,1:2:0:0:
493,111,82111,2,0,P|502:155|512:199,1,90.9999958343508,10|2,0:2|0:0,0:0:0:0:
454,357,82789,6,0,L|380:340,1,45.4999979171754,2|0,0:0|0:0,0:0:0:0:
356,283,83128,2,0,L|282:300,1,45.4999979171754,2|0,1:2|0:0,0:0:0:0:
257,354,83467,1,10,0:2:0:0:
183,329,83637,1,2,0:0:0:0:
183,329,83806,1,2,0:0:0:0:
238,170,84145,6,0,P|278:191|323:194,2,90.9999958343508,2|2|10,1:2|0:0|0:2,0:0:0:0:
366,66,85162,1,2,0:0:0:0:
366,66,85332,2,0,B|390:93|390:93|496:108,1,136.499993751526,2|2,0:0|1:2,0:0:0:0:
512,189,86010,2,0,L|450:181,1,45.4999979171754,2|10,0:0|0:2,0:0:0:0:
387,202,86349,2,0,L|325:194,1,45.4999979171754,0|2,0:0|0:0,0:0:0:0:
268,237,86688,1,0,0:0:0:0:
268,237,86857,6,0,P|223:233|190:200,1,90.9999958343508,2|2,1:2|0:0,0:0:0:0:
153,128,87366,1,0,1:2:0:0:
71,134,87535,1,10,0:2:0:0:
174,8,87874,1,2,0:0:0:0:
174,8,87959,1,0,0:0:0:0:
174,8,88044,6,0,L|228:18,1,45.4999979171754,2|2,0:0|0:0,0:0:0:0:
268,90,88383,2,0,P|312:86|345:53,1,90.9999958343508,2|2,0:0|0:0,0:0:0:0:
422,0,88891,2,0,P|430:45|440:90,1,90.9999958343508,10|2,0:2|0:0,0:0:0:0:
505,149,89400,1,0,0:0:0:0:
439,214,89569,6,0,P|394:204|349:196,1,90.9999958343508,2|2,1:2|0:0,0:0:0:0:
298,130,90077,1,0,1:2:0:0:
224,163,90247,1,10,0:2:0:0:
320,295,90586,1,0,0:0:0:0:
240,288,90755,6,0,L|227:226,1,45.4999979171754,2|2,0:0|0:0,0:0:0:0:
150,259,91094,2,0,L|159:303,1,45.4999979171754,2|0,0:0|1:2,0:0:0:0:
110,369,91433,1,2,0:0:0:0:
30,349,91603,1,10,0:2:0:0:
30,349,91772,1,2,0:0:0:0:
40,187,92111,1,0,0:0:0:0:
40,187,92281,6,0,P|84:177|129:169,1,90.9999958343508,2|2,1:2|0:0,0:0:0:0:
184,108,92789,1,0,1:2:0:0:
171,26,92959,2,0,P|215:26|250:54,1,90.9999958343508,10|2,0:2|0:0,0:0:0:0:
300,218,93637,5,2,0:0:0:0:
221,237,93806,1,0,0:0:0:0:
300,218,93976,1,2,1:2:0:0:
362,68,94315,1,10,0:2:0:0:
441,87,94485,1,2,0:0:0:0:
441,87,94654,2,0,L|486:95,1,45.4999979171754,2|0,0:0|0:0,0:0:0:0:
502,225,94993,6,0,P|465:201|412:209,1,90.9999958343508,0|0,1:2|0:0,0:0:0:0:
366,274,95501,1,2,1:2:0:0:
300,218,95671,1,10,0:2:0:0:
264,361,96010,1,2,0:0:0:0:
127,313,96349,6,0,P|131:286|151:265,1,45.4999979171754,2|0,0:0|0:0,0:0:0:0:
111,189,96688,2,0,P|128:168|155:159,1,45.4999979171754,2|0,1:2|0:0,0:0:0:0:
160,75,97027,2,0,P|185:65|213:72,1,45.4999979171754,10|2,0:2|0:0,0:0:0:0:
258,1,97366,2,0,P|284:5|305:25,1,45.4999979171754,2|2,0:0|0:0,0:0:0:0:
385,1,97705,6,0,L|376:99,1,70,6|2,1:2|0:0,0:0:0:0:
327,128,98213,1,0,1:2:0:0:
357,199,98383,2,0,L|411:196,1,35,10|0,0:2|0:0,0:0:0:0:
383,273,98722,2,0,L|348:274,1,35,2|0,0:0|0:0,0:0:0:0:
280,237,99061,5,2,0:0:0:0:
225,370,99400,1,2,1:2:0:0:
225,370,99569,1,2,0:0:0:0:
225,370,99739,2,0,P|195:328|153:328,1,70,10|2,0:2|0:0,0:0:0:0:
85,369,100416,6,0,L|80:272,1,70,2|2,1:2|0:0,0:0:0:0:
130,239,100925,1,0,1:2:0:0:
84,177,101094,2,0,L|48:174,1,35,10|0,0:2|0:0,0:0:0:0:
45,96,101433,2,0,L|79:98,1,35,2|0,0:0|0:0,0:0:0:0:
143,54,101772,1,2,0:0:0:0:
245,149,102111,1,2,1:2:0:0:
245,149,102281,1,2,0:0:0:0:
245,149,102450,2,0,L|254:65,1,70,10|2,0:2|0:0,0:0:0:0:
370,3,103128,6,0,P|406:12|435:51,1,70,2|2,1:2|0:0,0:0:0:0:
416,111,103637,1,0,1:2:0:0:
469,165,103806,2,0,L|475:211,1,35,10|0,0:2|0:0,0:0:0:0:
400,224,104145,2,0,L|395:189,1,35,2|0,0:0|0:0,0:0:0:0:
328,132,104484,6,0,P|282:126|271:130,1,35,2|0,0:0|0:0,0:0:0:0:
226,88,104823,2,0,P|197:124|195:136,1,35,2|0,1:2|0:0,0:0:0:0:
184,188,105162,1,10,0:2:0:0:
184,188,105332,1,2,0:0:0:0:
241,238,105501,1,2,0:0:0:0:
126,370,105840,6,0,P|76:366|46:337,1,70,2|0,1:2|0:0,0:0:0:0:
28,284,106349,1,2,1:2:0:0:
98,253,106518,2,0,L|146:257,1,35,10|0,0:2|0:0,0:0:0:0:
185,312,106857,2,0,L|233:316,1,35,2|0,0:0|0:0,0:0:0:0:
275,261,107196,5,2,0:0:0:0:
373,379,107535,1,2,1:2:0:0:
373,379,107705,1,0,0:0:0:0:
373,379,107874,2,0,L|377:327,1,35,10|2,0:2|0:0,0:0:0:0:
424,284,108213,1,2,0:0:0:0:
374,224,108383,1,2,0:0:0:0:
426,154,108552,5,6,0:2:0:0:
