osu file format v14

[General]
AudioFilename: audio.mp3
AudioLeadIn: 0
PreviewTime: 52959
Countdown: 0
SampleSet: Soft
StackLeniency: 0.7
Mode: 0
LetterboxInBreaks: 0
WidescreenStoryboard: 1

[Editor]
Bookmarks: 10925,21772,32620,43467,54315,65162,76010,86857,97705,108552
DistanceSpacing: 0.9
BeatDivisor: 8
GridSize: 32
TimelineZoom: 1.899999

[Metadata]
Title:Holiday (Cut Ver.)
TitleUnicode:Holiday (Cut Ver.)
Artist:KSI
ArtistUnicode:KSI
Creator:Sayuka
Version:Amats & Sayuka's Light Insane
Source:
Tags:jj olatunji single british english male vocals vocalist pop fatneek all over the place brit award julie tritobandito dcs dabbe dabbe_01 rison amats euryalle
BeatmapID:4023577
BeatmapSetID:1936050

[Difficulty]
HPDrainRate:4
CircleSize:3.6
OverallDifficulty:7
ApproachRate:8
SliderMultiplier:1.6
SliderTickRate:1

[Events]
//Background and Video events
0,0,"holiday.jpg",0,0
//Break Periods
//Storyboard Layer 0 (Background)
//Storyboard Layer 1 (Fail)
//Storyboard Layer 2 (Pass)
//Storyboard Layer 3 (Foreground)
//Storyboard Layer 4 (Overlay)
//Storyboard Sound Samples

[TimingPoints]
78,677.966101694915,4,2,2,50,1,0
10925,-62.5,4,2,2,60,0,0
54315,-50,4,2,2,70,0,1
97705,-55.5555555555556,4,2,2,70,0,0
108552,-62.5,4,2,2,50,0,0
114484,-71.4285714285714,4,2,2,50,0,0

[Colours]
Combo1 : 103,111,88
Combo2 : 171,174,155

[HitObjects]
96,48,10925,6,0,P|72:100|92:180,1,128,0|2,3:0|0:0,0:0:0:0:
152,236,11433,1,2,3:2:0:0:
212,160,11603,2,0,L|278:171,1,64,2|2,3:3|0:0,0:0:0:0:
344,228,11942,2,0,L|410:216,1,64,2|2,3:0|3:0,0:0:0:0:
512,176,12281,6,0,B|503:223|503:223|488:240|488:240|477:299,1,128,2|2,3:0|0:0,0:0:0:0:
400,364,12789,1,2,3:2:0:0:
324,312,12959,2,0,L|257:323,1,64,2|2,3:3|0:0,0:0:0:0:
176,360,13298,2,0,L|164:293,1,64,2|2,3:0|3:0,0:0:0:0:
104,192,13637,6,0,P|156:216|236:196,1,128,2|2,3:0|0:0,0:0:0:0:
292,132,14145,1,2,3:2:0:0:
368,188,14315,2,0,L|379:121,1,64,2|0,3:3|0:0,0:0:0:0:
280,48,14654,2,0,L|291:114,1,64,2|0,3:0|3:0,0:0:0:0:
223,203,14993,6,0,L|200:76,1,128,2|2,3:0|0:0,0:0:0:0:
112,56,15501,1,2,3:2:0:0:
112,56,15671,2,0,L|134:182,1,128,2|2,3:3|3:0,0:0:0:0:
52,312,16349,6,0,P|104:288|184:308,1,128,0|2,3:0|0:0,0:0:0:0:
256,360,16857,1,2,3:2:0:0:
344,316,17027,2,0,L|333:250,1,64,2|2,3:3|0:0,0:0:0:0:
248,216,17366,2,0,L|258:152,1,64,2|2,3:0|3:0,0:0:0:0:
308,60,17705,6,0,B|381:92|381:92|427:72,1,128,2|2,3:0|0:0,0:0:0:0:
488,12,18213,1,2,3:2:0:0:
512,100,18383,2,0,L|501:163,1,64,2|2,3:3|0:0,0:0:0:0:
440,256,18722,2,0,L|429:192,1,64,2|2,3:0|3:0,0:0:0:0:
332,152,19061,6,0,B|263:145|288:204|203:195,1,128,2|2,3:0|0:0,0:0:0:0:
136,136,19569,1,2,3:2:0:0:
52,176,19739,2,0,L|62:239,1,64,2|0,3:3|0:0,0:0:0:0:
144,268,20077,2,0,L|133:331,1,64,2|0,3:0|3:0,0:0:0:0:
216,376,20416,6,0,P|265:346|346:358,1,128,2|2,3:0|0:0,0:0:0:0:
428,376,20925,1,2,3:2:0:0:
428,376,21094,2,0,P|458:320|452:258,1,128,2|2,3:3|3:0,0:0:0:0:
312,176,21772,5,2,3:0:0:0:
312,176,21942,2,0,L|182:198,1,128,0|2,0:0|3:2,0:0:0:0:
108,240,22450,2,0,L|97:176,1,64,2|0,3:3|0:0,0:0:0:0:
16,148,22789,2,0,L|26:84,1,64,2|2,3:0|3:0,0:0:0:0:
124,36,23128,6,0,P|176:64|256:40,1,128,2|2,3:0|0:0,0:0:0:0:
344,16,23637,1,2,3:2:0:0:
344,16,23806,2,0,L|333:80,1,64,2|0,3:3|0:0,0:0:0:0:
268,136,24145,1,2,3:0:0:0:
380,248,24484,5,0,3:0:0:0:
380,248,24654,2,0,L|444:237,2,64,2|2|2,0:0|0:0|3:2,0:0:0:0:
304,292,25162,2,0,B|252:282|252:282|231:287|231:287|176:277,1,128,2|2,3:3|3:0,0:0:0:0:
128,212,25671,1,0,3:0:0:0:
40,244,25840,6,0,L|29:180,1,64,2|0,3:0|0:0,0:0:0:0:
16,88,26179,2,0,L|80:99,1,64,2|2,0:0|3:2,0:0:0:0:
196,160,26518,2,0,P|224:108|200:28,1,128,2|2,3:3|3:0,0:0:0:0:
128,212,27196,5,0,3:0:0:0:
192,276,27366,1,2,0:0:0:0:
192,276,27535,2,0,L|256:265,1,64,2|2,0:0|3:2,0:0:0:0:
316,216,27874,2,0,L|380:227,1,64,2|2,3:3|0:0,0:0:0:0:
456,264,28213,2,0,L|467:200,1,64,2|2,3:0|3:0,0:0:0:0:
392,88,28552,6,0,P|444:116|524:92,2,128,2|2|2,3:0|0:0|3:3,0:0:0:0:
328,24,29400,1,0,0:0:0:0:
268,88,29569,2,0,L|279:152,1,64,2|0,3:0|3:0,0:0:0:0:
348,200,29908,6,0,L|326:330,1,128,2|0,3:0|0:0,0:0:0:0:
256,376,30416,1,2,3:2:0:0:
192,312,30586,2,0,L|128:323,1,64,2|0,3:3|0:0,0:0:0:0:
56,360,30925,2,0,L|45:296,1,64,2|0,3:0|3:0,0:0:0:0:
8,200,31264,6,0,P|69:213|125:184,1,128,0|2,3:0|0:0,0:0:0:0:
176,112,31772,1,0,3:2:0:0:
276,144,31942,2,0,L|254:274,1,128,2|0,3:3|3:0,0:0:0:0:
437,356,32620,5,2,1:2:0:0:
456,264,32789,2,0,L|467:200,1,64
390,89,33128,5,2,1:2:0:0:
371,181,33297,2,0,L|360:245,1,64,2|0,3:0|0:0,0:0:0:0:
265,346,33637,6,0,P|222:341|193:315,1,64,2|2,3:0|3:2,0:0:0:0:
141,197,33976,2,0,L|126:275,1,64,0|0,3:2|0:0,0:0:0:0:
52,343,34315,5,2,1:2:0:0:
22,48,35332,6,0,B|66:28|66:28|139:60,1,128,0|2,1:2|0:0,0:0:0:0:
206,156,35840,1,2,1:2:0:0:
206,156,36010,2,0,L|219:83,1,64,2|0,3:3|0:0,0:0:0:0:
321,17,36349,2,0,L|308:90,1,64,2|2,3:0|3:0,0:0:0:0:
369,169,36688,1,2,0:0:0:0:
369,169,36857,1,2,0:0:0:0:
447,96,37027,5,2,1:2:0:0:
447,96,38044,5,0,1:2:0:0:
447,96,38214,2,0,P|467:63|467:36,2,64,2|2|2,0:0|0:0|1:2,0:0:0:0:
494,183,38722,2,0,B|442:173|442:173|421:177|421:177|366:167,1,128,2|2,3:3|3:0,0:0:0:0:
298,222,39231,1,2,3:0:0:0:
317,314,39400,1,2,0:0:0:0:
317,314,39569,1,2,0:0:0:0:
386,252,39739,5,2,1:2:0:0:
403,366,40755,5,0,1:2:0:0:
403,366,40925,2,0,L|414:295,1,64,2|2,0:0|0:0,0:0:0:0:
298,222,41264,1,2,1:2:0:0:
298,222,41433,2,0,L|287:293,1,64,2|0,3:3|0:0,0:0:0:0:
162,333,41772,2,0,L|171:269,1,64,2|2,3:0|3:0,0:0:0:0:
124,183,42111,1,2,0:0:0:0:
124,183,42281,1,2,0:0:0:0:
32,226,42450,5,2,1:2:0:0:
468,130,43467,5,0,1:2:0:0:
468,130,43637,2,0,P|480:88|474:56,1,64,2|0,0:0|0:0,0:0:0:0:
362,47,43976,1,2,1:2:0:0:
362,47,44146,2,0,P|350:89|356:121,1,64,2|0,3:3|0:0,0:0:0:0:
295,191,44484,2,0,L|215:181,1,64,2|2,3:0|3:0,0:0:0:0:
172,121,44823,1,2,0:0:0:0:
172,121,44993,1,2,0:0:0:0:
254,44,45162,5,2,1:2:0:0:
490,336,46179,6,0,B|445:355|445:355|372:323,1,128,0|2,1:2|0:0,0:0:0:0:
306,228,46687,1,2,1:2:0:0:
306,228,46857,2,0,L|280:361,1,128,2|0,3:3|3:0,0:0:0:0:
140,332,47535,1,2,0:0:0:0:
140,332,47704,1,2,0:0:0:0:
212,277,47874,5,2,1:2:0:0:
212,277,48891,5,0,1:2:0:0:
212,277,49061,2,0,L|217:197,1,64,2|2,0:0|0:0,0:0:0:0:
147,155,49400,5,2,1:2:0:0:
147,155,49570,2,0,L|141:75,1,64,2|0,3:3|0:0,0:0:0:0:
199,27,49908,2,0,P|240:14|271:26,1,64,2|2,3:0|3:0,0:0:0:0:
360,160,50247,6,0,P|428:175|491:133,1,128,2|2,0:0|1:2,0:0:0:0:
468,51,50925,2,0,P|400:36|337:78,1,128,2|2,3:3|3:0,0:0:0:0:
254,195,51603,5,0,1:2:0:0:
254,195,51772,2,0,L|262:266,2,64,2|2|2,0:0|0:0|1:2,0:0:0:0:
241,106,52281,1,2,3:3:0:0:
99,106,54315,6,0,B|150:123|186:141|186:141|219:124|240:105,1,160,6|2,1:2|0:0,0:0:0:0:
320,16,54823,1,0,1:2:0:0:
416,92,54993,2,0,L|401:174,1,80,10|0,0:2|0:0,0:0:0:0:
328,304,55332,2,0,L|313:222,1,80,2|0,0:0|0:0,0:0:0:0:
212,180,55671,6,0,P|146:222|70:203,1,160,2|2,0:0|1:2,0:0:0:0:
0,120,56179,1,2,0:0:0:0:
148,56,56349,2,0,L|133:138,1,80,10|0,0:2|0:0,0:0:0:0:
85,282,56688,2,0,L|70:200,1,80,2|0,0:0|0:0,0:0:0:0:
212,180,57027,6,0,B|275:191|275:191|303:212|303:212|378:225,1,160,2|2,1:2|0:0,0:0:0:0:
496,156,57535,1,0,1:2:0:0:
392,64,57705,2,0,L|407:146,1,80,10|0,0:2|0:0,0:0:0:0:
480,244,58044,2,0,L|465:326,1,80,2|0,0:0|0:0,0:0:0:0:
344,368,58383,6,0,L|329:286,1,80,2|0,0:0|0:0,0:0:0:0:
248,168,58722,1,2,1:2:0:0:
224,280,58891,1,2,0:0:0:0:
116,216,59061,2,0,P|84:228|20:216,1,80,10|0,0:2|0:0,0:0:0:0:
164,124,59400,1,2,0:0:0:0:
204,252,59569,1,2,0:0:0:0:
344,160,59739,6,0,B|395:177|431:195|431:195|464:178|485:159,1,160,2|2,1:2|0:0,0:0:0:0:
424,40,60247,1,2,1:2:0:0:
276,80,60416,2,0,P|248:128|276:256,1,160,10|0,0:2|0:0,0:0:0:0:
412,292,61094,6,0,P|380:280|316:292,1,80,2|0,0:0|0:0,0:0:0:0:
256,336,61433,2,0,P|216:340|178:327,1,80,2|0,1:2|0:0,0:0:0:0:
22,244,61772,1,10,0:2:0:0:
153,201,61942,1,2,0:0:0:0:
104,368,62111,2,0,L|89:286,1,80,2|0,0:0|0:0,0:0:0:0:
0,108,62450,6,0,B|88:140|88:140|172:112,1,160,2|2,1:2|0:0,0:0:0:0:
224,24,62959,1,0,1:2:0:0:
332,92,63128,2,0,L|317:170,1,80,10|0,0:2|0:0,0:0:0:0:
240,252,63467,2,0,L|225:173,1,80,2|0,0:0|0:0,0:0:0:0:
76,100,63806,6,0,L|98:226,1,120,2|0,0:0|0:0,0:0:0:0:
132,240,64145,2,0,L|117:319,1,80,2|2,1:2|0:0,0:0:0:0:
225,330,64484,2,0,L|240:251,1,80,10|0,0:2|0:0,0:0:0:0:
320,144,64823,1,2,0:0:0:0:
348,264,64993,1,0,0:0:0:0:
480,208,65162,6,0,B|469:145|469:145|448:117|448:117|435:42,1,160,2|2,1:2|0:0,0:0:0:0:
344,12,65671,1,0,1:2:0:0:
320,144,65840,2,0,P|282:156|242:152,1,80,10|0,0:2|0:0,0:0:0:0:
176,80,66179,2,0,P|138:68|98:72,1,80,2|0,0:0|0:0,0:0:0:0:
0,192,66518,6,0,B|21:306|21:306|55:247,1,160,2|2,0:0|1:2,0:0:0:0:
124,192,67027,1,2,0:0:0:0:
208,288,67196,2,0,L|193:367,1,80,10|0,0:2|0:0,0:0:0:0:
308,268,67535,2,0,L|293:189,1,80,2|0,0:0|0:0,0:0:0:0:
160,64,67874,6,0,P|208:92|336:64,1,160,2|2,1:2|0:0,0:0:0:0:
400,12,68383,1,0,1:2:0:0:
484,116,68552,2,0,L|469:195,1,80,10|0,0:2|0:0,0:0:0:0:
404,296,68891,2,0,L|389:217,1,80,2|0,0:0|0:0,0:0:0:0:
260,176,69230,6,0,B|199:186|199:186|171:207|171:207|108:218,1,160,2|2,0:0|1:2,0:0:0:0:
244,280,69739,1,2,0:0:0:0:
389,216,69908,2,0,P|392:177|380:139,1,80,10|0,0:2|0:0,0:0:0:0:
284,52,70247,1,2,0:0:0:0:
260,176,70416,1,0,0:0:0:0:
100,88,70586,6,0,L|130:261,1,160,2|2,1:2|0:0,0:0:0:0:
184,356,71094,1,2,1:2:0:0:
308,280,71264,2,0,B|359:297|395:315|395:315|428:298|449:279,1,160,10|2,0:2|0:0,0:0:0:0:
412,148,71942,6,0,L|333:163,1,80,2|0,0:0|0:0,0:0:0:0:
172,224,72281,1,2,1:2:0:0:
308,280,72450,1,0,0:0:0:0:
148,212,72620,2,0,L|163:133,1,80,10|2,0:2|0:0,0:0:0:0:
236,16,72959,2,0,L|251:95,1,80,2|0,0:0|0:0,0:0:0:0:
420,208,73298,6,0,P|372:180|244:208,1,160,2|2,1:2|0:0,0:0:0:0:
176,300,73806,1,2,1:2:0:0:
60,208,73976,2,0,L|75:129,1,80,10|0,0:2|0:0,0:0:0:0:
132,8,74315,1,2,0:0:0:0:
250,94,74484,6,0,P|287:105|327:102,1,80,2|2,0:0|0:0,0:0:0:0:
460,44,74823,1,2,0:0:0:0:
329,0,74993,1,2,1:2:0:0:
488,56,75162,2,0,L|473:135,1,80,2|10,0:0|0:2,0:0:0:0:
403,255,75501,2,0,L|388:176,1,80,0|2,0:0|0:0,0:0:0:0:
327,101,75840,1,0,0:0:0:0:
200,224,76010,6,0,B|149:241|113:259|113:259|80:242|59:223,1,160,6|2,1:2|0:0,0:0:0:0:
112,92,76518,1,0,1:2:0:0:
240,148,76688,2,0,L|319:133,1,80,10|0,0:2|0:0,0:0:0:0:
396,32,77027,1,2,0:0:0:0:
480,144,77196,6,0,P|492:181|489:221,1,80,2|2,0:0|0:0,0:0:0:0:
392,356,77535,1,2,0:0:0:0:
356,224,77705,1,0,1:2:0:0:
480,304,77874,1,2,0:0:0:0:
286,348,78044,2,0,L|207:333,1,80,10|0,0:2|0:0,0:0:0:0:
72,260,78383,1,2,0:0:0:0:
208,224,78552,1,0,0:0:0:0:
48,268,78722,6,0,B|41:233|38:207|38:207|17:179|17:179|10:143|6:116,1,160,2|2,1:2|0:0,0:0:0:0:
96,20,79230,1,0,1:2:0:0:
180,128,79400,2,0,P|217:140|257:137,1,80,10|0,0:2|0:0,0:0:0:0:
328,28,79739,1,2,0:0:0:0:
424,124,79908,6,0,L|409:203,1,80,2|2,0:0|0:0,0:0:0:0:
332,312,80247,1,2,0:0:0:0:
244,224,80416,2,0,L|165:239,1,80,0|2,1:2|0:0,0:0:0:0:
64,304,80755,2,0,L|49:225,1,80,10|0,0:2|0:0,0:0:0:0:
128,112,81094,1,2,0:0:0:0:
165,238,81264,1,0,0:0:0:0:
304,156,81433,6,0,B|355:173|391:191|391:191|424:174|445:155,1,160,2|2,1:2|0:0,0:0:0:0:
380,40,81942,1,0,1:2:0:0:
232,92,82111,2,0,L|153:77,1,80,10|0,0:2|0:0,0:0:0:0:
276,12,82450,1,2,0:0:0:0:
304,156,82620,1,0,0:0:0:0:
472,120,82789,6,0,L|457:199,1,80,2|0,0:0|0:0,0:0:0:0:
384,328,83128,2,0,L|369:249,1,80,2|0,1:2|0:0,0:0:0:0:
224,208,83467,2,0,L|145:223,1,80,10|2,0:2|0:0,0:0:0:0:
32,284,83806,1,2,0:0:0:0:
152,328,83976,1,0,0:0:0:0:
8,276,84145,6,0,L|38:103,1,160,2|2,1:2|0:0,0:0:0:0:
96,12,84654,1,0,1:2:0:0:
176,116,84823,2,0,P|215:119|253:107,1,80,10|0,0:2|0:0,0:0:0:0:
328,16,85162,1,2,0:0:0:0:
408,136,85332,6,0,L|393:215,1,80,2|2,0:0|0:0,0:0:0:0:
301,314,85671,1,2,0:0:0:0:
200,224,85840,2,0,L|121:239,1,80,2|2,1:2|0:0,0:0:0:0:
136,360,86179,2,0,L|215:345,1,80,10|0,0:2|0:0,0:0:0:0:
312,228,86518,1,2,0:0:0:0:
376,364,86688,1,0,0:0:0:0:
504,268,86857,6,0,B|536:220|536:220|500:100,1,160,2|2,1:2|0:0,0:0:0:0:
404,53,87366,1,0,1:2:0:0:
286,206,87535,6,0,B|203:214|233:143|131:154,1,160,10|2,0:2|0:0,0:0:0:0:
257,42,88044,2,0,P|269:79|285:131,1,80,2|2,0:0|0:0,0:0:0:0:
379,242,88383,1,2,0:0:0:0:
365,150,88552,1,2,1:2:0:0:
300,298,88722,1,2,0:0:0:0:
467,376,88891,6,0,B|486:354|503:321|503:321|485:285|468:234,1,160,10|2,0:2|0:0,0:0:0:0:
502,150,89400,1,0,0:0:0:0:
412,30,89569,6,0,B|315:5|344:74|221:38,1,160,2|2,1:2|0:0,0:0:0:0:
178,2,90077,1,0,1:2:0:0:
70,87,90247,2,0,L|99:259,1,160,10|0,0:2|0:0,0:0:0:0:
48,384,90755,6,0,P|29:344|44:289,1,80,2|2,0:0|0:0,0:0:0:0:
178,282,91094,2,0,P|152:317|98:332,1,80,2|0,0:0|1:2,0:0:0:0:
6,230,91433,1,2,0:0:0:0:
187,92,91603,6,0,B|212:97|232:99|232:99|245:137|275:230,1,160,10|2,0:2|0:0,0:0:0:0:
261,287,92111,1,0,0:0:0:0:
442,376,92281,6,0,P|478:288|410:241,1,160,2|2,1:2|0:0,0:0:0:0:
389,175,92789,1,0,1:2:0:0:
261,287,92959,2,0,L|180:305,1,80,10|0,0:2|0:0,0:0:0:0:
310,157,93298,2,0,L|391:175,1,80,2|0,0:0|0:0,0:0:0:0:
139,17,93637,6,0,P|103:61|110:104,1,80,2|0,0:0|0:0,0:0:0:0:
218,161,93976,2,0,P|194:97|168:81,1,80,2|0,1:2|0:0,0:0:0:0:
19,56,94315,1,10,0:2:0:0:
139,157,94484,1,2,0:0:0:0:
227,12,94654,5,2,0:0:0:0:
46,141,94993,6,0,L|13:317,1,160,0|2,1:2|0:0,0:0:0:0:
48,384,95501,1,0,1:2:0:0:
182,304,95671,2,0,L|261:287,1,80,8|0,0:2|0:0,0:0:0:0:
330,353,96010,2,0,L|408:370,1,80,2|0,0:0|0:0,0:0:0:0:
411,139,96349,5,2,0:0:0:0:
348,262,96518,1,0,0:0:0:0:
453,300,96688,1,2,1:2:0:0:
329,173,96857,1,0,0:0:0:0:
479,92,97027,6,0,P|492:157|475:193,1,80,10|2,0:2|0:0,0:0:0:0:
467,210,97281,1,0,0:0:0:0:
467,210,97366,2,0,P|413:220|379:224,1,80,2|2,0:0|0:0,0:0:0:0:
173,22,97705,6,0,B|155:46|138:62|138:62|148:97|165:165,1,143.999995605469,6|2,1:2|0:0,0:0:0:0:
198,228,98213,1,0,1:2:0:0:
307,156,98383,2,0,L|292:238,1,71.9999978027344,10|0,0:2|0:0,0:0:0:0:
220,360,98722,1,2,0:0:0:0:
198,228,98891,1,0,0:0:0:0:
312,324,99061,6,0,P|351:328|389:315,1,71.9999978027344,2|0,0:0|0:0,0:0:0:0:
509,252,99400,2,0,P|471:239|432:244,1,71.9999978027344,2|2,1:2|0:0,0:0:0:0:
308,340,99739,2,0,P|347:344|385:331,1,71.9999978027344,10|0,0:2|0:0,0:0:0:0:
292,234,100077,1,2,0:0:0:0:
220,332,100247,1,0,0:0:0:0:
120,252,100416,6,0,B|131:189|131:189|152:161|152:161|165:86,1,143.999995605469,2|2,1:2|0:0,0:0:0:0:
232,4,100925,1,0,1:2:0:0:
280,108,101094,2,0,P|319:112|357:99,1,71.9999978027344,10|0,0:2|0:0,0:0:0:0:
468,40,101433,1,2,0:0:0:0:
356,8,101603,1,0,0:0:0:0:
492,44,101772,6,0,L|477:126,1,71.9999978027344,2|0,0:0|0:0,0:0:0:0:
418,250,102111,2,0,L|404:172,1,71.9999978027344,2|2,1:2|0:0,0:0:0:0:
280,108,102450,2,0,L|294:186,1,71.9999978027344,10|0,0:2|0:0,0:0:0:0:
232,300,102789,1,2,0:0:0:0:
188,200,102959,1,0,0:0:0:0:
64,264,103128,6,0,B|27:209|27:209|45:173|62:122,1,143.999995605469,2|2,1:2|0:0,0:0:0:0:
128,16,103637,1,0,1:2:0:0:
209,103,103806,2,0,P|243:112|279:107,1,71.9999978027344,10|0,0:2|0:0,0:0:0:0:
396,52,104145,1,2,0:0:0:0:
288,20,104315,1,0,0:0:0:0:
420,60,104484,6,0,L|405:138,1,71.9999978027344,2|0,0:0|0:0,0:0:0:0:
344,256,104823,2,0,L|329:177,1,71.9999978027344,2|0,1:2|0:0,0:0:0:0:
209,103,105162,2,0,L|223:181,1,71.9999978027344,10|2,0:2|0:0,0:0:0:0:
176,280,105501,1,2,0:0:0:0:
100,192,105671,1,0,0:0:0:0:
192,298,105840,6,0,B|255:287|255:287|283:266|283:266|358:253,1,143.999995605469,2|0,1:2|0:0,0:0:0:0:
440,336,106349,1,2,1:2:0:0:
504,236,106518,2,0,P|508:196|495:158,1,71.9999978027344,10|0,0:2|0:0,0:0:0:0:
420,68,106857,1,2,0:0:0:0:
392,180,107027,1,0,0:0:0:0:
296,104,107196,6,0,L|310:25,1,71.9999978027344,2|0,0:0|0:0,0:0:0:0:
180,88,107535,2,0,L|194:166,1,71.9999978027344,2|0,1:2|0:0,0:0:0:0:
264,264,107874,2,0,L|278:185,1,71.9999978027344,10|2,0:2|0:0,0:0:0:0:
152,296,108213,1,2,0:0:0:0:
268,364,108383,1,2,0:0:0:0:
192,158,108552,5,6,0:2:0:0:
