osu file format v14

[General]
AudioFilename: audio.mp3
AudioLeadIn: 0
PreviewTime: 63152
Countdown: 0
SampleSet: Normal
StackLeniency: 0.3
Mode: 1
LetterboxInBreaks: 0
WidescreenStoryboard: 1

[Editor]
DistanceSpacing: 0.7
BeatDivisor: 4
GridSize: 32
TimelineZoom: 3.699999

[Metadata]
Title:Strange Lands (Original Mix)
TitleUnicode:Strange Lands (Original Mix)
Artist:KSHMR
ArtistUnicode:KSHMR
Creator:Upgradefort
Version:Inner Oni
Source:
Tags:
BeatmapID:1869208
BeatmapSetID:894509

[Difficulty]
HPDrainRate:7
CircleSize:5
OverallDifficulty:7
ApproachRate:8
SliderMultiplier:1.4
SliderTickRate:1

[Events]
//Background and Video events
0,0,"thumb-1920-175458.jpg",0,0
//Break Periods
//Storyboard Layer 0 (Background)
//Storyboard Layer 1 (Fail)
//Storyboard Layer 2 (Pass)
//Storyboard Layer 3 (Foreground)
//Storyboard Sound Samples

[TimingPoints]
0,394.736842105263,4,1,0,100,1,0
12826,-90.9090909090909,4,1,0,100,0,0
37887,-111.111111111111,4,1,0,100,0,0
44203,-99.9999999999999,4,1,0,100,0,0
45782,-95.2380952380954,4,1,0,100,0,0
47361,-90.9090909090909,4,1,0,100,0,0
48150,-83.3333333333333,4,1,0,100,0,0
49335,-90.9090909090909,4,1,0,100,0,0
49734,-99.9999999999999,4,1,0,100,0,0
50129,-111.111111111111,4,1,0,100,0,0
50326,-125,4,1,0,100,0,0
50524,-90.9090909090909,4,1,0,100,0,0
50721,-90.0900900900901,4,1,0,100,0,0
50919,-89.2857142857143,4,1,0,100,0,0
51116,-88.4955752212389,4,1,0,100,0,0
51313,-87.719298245614,4,1,0,100,0,0
51511,-86.9565217391304,4,1,0,100,0,0
51708,-86.2068965517241,4,1,0,100,0,0
51905,-85.4700854700855,4,1,0,100,0,0
52103,-84.7457627118644,4,1,0,100,0,0
53090,-87.719298245614,4,1,0,100,0,0
53287,-84.7457627118644,4,1,0,100,0,0
55063,-87.719298245614,4,1,0,100,0,0
55261,-84.7457627118644,4,1,0,100,0,0
56247,-90.9090909090909,4,1,0,100,0,0
56346,-89.2857142857143,4,1,0,100,0,0
56445,-87.719298245614,4,1,0,100,0,0
56544,-86.2068965517241,4,1,0,100,0,0
56642,-84.7457627118644,4,1,0,100,0,0
56840,-83.3333333333333,4,1,0,100,0,0
57234,-84.7457627118644,4,1,0,100,0,0
57629,-86.2068965517241,4,1,0,100,0,0
58024,-87.719298245614,4,1,0,100,0,0
58419,-86.2068965517241,4,1,0,100,0,0
58813,-84.7457627118644,4,1,0,100,0,0
61182,-83.3333333333333,4,1,0,100,0,0
61280,-84.7457627118644,4,1,0,100,0,0
61379,-86.2068965517241,4,1,0,100,0,0
61478,-87.719298245614,4,1,0,100,0,0
61576,-89.2857142857143,4,1,0,100,0,0
62958,-78.125,4,1,0,100,0,0
63024,-76.9230769230769,4,1,0,100,0,0
63090,-75.7575757575758,4,1,0,100,0,0
63155,-74.6268656716418,4,1,0,100,0,1
74208,-74.6268656716418,4,1,0,100,0,0
82103,-100,4,1,0,100,0,0
88419,-90.9090909090909,4,1,0,100,0,0
94734,-80,4,1,0,100,0,1
107366,-80,4,1,0,100,0,0
107761,-100,4,1,0,100,0,0
119997,-83.3333333333333,4,1,0,100,0,0
132037,-84.7457627118644,4,1,0,100,0,0
132432,-86.2068965517241,4,1,0,100,0,0
132629,-87.719298245614,4,1,0,100,0,0
170524,-74.6268656716418,4,1,0,100,0,1
181576,-74.6268656716418,4,1,0,100,0,0
194208,-74.6268656716418,4,1,0,100,0,0

[HitObjects]
256,192,1,5,0,0:0:0:0:
256,192,198,5,0,0:0:0:0:
256,192,395,1,8,0:0:0:0:
256,192,592,1,8,0:0:0:0:
256,192,790,1,0,0:0:0:0:
256,192,1184,1,8,0:0:0:0:
256,192,1579,1,8,0:0:0:0:
256,192,1678,1,8,0:0:0:0:
256,192,1777,1,0,0:0:0:0:
256,192,1875,1,0,0:0:0:0:
256,192,1974,1,8,0:0:0:0:
256,192,2171,1,0,0:0:0:0:
256,192,2369,1,8,0:0:0:0:
256,192,2763,1,0,0:0:0:0:
256,192,3157,5,8,0:0:0:0:
256,192,3355,1,8,0:0:0:0:
256,192,3552,1,0,0:0:0:0:
256,192,3749,1,0,0:0:0:0:
256,192,3947,1,8,0:0:0:0:
256,192,4342,1,0,0:0:0:0:
256,192,4736,1,8,0:0:0:0:
256,192,4835,1,8,0:0:0:0:
256,192,4934,1,8,0:0:0:0:
256,192,5032,1,8,0:0:0:0:
256,192,5131,1,0,0:0:0:0:
256,192,5328,1,0,0:0:0:0:
256,192,5427,1,0,0:0:0:0:
256,192,5526,1,8,0:0:0:0:
256,192,5723,1,0,0:0:0:0:
256,192,5921,1,8,0:0:0:0:
256,192,6315,1,0,0:0:0:0:
256,192,6513,1,0,0:0:0:0:
256,192,6710,1,8,0:0:0:0:
256,192,6907,1,8,0:0:0:0:
256,192,7105,1,0,0:0:0:0:
256,192,7499,1,8,0:0:0:0:
256,192,7894,1,8,0:0:0:0:
256,192,7993,1,8,0:0:0:0:
256,192,8092,1,0,0:0:0:0:
256,192,8190,1,0,0:0:0:0:
256,192,8289,1,8,0:0:0:0:
256,192,8486,1,0,0:0:0:0:
256,192,8684,1,8,0:0:0:0:
256,192,9078,1,0,0:0:0:0:
256,192,9473,1,8,0:0:0:0:
256,192,9671,1,8,0:0:0:0:
256,192,9868,1,0,0:0:0:0:
256,192,10065,1,0,0:0:0:0:
256,192,10263,1,8,0:0:0:0:
256,192,10657,1,8,0:0:0:0:
256,192,11052,1,8,0:0:0:0:
256,192,11151,1,8,0:0:0:0:
256,192,11249,1,8,0:0:0:0:
256,192,11348,1,8,0:0:0:0:
256,192,11447,1,0,0:0:0:0:
256,192,11644,1,0,0:0:0:0:
256,192,11743,1,0,0:0:0:0:
256,192,11842,1,8,0:0:0:0:
256,192,12039,1,8,0:0:0:0:
256,192,12236,1,8,0:0:0:0:
256,192,12335,1,8,0:0:0:0:
256,192,12434,1,0,0:0:0:0:
256,192,12532,1,0,0:0:0:0:
256,192,12631,1,12,0:0:0:0:
256,192,12829,1,0,0:0:0:0:
256,192,12895,1,0,0:0:0:0:
256,192,12961,1,0,0:0:0:0:
256,192,13027,1,8,0:0:0:0:
256,192,13223,1,0,0:0:0:0:
256,192,13420,1,8,0:0:0:0:
256,192,13815,1,8,0:0:0:0:
256,192,13914,1,8,0:0:0:0:
256,192,14013,1,8,0:0:0:0:
256,192,14111,1,8,0:0:0:0:
256,192,14210,1,0,0:0:0:0:
256,192,14407,1,8,0:0:0:0:
256,192,14506,1,8,0:0:0:0:
256,192,14605,1,0,0:0:0:0:
256,192,14802,1,0,0:0:0:0:
256,192,14901,1,8,0:0:0:0:
256,192,14999,1,8,0:0:0:0:
256,192,15197,1,0,0:0:0:0:
256,192,15394,1,8,0:0:0:0:
256,192,15460,1,8,0:0:0:0:
256,192,15526,1,8,0:0:0:0:
256,192,15592,1,0,0:0:0:0:
256,192,15657,1,0,0:0:0:0:
256,192,15723,1,0,0:0:0:0:
256,192,15789,1,12,0:0:0:0:
256,192,15986,1,0,0:0:0:0:
256,192,16184,1,0,0:0:0:0:
256,192,16381,1,0,0:0:0:0:
256,192,16578,1,8,0:0:0:0:
256,192,16973,1,0,0:0:0:0:
256,192,17368,1,8,0:0:0:0:
256,192,17565,1,8,0:0:0:0:
256,192,17763,1,0,0:0:0:0:
256,192,17861,1,0,0:0:0:0:
256,192,17960,1,8,0:0:0:0:
256,192,18059,1,0,0:0:0:0:
256,192,18157,1,8,0:0:0:0:
256,192,18552,1,8,0:0:0:0:
256,192,18749,1,4,0:0:0:0:
256,192,18947,1,12,0:0:0:0:
256,192,19144,1,0,0:0:0:0:
256,192,19342,1,0,0:0:0:0:
256,192,19539,1,0,0:0:0:0:
256,192,19736,1,8,0:0:0:0:
256,192,20131,1,8,0:0:0:0:
256,192,20526,1,8,0:0:0:0:
256,192,20624,1,8,0:0:0:0:
256,192,20723,1,0,0:0:0:0:
256,192,20822,1,0,0:0:0:0:
256,192,20921,1,8,0:0:0:0:
256,192,21118,1,0,0:0:0:0:
256,192,21217,1,0,0:0:0:0:
256,192,21315,1,8,0:0:0:0:
256,192,21513,1,0,0:0:0:0:
256,192,21710,1,8,0:0:0:0:
256,192,21776,1,8,0:0:0:0:
256,192,21842,1,8,0:0:0:0:
256,192,21907,1,0,0:0:0:0:
256,192,21973,1,0,0:0:0:0:
256,192,22039,1,0,0:0:0:0:
256,192,22105,1,12,0:0:0:0:
256,192,22302,1,0,0:0:0:0:
256,192,22401,1,0,0:0:0:0:
256,192,22500,1,8,0:0:0:0:
256,192,22697,1,0,0:0:0:0:
256,192,22894,1,8,0:0:0:0:
256,192,23289,1,8,0:0:0:0:
256,192,23388,1,8,0:0:0:0:
256,192,23487,1,8,0:0:0:0:
256,192,23585,1,8,0:0:0:0:
256,192,23684,1,0,0:0:0:0:
256,192,23881,1,8,0:0:0:0:
256,192,23980,1,8,0:0:0:0:
256,192,24079,1,0,0:0:0:0:
256,192,24276,1,0,0:0:0:0:
256,192,24375,1,8,0:0:0:0:
256,192,24473,1,8,0:0:0:0:
256,192,24671,1,0,0:0:0:0:
256,192,24868,1,8,0:0:0:0:
256,192,24934,1,8,0:0:0:0:
256,192,25000,1,8,0:0:0:0:
256,192,25066,1,0,0:0:0:0:
256,192,25131,1,0,0:0:0:0:
256,192,25197,1,0,0:0:0:0:
256,192,25263,1,12,0:0:0:0:
256,192,25657,1,0,0:0:0:0:
256,192,25855,1,0,0:0:0:0:
256,192,26052,1,8,0:0:0:0:
256,192,26447,1,0,0:0:0:0:
256,192,26644,1,0,0:0:0:0:
256,192,26842,1,8,0:0:0:0:
256,192,27236,1,8,0:0:0:0:
256,192,27434,1,8,0:0:0:0:
256,192,27631,1,4,0:0:0:0:
256,192,28026,1,4,0:0:0:0:
256,192,28421,1,8,0:0:0:0:
256,192,28815,1,0,0:0:0:0:
256,192,29013,1,0,0:0:0:0:
256,192,29210,1,8,0:0:0:0:
256,192,29605,1,8,0:0:0:0:
256,192,29802,1,8,0:0:0:0:
256,192,29999,1,0,0:0:0:0:
256,192,30394,1,0,0:0:0:0:
256,192,30592,1,8,0:0:0:0:
256,192,30789,1,0,0:0:0:0:
256,192,31184,1,0,0:0:0:0:
256,192,31578,1,8,0:0:0:0:
256,192,31973,1,0,0:0:0:0:
256,192,32171,1,0,0:0:0:0:
256,192,32368,1,8,0:0:0:0:
256,192,32763,1,0,0:0:0:0:
256,192,32960,1,0,0:0:0:0:
256,192,33157,1,8,0:0:0:0:
256,192,33552,1,8,0:0:0:0:
256,192,33749,1,8,0:0:0:0:
256,192,33947,1,0,0:0:0:0:
256,192,34342,1,0,0:0:0:0:
256,192,34736,1,4,0:0:0:0:
256,192,35131,1,0,0:0:0:0:
256,192,35526,1,0,0:0:0:0:
256,192,35921,1,0,0:0:0:0:
256,192,36118,1,0,0:0:0:0:
256,192,36315,1,8,0:0:0:0:
256,192,36710,1,8,0:0:0:0:
256,192,36907,1,0,0:0:0:0:
256,192,37105,1,0,0:0:0:0:
256,192,37894,1,8,0:0:0:0:
256,192,38289,1,0,0:0:0:0:
256,192,38486,1,0,0:0:0:0:
256,192,38684,1,8,0:0:0:0:
256,192,38881,1,0,0:0:0:0:
256,192,39078,1,8,0:0:0:0:
256,192,39276,1,8,0:0:0:0:
256,192,39473,1,0,0:0:0:0:
256,192,39671,1,0,0:0:0:0:
256,192,39868,1,8,0:0:0:0:
256,192,40065,1,8,0:0:0:0:
256,192,40263,1,0,0:0:0:0:
256,192,40460,1,8,0:0:0:0:
256,192,40657,1,0,0:0:0:0:
256,192,40855,1,0,0:0:0:0:
256,192,41052,1,8,0:0:0:0:
256,192,41249,1,0,0:0:0:0:
256,192,41447,1,8,0:0:0:0:
256,192,41644,1,8,0:0:0:0:
256,192,41842,1,0,0:0:0:0:
256,192,42039,1,8,0:0:0:0:
256,192,42236,1,0,0:0:0:0:
256,192,42434,1,8,0:0:0:0:
256,192,42631,1,8,0:0:0:0:
256,192,42828,1,0,0:0:0:0:
256,192,42927,1,0,0:0:0:0:
256,192,43026,1,8,0:0:0:0:
256,192,43223,1,0,0:0:0:0:
256,192,43421,1,8,0:0:0:0:
256,192,43519,1,8,0:0:0:0:
256,192,43618,1,0,0:0:0:0:
256,192,43717,1,0,0:0:0:0:
256,192,43815,1,8,0:0:0:0:
256,192,44013,1,8,0:0:0:0:
256,192,44210,1,8,0:0:0:0:
256,192,44309,1,8,0:0:0:0:
256,192,44407,1,0,0:0:0:0:
256,192,44506,1,0,0:0:0:0:
256,192,44605,1,8,0:0:0:0:
256,192,44703,1,8,0:0:0:0:
256,192,44802,1,0,0:0:0:0:
256,192,44901,1,0,0:0:0:0:
256,192,44999,1,8,0:0:0:0:
256,192,45098,1,0,0:0:0:0:
256,192,45197,1,8,0:0:0:0:
256,192,45296,1,0,0:0:0:0:
256,192,45394,1,8,0:0:0:0:
256,192,45493,1,8,0:0:0:0:
256,192,45592,1,0,0:0:0:0:
256,192,45690,1,0,0:0:0:0:
256,192,45789,1,8,0:0:0:0:
256,192,45888,1,0,0:0:0:0:
256,192,45986,1,8,0:0:0:0:
256,192,46085,1,0,0:0:0:0:
256,192,46184,1,8,0:0:0:0:
256,192,46282,1,8,0:0:0:0:
256,192,46381,1,0,0:0:0:0:
256,192,46480,1,0,0:0:0:0:
256,192,46578,1,8,0:0:0:0:
256,192,46677,1,8,0:0:0:0:
256,192,46776,1,0,0:0:0:0:
256,192,46874,1,0,0:0:0:0:
256,192,46973,1,8,0:0:0:0:
256,192,47072,1,0,0:0:0:0:
256,192,47171,1,0,0:0:0:0:
256,192,47269,1,0,0:0:0:0:
256,192,47368,1,8,0:0:0:0:
256,192,47467,1,0,0:0:0:0:
256,192,47565,1,8,0:0:0:0:
256,192,47664,1,0,0:0:0:0:
256,192,47763,1,8,0:0:0:0:
256,192,47861,1,0,0:0:0:0:
256,192,47960,1,8,0:0:0:0:
256,192,48059,1,0,0:0:0:0:
256,192,48157,1,8,0:0:0:0:
256,192,48223,1,8,0:0:0:0:
256,192,48289,1,8,0:0:0:0:
256,192,48355,1,0,0:0:0:0:
256,192,48421,1,0,0:0:0:0:
256,192,48486,1,0,0:0:0:0:
256,192,48552,1,8,0:0:0:0:
256,192,48618,1,8,0:0:0:0:
256,192,48684,1,8,0:0:0:0:
256,192,48749,1,0,0:0:0:0:
256,192,48815,1,0,0:0:0:0:
256,192,48881,1,0,0:0:0:0:
256,192,48947,1,8,0:0:0:0:
256,192,49342,1,0,0:0:0:0:
256,192,49736,1,0,0:0:0:0:
256,192,50131,1,0,0:0:0:0:
256,192,50328,1,0,0:0:0:0:
256,192,50526,1,8,0:0:0:0:
256,192,50624,1,0,0:0:0:0:
256,192,50723,1,0,0:0:0:0:
256,192,50822,1,0,0:0:0:0:
256,192,50921,1,8,0:0:0:0:
256,192,51019,1,0,0:0:0:0:
256,192,51118,1,0,0:0:0:0:
256,192,51217,1,0,0:0:0:0:
256,192,51315,1,8,0:0:0:0:
256,192,51414,1,0,0:0:0:0:
256,192,51513,1,0,0:0:0:0:
256,192,51611,1,0,0:0:0:0:
256,192,51710,1,8,0:0:0:0:
256,192,51809,1,0,0:0:0:0:
256,192,51907,1,0,0:0:0:0:
256,192,52006,1,0,0:0:0:0:
256,192,52106,1,8,0:0:0:0:
256,192,52203,1,0,0:0:0:0:
256,192,52302,1,8,0:0:0:0:
256,192,52401,1,0,0:0:0:0:
256,192,52499,1,8,0:0:0:0:
256,192,52598,1,8,0:0:0:0:
256,192,52697,1,0,0:0:0:0:
256,192,52796,1,0,0:0:0:0:
256,192,52894,1,8,0:0:0:0:
256,192,53092,1,0,0:0:0:0:
256,192,53289,1,8,0:0:0:0:
256,192,53388,1,8,0:0:0:0:
256,192,53486,1,0,0:0:0:0:
256,192,53585,1,0,0:0:0:0:
256,192,53684,1,8,0:0:0:0:
256,192,53881,1,8,0:0:0:0:
256,192,53980,1,8,0:0:0:0:
256,192,54078,1,0,0:0:0:0:
256,192,54276,1,8,0:0:0:0:
256,192,54374,1,8,0:0:0:0:
256,192,54473,1,0,0:0:0:0:
256,192,54671,1,0,0:0:0:0:
256,192,54769,1,0,0:0:0:0:
256,192,54868,1,12,0:0:0:0:
256,192,55065,1,4,0:0:0:0:
256,192,55263,1,8,0:0:0:0:
256,192,55361,1,0,0:0:0:0:
256,192,55460,1,0,0:0:0:0:
256,192,55559,1,8,0:0:0:0:
256,192,55657,1,8,0:0:0:0:
256,192,55756,1,0,0:0:0:0:
256,192,55855,1,0,0:0:0:0:
256,192,55953,1,0,0:0:0:0:
256,192,56052,1,8,0:0:0:0:
256,192,56249,1,0,0:0:0:0:
256,192,56348,1,0,0:0:0:0:
256,192,56447,1,8,0:0:0:0:
256,192,56546,1,0,0:0:0:0:
256,192,56644,1,8,0:0:0:0:
256,192,56842,1,12,0:0:0:0:
256,192,56940,1,0,0:0:0:0:
256,192,57039,1,0,0:0:0:0:
256,192,57138,1,0,0:0:0:0:
256,192,57236,1,8,0:0:0:0:
256,192,57335,1,0,0:0:0:0:
256,192,57434,1,0,0:0:0:0:
256,192,57532,1,0,0:0:0:0:
256,192,57631,1,8,0:0:0:0:
256,192,57730,1,0,0:0:0:0:
256,192,57828,1,0,0:0:0:0:
256,192,57927,1,0,0:0:0:0:
256,192,58026,1,8,0:0:0:0:
256,192,58124,1,0,0:0:0:0:
256,192,58223,1,0,0:0:0:0:
256,192,58322,1,0,0:0:0:0:
256,192,58421,1,8,0:0:0:0:
256,192,58519,1,0,0:0:0:0:
256,192,58618,1,8,0:0:0:0:
256,192,58717,1,0,0:0:0:0:
256,192,58815,1,8,0:0:0:0:
256,192,58914,1,0,0:0:0:0:
256,192,59013,1,8,0:0:0:0:
256,192,59111,1,0,0:0:0:0:
256,192,59210,1,8,0:0:0:0:
256,192,59309,1,8,0:0:0:0:
256,192,59407,1,0,0:0:0:0:
256,192,59506,1,0,0:0:0:0:
256,192,59605,1,12,0:0:0:0:
256,192,59802,1,0,0:0:0:0:
256,192,59901,1,0,0:0:0:0:
256,192,59999,1,8,0:0:0:0:
256,192,60098,1,0,0:0:0:0:
256,192,60197,1,8,0:0:0:0:
256,192,60296,1,0,0:0:0:0:
256,192,60394,1,8,0:0:0:0:
256,192,60493,1,8,0:0:0:0:
256,192,60592,1,0,0:0:0:0:
256,192,60690,1,0,0:0:0:0:
256,192,60789,1,8,0:0:0:0:
256,192,60888,1,0,0:0:0:0:
256,192,60986,1,8,0:0:0:0:
256,192,61184,1,8,0:0:0:0:
256,192,61282,1,8,0:0:0:0:
256,192,61381,1,0,0:0:0:0:
256,192,61480,1,0,0:0:0:0:
256,192,61578,1,8,0:0:0:0:
256,192,61776,1,0,0:0:0:0:
256,192,61874,1,0,0:0:0:0:
256,192,61973,1,8,0:0:0:0:
256,192,62171,1,8,0:0:0:0:
256,192,62269,1,8,0:0:0:0:
256,192,62368,1,0,0:0:0:0:
256,192,62565,1,8,0:0:0:0:
256,192,62631,1,8,0:0:0:0:
256,192,62697,1,8,0:0:0:0:
256,192,62763,1,0,0:0:0:0:
256,192,62960,1,0,0:0:0:0:
256,192,63026,1,0,0:0:0:0:
256,192,63092,1,0,0:0:0:0:
256,192,63157,1,12,0:0:0:0:
256,192,63256,1,0,0:0:0:0:
256,192,63355,1,0,0:0:0:0:
256,192,63453,1,0,0:0:0:0:
256,192,63552,1,8,0:0:0:0:
256,192,63651,1,0,0:0:0:0:
256,192,63749,1,0,0:0:0:0:
256,192,63848,1,0,0:0:0:0:
256,192,63947,1,8,0:0:0:0:
256,192,64046,1,0,0:0:0:0:
256,192,64144,1,8,0:0:0:0:
256,192,64243,1,0,0:0:0:0:
256,192,64342,1,8,0:0:0:0:
256,192,64440,1,0,0:0:0:0:
256,192,64539,1,0,0:0:0:0:
256,192,64638,1,0,0:0:0:0:
256,192,64736,1,8,0:0:0:0:
256,192,64835,1,0,0:0:0:0:
256,192,64934,1,8,0:0:0:0:
256,192,65032,1,0,0:0:0:0:
256,192,65131,1,8,0:0:0:0:
256,192,65230,1,0,0:0:0:0:
256,192,65328,1,8,0:0:0:0:
256,192,65427,1,0,0:0:0:0:
256,192,65526,1,8,0:0:0:0:
256,192,65624,1,8,0:0:0:0:
256,192,65723,1,0,0:0:0:0:
256,192,65822,1,0,0:0:0:0:
256,192,65921,1,12,0:0:0:0:
256,192,66118,1,0,0:0:0:0:
256,192,66217,1,0,0:0:0:0:
256,192,66315,1,8,0:0:0:0:
256,192,66414,1,0,0:0:0:0:
256,192,66513,1,8,0:0:0:0:
256,192,66611,1,0,0:0:0:0:
256,192,66710,1,8,0:0:0:0:
256,192,66809,1,0,0:0:0:0:
256,192,66907,1,8,0:0:0:0:
256,192,67006,1,0,0:0:0:0:
256,192,67105,1,8,0:0:0:0:
256,192,67203,1,8,0:0:0:0:
256,192,67302,1,0,0:0:0:0:
256,192,67401,1,0,0:0:0:0:
256,192,67499,1,12,0:0:0:0:
256,192,67697,1,0,0:0:0:0:
256,192,67796,1,0,0:0:0:0:
256,192,67894,1,8,0:0:0:0:
256,192,67960,1,8,0:0:0:0:
256,192,68026,1,8,0:0:0:0:
256,192,68092,1,0,0:0:0:0:
256,192,68190,1,0,0:0:0:0:
256,192,68289,1,8,0:0:0:0:
256,192,68388,1,0,0:0:0:0:
256,192,68486,1,0,0:0:0:0:
256,192,68585,1,0,0:0:0:0:
256,192,68684,1,8,0:0:0:0:
256,192,68881,1,0,0:0:0:0:
256,192,68980,1,0,0:0:0:0:
256,192,69078,1,8,0:0:0:0:
256,192,69177,1,0,0:0:0:0:
256,192,69276,1,0,0:0:0:0:
256,192,69374,1,0,0:0:0:0:
256,192,69473,1,8,0:0:0:0:
256,192,69572,1,0,0:0:0:0:
256,192,69671,1,0,0:0:0:0:
256,192,69769,1,0,0:0:0:0:
256,192,69868,1,8,0:0:0:0:
256,192,69967,1,0,0:0:0:0:
256,192,70066,1,0,0:0:0:0:
256,192,70164,1,0,0:0:0:0:
256,192,70263,1,8,0:0:0:0:
256,192,70361,1,0,0:0:0:0:
256,192,70460,1,8,0:0:0:0:
256,192,70558,1,8,0:0:0:0:
256,192,70657,1,8,0:0:0:0:
256,192,70756,1,0,0:0:0:0:
256,192,70855,1,0,0:0:0:0:
256,192,70953,1,8,0:0:0:0:
256,192,71052,1,8,0:0:0:0:
256,192,71151,1,0,0:0:0:0:
256,192,71250,1,8,0:0:0:0:
256,192,71348,1,0,0:0:0:0:
256,192,71447,1,8,0:0:0:0:
256,192,71546,1,0,0:0:0:0:
256,192,71644,1,8,0:0:0:0:
256,192,71743,1,0,0:0:0:0:
256,192,71842,1,8,0:0:0:0:
256,192,71940,1,8,0:0:0:0:
256,192,72039,1,0,0:0:0:0:
256,192,72137,1,0,0:0:0:0:
256,192,72236,1,8,0:0:0:0:
256,192,72434,1,0,0:0:0:0:
256,192,72533,1,0,0:0:0:0:
256,192,72631,1,8,0:0:0:0:
256,192,72829,1,8,0:0:0:0:
256,192,72927,1,0,0:0:0:0:
256,192,73026,1,8,0:0:0:0:
256,192,73223,1,8,0:0:0:0:
256,192,73322,1,0,0:0:0:0:
256,192,73421,1,8,0:0:0:0:
256,192,73519,1,8,0:0:0:0:
256,192,73618,1,0,0:0:0:0:
256,192,73717,1,0,0:0:0:0:
256,192,73815,1,8,0:0:0:0:
256,192,74013,1,0,0:0:0:0:
256,192,74210,1,12,0:0:0:0:
256,192,74309,1,0,0:0:0:0:
256,192,74408,1,0,0:0:0:0:
256,192,74506,1,0,0:0:0:0:
256,192,74605,1,8,0:0:0:0:
256,192,74999,1,12,0:0:0:0:
256,192,75394,1,4,0:0:0:0:
256,192,75789,1,12,0:0:0:0:
256,192,75888,12,0,81907,0:0:0:0:
256,192,82105,5,0,0:0:0:0:
256,192,82302,1,0,0:0:0:0:
256,192,82499,1,8,0:0:0:0:
256,192,82697,1,8,0:0:0:0:
256,192,82894,1,0,0:0:0:0:
256,192,83289,1,8,0:0:0:0:
256,192,83684,1,0,0:0:0:0:
256,192,84078,1,8,0:0:0:0:
256,192,84276,1,8,0:0:0:0:
256,192,84473,1,0,0:0:0:0:
256,192,84868,1,8,0:0:0:0:
256,192,85263,1,0,0:0:0:0:
256,192,85657,1,8,0:0:0:0:
256,192,85855,1,8,0:0:0:0:
256,192,86052,1,0,0:0:0:0:
256,192,86447,1,8,0:0:0:0:
256,192,86842,1,0,0:0:0:0:
256,192,87236,1,8,0:0:0:0:
256,192,87434,1,8,0:0:0:0:
256,192,87631,1,0,0:0:0:0:
256,192,88026,1,8,0:0:0:0:
256,192,88421,1,0,0:0:0:0:
256,192,88815,1,0,0:0:0:0:
256,192,89013,1,8,0:0:0:0:
256,192,89210,1,0,0:0:0:0:
256,192,89605,1,0,0:0:0:0:
256,192,89999,1,0,0:0:0:0:
256,192,90394,1,0,0:0:0:0:
256,192,90592,1,8,0:0:0:0:
256,192,90789,1,0,0:0:0:0:
256,192,91184,1,0,0:0:0:0:
256,192,91578,1,0,0:0:0:0:
256,192,91973,1,0,0:0:0:0:
256,192,92368,1,0,0:0:0:0:
256,192,92763,1,0,0:0:0:0:
256,192,93157,1,8,0:0:0:0:
256,192,93947,1,0,0:0:0:0:
256,192,94736,1,4,0:0:0:0:
256,192,95131,1,4,0:0:0:0:
256,192,95328,1,4,0:0:0:0:
256,192,95526,1,12,0:0:0:0:
256,192,95921,1,12,0:0:0:0:
256,192,96315,1,4,0:0:0:0:
256,192,96710,1,12,0:0:0:0:
256,192,96907,1,12,0:0:0:0:
256,192,97105,1,4,0:0:0:0:
256,192,97499,1,4,0:0:0:0:
256,192,97894,1,12,0:0:0:0:
256,192,98092,1,12,0:0:0:0:
256,192,98289,1,4,0:0:0:0:
256,192,98486,1,4,0:0:0:0:
256,192,98684,1,12,0:0:0:0:
256,192,99078,1,4,0:0:0:0:
256,192,99473,1,12,0:0:0:0:
256,192,99868,1,4,0:0:0:0:
256,192,100065,1,4,0:0:0:0:
256,192,100263,1,12,0:0:0:0:
256,192,100657,1,4,0:0:0:0:
256,192,101052,1,12,0:0:0:0:
256,192,101447,1,4,0:0:0:0:
256,192,101644,1,4,0:0:0:0:
256,192,101842,1,12,0:0:0:0:
256,192,102236,1,4,0:0:0:0:
256,192,102631,1,12,0:0:0:0:
256,192,103026,1,4,0:0:0:0:
256,192,103223,1,4,0:0:0:0:
256,192,103421,1,12,0:0:0:0:
256,192,103815,1,4,0:0:0:0:
256,192,104210,1,12,0:0:0:0:
256,192,104407,1,12,0:0:0:0:
256,192,104605,1,4,0:0:0:0:
256,192,104802,1,4,0:0:0:0:
256,192,104999,1,12,0:0:0:0:
256,192,105394,1,4,0:0:0:0:
256,192,105789,1,12,0:0:0:0:
256,192,106184,1,4,0:0:0:0:
256,192,106381,1,4,0:0:0:0:
256,192,106578,1,12,0:0:0:0:
256,192,106973,1,4,0:0:0:0:
256,192,107368,1,12,0:0:0:0:
256,192,107763,1,0,0:0:0:0:
256,192,107960,1,0,0:0:0:0:
256,192,108157,1,8,0:0:0:0:
256,192,108552,1,8,0:0:0:0:
256,192,108749,1,0,0:0:0:0:
256,192,108947,1,0,0:0:0:0:
256,192,109342,1,0,0:0:0:0:
256,192,109539,1,0,0:0:0:0:
256,192,109736,1,8,0:0:0:0:
256,192,110131,1,0,0:0:0:0:
256,192,110526,1,0,0:0:0:0:
256,192,110921,1,0,0:0:0:0:
256,192,111118,1,0,0:0:0:0:
256,192,111315,1,8,0:0:0:0:
256,192,111710,1,8,0:0:0:0:
256,192,111907,1,0,0:0:0:0:
256,192,112105,1,0,0:0:0:0:
256,192,112499,1,0,0:0:0:0:
256,192,112696,1,0,0:0:0:0:
256,192,112894,1,8,0:0:0:0:
256,192,113092,1,0,0:0:0:0:
256,192,113289,1,8,0:0:0:0:
256,192,113486,1,0,0:0:0:0:
256,192,113684,1,8,0:0:0:0:
256,192,114078,1,0,0:0:0:0:
256,192,114276,1,0,0:0:0:0:
256,192,114473,1,8,0:0:0:0:
256,192,114868,1,8,0:0:0:0:
256,192,115065,1,0,0:0:0:0:
256,192,115263,1,0,0:0:0:0:
256,192,115657,1,0,0:0:0:0:
256,192,115854,1,0,0:0:0:0:
256,192,116052,1,8,0:0:0:0:
256,192,116447,1,0,0:0:0:0:
256,192,116842,1,0,0:0:0:0:
256,192,118026,1,0,0:0:0:0:
256,192,118223,1,0,0:0:0:0:
256,192,118421,1,8,0:0:0:0:
256,192,118815,1,0,0:0:0:0:
256,192,119013,1,0,0:0:0:0:
256,192,119210,1,8,0:0:0:0:
256,192,119407,1,0,0:0:0:0:
256,192,119605,1,8,0:0:0:0:
256,192,119802,1,0,0:0:0:0:
256,192,119999,1,8,0:0:0:0:
256,192,120197,1,0,0:0:0:0:
256,192,120296,1,0,0:0:0:0:
256,192,120394,1,8,0:0:0:0:
256,192,120592,1,8,0:0:0:0:
256,192,120690,1,8,0:0:0:0:
256,192,120789,1,0,0:0:0:0:
256,192,120888,1,0,0:0:0:0:
256,192,120986,1,8,0:0:0:0:
256,192,121085,1,0,0:0:0:0:
256,192,121184,1,8,0:0:0:0:
256,192,121381,1,0,0:0:0:0:
256,192,121480,1,0,0:0:0:0:
256,192,121578,1,8,0:0:0:0:
256,192,121677,1,0,0:0:0:0:
256,192,121776,1,8,0:0:0:0:
256,192,121874,1,0,0:0:0:0:
256,192,121973,1,8,0:0:0:0:
256,192,122072,1,0,0:0:0:0:
256,192,122171,1,8,0:0:0:0:
256,192,122269,1,0,0:0:0:0:
256,192,122368,1,8,0:0:0:0:
256,192,122467,1,8,0:0:0:0:
256,192,122565,1,0,0:0:0:0:
256,192,122664,1,0,0:0:0:0:
256,192,122763,1,8,0:0:0:0:
256,192,122960,1,0,0:0:0:0:
256,192,123059,1,0,0:0:0:0:
256,192,123157,1,8,0:0:0:0:
256,192,123355,1,8,0:0:0:0:
256,192,123453,1,8,0:0:0:0:
256,192,123552,1,0,0:0:0:0:
256,192,123749,1,0,0:0:0:0:
256,192,123848,1,0,0:0:0:0:
256,192,123947,1,8,0:0:0:0:
256,192,124046,1,0,0:0:0:0:
256,192,124144,1,8,0:0:0:0:
256,192,124342,1,8,0:0:0:0:
256,192,124440,1,8,0:0:0:0:
256,192,124539,1,0,0:0:0:0:
256,192,124638,1,0,0:0:0:0:
256,192,124736,1,8,0:0:0:0:
256,192,124835,1,0,0:0:0:0:
256,192,124934,1,8,0:0:0:0:
256,192,125032,1,0,0:0:0:0:
256,192,125131,1,8,0:0:0:0:
256,192,125230,1,8,0:0:0:0:
256,192,125328,1,0,0:0:0:0:
256,192,125427,1,0,0:0:0:0:
256,192,125526,1,8,0:0:0:0:
256,192,125723,1,0,0:0:0:0:
256,192,125822,1,0,0:0:0:0:
256,192,125921,1,8,0:0:0:0:
256,192,126019,1,0,0:0:0:0:
256,192,126118,1,8,0:0:0:0:
256,192,126217,1,0,0:0:0:0:
256,192,126315,1,8,0:0:0:0:
256,192,126513,1,0,0:0:0:0:
256,192,126611,1,0,0:0:0:0:
256,192,126710,1,8,0:0:0:0:
256,192,126907,1,8,0:0:0:0:
256,192,127006,1,8,0:0:0:0:
256,192,127105,1,0,0:0:0:0:
256,192,127302,1,0,0:0:0:0:
256,192,127401,1,0,0:0:0:0:
256,192,127499,1,8,0:0:0:0:
256,192,127697,1,8,0:0:0:0:
256,192,127796,1,8,0:0:0:0:
256,192,127894,1,0,0:0:0:0:
256,192,127993,1,0,0:0:0:0:
256,192,128092,1,8,0:0:0:0:
256,192,128190,1,0,0:0:0:0:
256,192,128289,1,8,0:0:0:0:
256,192,128388,1,0,0:0:0:0:
256,192,128486,1,8,0:0:0:0:
256,192,128585,1,0,0:0:0:0:
256,192,128684,1,8,0:0:0:0:
256,192,128782,1,8,0:0:0:0:
256,192,128881,1,0,0:0:0:0:
256,192,128980,1,0,0:0:0:0:
256,192,129078,1,8,0:0:0:0:
256,192,129276,1,0,0:0:0:0:
256,192,129374,1,0,0:0:0:0:
256,192,129473,1,8,0:0:0:0:
256,192,129671,1,8,0:0:0:0:
256,192,129769,1,0,0:0:0:0:
256,192,129868,1,8,0:0:0:0:
256,192,130065,1,0,0:0:0:0:
256,192,130164,1,0,0:0:0:0:
256,192,130263,1,8,0:0:0:0:
256,192,130460,1,0,0:0:0:0:
256,192,130657,1,8,0:0:0:0:
256,192,130756,1,8,0:0:0:0:
256,192,130855,1,0,0:0:0:0:
256,192,130953,1,0,0:0:0:0:
256,192,131052,1,8,0:0:0:0:
256,192,131249,1,8,0:0:0:0:
256,192,131348,1,8,0:0:0:0:
256,192,131447,1,0,0:0:0:0:
256,192,131546,1,8,0:0:0:0:
256,192,131644,1,0,0:0:0:0:
256,192,131743,1,0,0:0:0:0:
256,192,131842,1,8,0:0:0:0:
256,192,132039,1,0,0:0:0:0:
256,192,132138,1,0,0:0:0:0:
256,192,132236,1,8,0:0:0:0:
256,192,132434,1,8,0:0:0:0:
256,192,132631,1,4,0:0:0:0:
256,192,133026,1,0,0:0:0:0:
256,192,133421,1,8,0:0:0:0:
256,192,133815,1,8,0:0:0:0:
256,192,134210,1,0,0:0:0:0:
256,192,134407,1,0,0:0:0:0:
256,192,134605,1,8,0:0:0:0:
256,192,134802,1,8,0:0:0:0:
256,192,134999,1,0,0:0:0:0:
256,192,135197,1,0,0:0:0:0:
256,192,135789,1,8,0:0:0:0:
256,192,135986,1,8,0:0:0:0:
256,192,136184,1,0,0:0:0:0:
256,192,136381,1,0,0:0:0:0:
256,192,136578,1,8,0:0:0:0:
256,192,136776,1,8,0:0:0:0:
256,192,137368,1,0,0:0:0:0:
256,192,137565,1,0,0:0:0:0:
256,192,137763,1,8,0:0:0:0:
256,192,137960,1,8,0:0:0:0:
256,192,138157,1,0,0:0:0:0:
256,192,138453,1,0,0:0:0:0:
256,192,138552,1,8,0:0:0:0:
256,192,138749,1,0,0:0:0:0:
256,192,138947,1,8,0:0:0:0:
256,192,139342,1,0,0:0:0:0:
256,192,139736,1,0,0:0:0:0:
256,192,140131,1,0,0:0:0:0:
256,192,140526,1,8,0:0:0:0:
256,192,140723,1,8,0:0:0:0:
256,192,140921,1,0,0:0:0:0:
256,192,141118,1,0,0:0:0:0:
256,192,141315,1,8,0:0:0:0:
256,192,141513,1,8,0:0:0:0:
256,192,142105,1,0,0:0:0:0:
256,192,142302,1,0,0:0:0:0:
256,192,142499,1,8,0:0:0:0:
256,192,142697,1,8,0:0:0:0:
256,192,142894,1,0,0:0:0:0:
256,192,143092,1,0,0:0:0:0:
256,192,143684,1,0,0:0:0:0:
256,192,143881,1,0,0:0:0:0:
256,192,144078,1,8,0:0:0:0:
256,192,144276,1,8,0:0:0:0:
256,192,144473,1,0,0:0:0:0:
256,192,144868,1,0,0:0:0:0:
256,192,145263,1,0,0:0:0:0:
256,192,145657,1,0,0:0:0:0:
256,192,145756,1,8,0:0:0:0:
256,192,145855,1,8,0:0:0:0:
256,192,145953,1,8,0:0:0:0:
256,192,146052,1,0,0:0:0:0:
256,192,146249,1,8,0:0:0:0:
256,192,146447,1,0,0:0:0:0:
256,192,146546,1,8,0:0:0:0:
256,192,146644,1,8,0:0:0:0:
256,192,146743,1,8,0:0:0:0:
256,192,146842,1,0,0:0:0:0:
256,192,147039,1,8,0:0:0:0:
256,192,147236,1,0,0:0:0:0:
256,192,147335,1,8,0:0:0:0:
256,192,147434,1,8,0:0:0:0:
256,192,147532,1,8,0:0:0:0:
256,192,147631,1,0,0:0:0:0:
256,192,147829,1,8,0:0:0:0:
256,192,148026,1,0,0:0:0:0:
256,192,148124,1,8,0:0:0:0:
256,192,148223,1,8,0:0:0:0:
256,192,148321,1,8,0:0:0:0:
256,192,148421,1,0,0:0:0:0:
256,192,148618,1,8,0:0:0:0:
256,192,148815,1,0,0:0:0:0:
256,192,148914,1,8,0:0:0:0:
256,192,149013,1,8,0:0:0:0:
256,192,149111,1,8,0:0:0:0:
256,192,149210,1,0,0:0:0:0:
256,192,149408,1,8,0:0:0:0:
256,192,149605,1,0,0:0:0:0:
256,192,149703,1,8,0:0:0:0:
256,192,149802,1,8,0:0:0:0:
256,192,149900,1,8,0:0:0:0:
256,192,149999,1,0,0:0:0:0:
256,192,150197,1,8,0:0:0:0:
256,192,150394,1,0,0:0:0:0:
256,192,150493,1,8,0:0:0:0:
256,192,150592,1,8,0:0:0:0:
256,192,150690,1,8,0:0:0:0:
256,192,150789,1,0,0:0:0:0:
256,192,150888,1,8,0:0:0:0:
256,192,150986,1,8,0:0:0:0:
256,192,151085,1,8,0:0:0:0:
256,192,151184,1,0,0:0:0:0:
256,192,151249,1,0,0:0:0:0:
256,192,151315,1,0,0:0:0:0:
256,192,151381,1,8,0:0:0:0:
256,192,151480,1,0,0:0:0:0:
256,192,151578,1,8,0:0:0:0:
256,192,151677,1,8,0:0:0:0:
256,192,151776,1,0,0:0:0:0:
256,192,151874,1,0,0:0:0:0:
256,192,151973,1,8,0:0:0:0:
256,192,152072,1,8,0:0:0:0:
256,192,152171,1,0,0:0:0:0:
256,192,152269,1,0,0:0:0:0:
256,192,152368,1,8,0:0:0:0:
256,192,152467,1,8,0:0:0:0:
256,192,152565,1,0,0:0:0:0:
256,192,152664,1,0,0:0:0:0:
256,192,152763,1,8,0:0:0:0:
256,192,152861,1,8,0:0:0:0:
256,192,152960,1,0,0:0:0:0:
256,192,153059,1,0,0:0:0:0:
256,192,153157,1,8,0:0:0:0:
256,192,153256,1,8,0:0:0:0:
256,192,153355,1,0,0:0:0:0:
256,192,153453,1,0,0:0:0:0:
256,192,153552,1,8,0:0:0:0:
256,192,153651,1,8,0:0:0:0:
256,192,153749,1,0,0:0:0:0:
256,192,153848,1,0,0:0:0:0:
256,192,153947,1,8,0:0:0:0:
256,192,154046,1,8,0:0:0:0:
256,192,154144,1,0,0:0:0:0:
256,192,154243,1,0,0:0:0:0:
256,192,154342,1,8,0:0:0:0:
256,192,154440,1,8,0:0:0:0:
256,192,154539,1,0,0:0:0:0:
256,192,154638,1,0,0:0:0:0:
256,192,154736,1,8,0:0:0:0:
256,192,154835,1,0,0:0:0:0:
256,192,154934,1,8,0:0:0:0:
256,192,155033,1,0,0:0:0:0:
256,192,155131,1,8,0:0:0:0:
256,192,155230,1,0,0:0:0:0:
256,192,155328,1,8,0:0:0:0:
256,192,155428,1,0,0:0:0:0:
256,192,155526,1,8,0:0:0:0:
256,192,155624,1,0,0:0:0:0:
256,192,155723,1,8,0:0:0:0:
256,192,155822,1,0,0:0:0:0:
256,192,155920,1,8,0:0:0:0:
256,192,156019,1,0,0:0:0:0:
256,192,156118,1,8,0:0:0:0:
256,192,156217,1,0,0:0:0:0:
256,192,156315,1,8,0:0:0:0:
256,192,157894,1,4,0:0:0:0:
256,192,158092,1,0,0:0:0:0:
256,192,158190,1,0,0:0:0:0:
256,192,158289,1,8,0:0:0:0:
256,192,158486,1,0,0:0:0:0:
256,192,158584,1,0,0:0:0:0:
256,192,158683,1,8,0:0:0:0:
256,192,158881,1,0,0:0:0:0:
256,192,158979,1,0,0:0:0:0:
256,192,159078,1,8,0:0:0:0:
256,192,159276,1,0,0:0:0:0:
256,192,159374,1,0,0:0:0:0:
256,192,159473,1,8,0:0:0:0:
256,192,159671,1,0,0:0:0:0:
256,192,159769,1,0,0:0:0:0:
256,192,159868,1,8,0:0:0:0:
256,192,160065,1,0,0:0:0:0:
256,192,160163,1,0,0:0:0:0:
256,192,160262,1,8,0:0:0:0:
256,192,160460,1,0,0:0:0:0:
256,192,160558,1,0,0:0:0:0:
256,192,160657,1,8,0:0:0:0:
256,192,160855,1,0,0:0:0:0:
256,192,160953,1,0,0:0:0:0:
256,192,161052,1,8,0:0:0:0:
256,192,161249,1,0,0:0:0:0:
256,192,161347,1,0,0:0:0:0:
256,192,161446,1,8,0:0:0:0:
256,192,161644,1,0,0:0:0:0:
256,192,161742,1,0,0:0:0:0:
256,192,161841,1,8,0:0:0:0:
256,192,162039,1,0,0:0:0:0:
256,192,162137,1,0,0:0:0:0:
256,192,162236,1,12,0:0:0:0:
256,192,162434,1,0,0:0:0:0:
256,192,162532,1,8,0:0:0:0:
256,192,162631,1,8,0:0:0:0:
256,192,162828,1,8,0:0:0:0:
256,192,162927,1,8,0:0:0:0:
256,192,163025,1,8,0:0:0:0:
256,192,163223,1,8,0:0:0:0:
256,192,163322,1,8,0:0:0:0:
256,192,163421,1,4,0:0:0:0:
256,192,163815,1,12,0:0:0:0:
256,192,164210,1,4,0:0:0:0:
256,192,164407,1,0,0:0:0:0:
256,192,164505,1,0,0:0:0:0:
256,192,164604,1,8,0:0:0:0:
256,192,164801,1,0,0:0:0:0:
256,192,164899,1,0,0:0:0:0:
256,192,164998,1,8,0:0:0:0:
256,192,165197,1,0,0:0:0:0:
256,192,165295,1,0,0:0:0:0:
256,192,165394,1,8,0:0:0:0:
256,192,165591,1,0,0:0:0:0:
256,192,165689,1,0,0:0:0:0:
256,192,165788,1,8,0:0:0:0:
256,192,165986,1,0,0:0:0:0:
256,192,166084,1,0,0:0:0:0:
256,192,166183,1,8,0:0:0:0:
256,192,166380,1,0,0:0:0:0:
256,192,166478,1,0,0:0:0:0:
256,192,166577,1,8,0:0:0:0:
256,192,166776,1,0,0:0:0:0:
256,192,166874,1,0,0:0:0:0:
256,192,166973,1,8,0:0:0:0:
256,192,167170,1,0,0:0:0:0:
256,192,167268,1,0,0:0:0:0:
256,192,167367,1,8,0:0:0:0:
256,192,167565,1,0,0:0:0:0:
256,192,167663,1,0,0:0:0:0:
256,192,167762,1,8,0:0:0:0:
256,192,167959,1,0,0:0:0:0:
256,192,168057,1,0,0:0:0:0:
256,192,168156,1,8,0:0:0:0:
256,192,168256,1,0,0:0:0:0:
256,192,168355,1,0,0:0:0:0:
256,192,168453,1,0,0:0:0:0:
256,192,168552,1,8,0:0:0:0:
256,192,168618,1,8,0:0:0:0:
256,192,168684,1,8,0:0:0:0:
256,192,168749,1,0,0:0:0:0:
256,192,168815,1,0,0:0:0:0:
256,192,168881,1,0,0:0:0:0:
256,192,168947,1,8,0:0:0:0:
256,192,169144,1,0,0:0:0:0:
256,192,169342,1,0,0:0:0:0:
256,192,169539,1,8,0:0:0:0:
256,192,169736,1,8,0:0:0:0:
256,192,170131,1,0,0:0:0:0:
256,192,170526,5,12,0:0:0:0:
256,192,170625,1,0,0:0:0:0:
256,192,170724,1,0,0:0:0:0:
256,192,170822,1,0,0:0:0:0:
256,192,170921,1,8,0:0:0:0:
256,192,171020,1,0,0:0:0:0:
256,192,171118,1,0,0:0:0:0:
256,192,171217,1,0,0:0:0:0:
256,192,171316,1,8,0:0:0:0:
256,192,171415,1,0,0:0:0:0:
256,192,171513,1,8,0:0:0:0:
256,192,171612,1,0,0:0:0:0:
256,192,171711,1,8,0:0:0:0:
256,192,171809,1,0,0:0:0:0:
256,192,171908,1,0,0:0:0:0:
256,192,172007,1,0,0:0:0:0:
256,192,172105,1,8,0:0:0:0:
256,192,172204,1,0,0:0:0:0:
256,192,172303,1,8,0:0:0:0:
256,192,172401,1,0,0:0:0:0:
256,192,172500,1,8,0:0:0:0:
256,192,172599,1,0,0:0:0:0:
256,192,172697,1,8,0:0:0:0:
256,192,172796,1,0,0:0:0:0:
256,192,172895,1,8,0:0:0:0:
256,192,172993,1,8,0:0:0:0:
256,192,173092,1,0,0:0:0:0:
256,192,173191,1,0,0:0:0:0:
256,192,173290,1,12,0:0:0:0:
256,192,173487,1,0,0:0:0:0:
256,192,173586,1,0,0:0:0:0:
256,192,173684,1,8,0:0:0:0:
256,192,173783,1,0,0:0:0:0:
256,192,173882,1,8,0:0:0:0:
256,192,173980,1,0,0:0:0:0:
256,192,174079,1,8,0:0:0:0:
256,192,174178,1,0,0:0:0:0:
256,192,174276,1,8,0:0:0:0:
256,192,174375,1,0,0:0:0:0:
256,192,174474,1,8,0:0:0:0:
256,192,174572,1,8,0:0:0:0:
256,192,174671,1,0,0:0:0:0:
256,192,174770,1,0,0:0:0:0:
256,192,174868,1,12,0:0:0:0:
256,192,175066,1,0,0:0:0:0:
256,192,175165,1,0,0:0:0:0:
256,192,175263,1,8,0:0:0:0:
256,192,175329,1,8,0:0:0:0:
256,192,175395,1,8,0:0:0:0:
256,192,175461,1,0,0:0:0:0:
256,192,175559,1,0,0:0:0:0:
256,192,175658,1,8,0:0:0:0:
256,192,175757,1,0,0:0:0:0:
256,192,175855,1,0,0:0:0:0:
256,192,175954,1,0,0:0:0:0:
256,192,176053,1,8,0:0:0:0:
256,192,176250,1,0,0:0:0:0:
256,192,176349,1,0,0:0:0:0:
256,192,176447,1,8,0:0:0:0:
256,192,176546,1,0,0:0:0:0:
256,192,176645,1,0,0:0:0:0:
256,192,176743,1,0,0:0:0:0:
256,192,176842,1,8,0:0:0:0:
256,192,176941,1,0,0:0:0:0:
256,192,177040,1,0,0:0:0:0:
256,192,177138,1,0,0:0:0:0:
256,192,177237,1,8,0:0:0:0:
256,192,177336,1,0,0:0:0:0:
256,192,177435,1,0,0:0:0:0:
256,192,177533,1,0,0:0:0:0:
256,192,177632,1,8,0:0:0:0:
256,192,177730,1,0,0:0:0:0:
256,192,177829,1,8,0:0:0:0:
256,192,177927,1,8,0:0:0:0:
256,192,178026,1,8,0:0:0:0:
256,192,178125,1,0,0:0:0:0:
256,192,178224,1,0,0:0:0:0:
256,192,178322,1,8,0:0:0:0:
256,192,178421,1,8,0:0:0:0:
256,192,178520,1,0,0:0:0:0:
256,192,178619,1,8,0:0:0:0:
256,192,178717,1,0,0:0:0:0:
256,192,178816,1,8,0:0:0:0:
256,192,178915,1,0,0:0:0:0:
256,192,179013,1,8,0:0:0:0:
256,192,179112,1,0,0:0:0:0:
256,192,179211,1,8,0:0:0:0:
256,192,179309,1,8,0:0:0:0:
256,192,179408,1,0,0:0:0:0:
256,192,179506,1,0,0:0:0:0:
256,192,179605,1,8,0:0:0:0:
256,192,179803,1,0,0:0:0:0:
256,192,179902,1,0,0:0:0:0:
256,192,180000,1,8,0:0:0:0:
256,192,180198,1,8,0:0:0:0:
256,192,180296,1,0,0:0:0:0:
256,192,180395,1,8,0:0:0:0:
256,192,180592,1,8,0:0:0:0:
256,192,180691,1,0,0:0:0:0:
256,192,180790,1,8,0:0:0:0:
256,192,180888,1,8,0:0:0:0:
256,192,180987,1,0,0:0:0:0:
256,192,181086,1,0,0:0:0:0:
256,192,181184,1,8,0:0:0:0:
256,192,181382,1,0,0:0:0:0:
256,192,181579,1,12,0:0:0:0:
256,192,181776,1,0,0:0:0:0:
256,192,181874,1,0,0:0:0:0:
256,192,181973,1,0,0:0:0:0:
256,192,182171,1,8,0:0:0:0:
256,192,182368,1,8,0:0:0:0:
256,192,182763,1,4,0:0:0:0:
256,192,183157,1,4,0:0:0:0:
256,192,183552,1,8,0:0:0:0:
256,192,183749,1,8,0:0:0:0:
256,192,183947,1,4,0:0:0:0:
256,192,184144,1,8,0:0:0:0:
256,192,184243,1,8,0:0:0:0:
256,192,184342,1,0,0:0:0:0:
256,192,184736,1,0,0:0:0:0:
256,192,184934,1,8,0:0:0:0:
256,192,185131,1,0,0:0:0:0:
256,192,185328,1,8,0:0:0:0:
256,192,185526,1,0,0:0:0:0:
256,192,185723,1,0,0:0:0:0:
256,192,185921,1,8,0:0:0:0:
256,192,186118,1,8,0:0:0:0:
256,192,186315,1,0,0:0:0:0:
256,192,186513,1,8,0:0:0:0:
256,192,186710,1,0,0:0:0:0:
256,192,186907,1,0,0:0:0:0:
256,192,187105,1,8,0:0:0:0:
256,192,187302,1,8,0:0:0:0:
256,192,187499,1,0,0:0:0:0:
256,192,187598,1,0,0:0:0:0:
256,192,187697,1,8,0:0:0:0:
256,192,187894,1,8,0:0:0:0:
256,192,188092,1,0,0:0:0:0:
256,192,188190,1,0,0:0:0:0:
256,192,188289,1,0,0:0:0:0:
256,192,188486,1,8,0:0:0:0:
256,192,188684,1,8,0:0:0:0:
256,192,188881,1,0,0:0:0:0:
256,192,188980,1,0,0:0:0:0:
256,192,189078,1,8,0:0:0:0:
256,192,189177,1,8,0:0:0:0:
256,192,189276,1,0,0:0:0:0:
256,192,189374,1,8,0:0:0:0:
256,192,189473,1,4,0:0:0:0:
256,192,189671,1,0,0:0:0:0:
256,192,189769,1,0,0:0:0:0:
256,192,189868,1,8,0:0:0:0:
256,192,190065,1,8,0:0:0:0:
256,192,190164,1,8,0:0:0:0:
256,192,190263,1,0,0:0:0:0:
256,192,190460,1,0,0:0:0:0:
256,192,190559,1,8,0:0:0:0:
256,192,190657,1,8,0:0:0:0:
256,192,190855,1,0,0:0:0:0:
256,192,190953,1,8,0:0:0:0:
256,192,191052,1,0,0:0:0:0:
256,192,191249,1,0,0:0:0:0:
256,192,191447,1,8,0:0:0:0:
256,192,191644,1,8,0:0:0:0:
256,192,191842,1,0,0:0:0:0:
256,192,192039,1,8,0:0:0:0:
256,192,192236,1,0,0:0:0:0:
256,192,192335,1,0,0:0:0:0:
256,192,192434,1,0,0:0:0:0:
256,192,192631,1,8,0:0:0:0:
256,192,192828,1,8,0:0:0:0:
256,192,193026,1,0,0:0:0:0:
256,192,193223,1,0,0:0:0:0:
256,192,193421,1,8,0:0:0:0:
256,192,193519,1,8,0:0:0:0:
256,192,193618,1,0,0:0:0:0:
256,192,193815,1,0,0:0:0:0:
256,192,193914,1,0,0:0:0:0:
256,192,194013,1,8,0:0:0:0:
256,192,194210,5,4,0:0:0:0:
256,192,194999,1,0,0:0:0:0:
256,192,195789,1,12,0:0:0:0:
256,192,195888,12,12,202105,0:0:0:0:
