osu file format v14

[General]
AudioFilename: audio.mp3
AudioLeadIn: 0
PreviewTime: -1
Countdown: 1
SampleSet: None
StackLeniency: 0.7
Mode: 0
LetterboxInBreaks: 0
WidescreenStoryboard: 0

[Editor]
DistanceSpacing: 1
BeatDivisor: 4
GridSize: 4
TimelineZoom: 1.2

[Metadata]
Title:Lazer Love
TitleUnicode:Lazer Love
Artist:KSHMR & Vaski
ArtistUnicode:KSHMR & Vaski
Creator:Dyaus Pita
Version:Insane
Source:
Tags:
BeatmapID:1709136
BeatmapSetID:814980

[Difficulty]
HPDrainRate:6
CircleSize:4
OverallDifficulty:7
ApproachRate:9
SliderMultiplier:1.60000000596047
SliderTickRate:1

[Events]
//Background and Video events
//Break Periods
//Storyboard Layer 0 (Background)
//Storyboard Layer 1 (Fail)
//Storyboard Layer 2 (Pass)
//Storyboard Layer 3 (Foreground)
//Storyboard Sound Samples

[TimingPoints]
50,428.571428571429,3,2,0,100,1,0

[HitObjects]
68,53,41152,5,0,0:0:0:0:
171,54,41366,5,0,0:0:0:0:
189,84,41473,1,0,0:0:0:0:
191,123,41580,1,0,0:0:0:0:
275,164,41794,5,0,0:0:0:0:
357,96,42009,5,0,0:0:0:0:
374,85,42116,1,0,0:0:0:0:
406,99,42223,1,0,0:0:0:0:
465,214,42437,5,0,0:0:0:0:
384,306,42652,1,0,0:0:0:0:
320,195,42866,5,0,0:0:0:0:
249,266,43080,5,0,0:0:0:0:
219,290,43187,1,0,0:0:0:0:
179,264,43294,1,0,0:0:0:0:
85,201,43509,5,0,0:0:0:0:
179,109,43723,2,0,L|186:46,2,40.0000001490117
271,169,44152,5,0,0:0:0:0:
343,68,44366,1,0,0:0:0:0:
417,171,44580,1,0,0:0:0:0:
363,291,44794,5,0,0:0:0:0:
336,304,44902,1,0,0:0:0:0:
307,312,45009,1,0,0:0:0:0:
184,304,45223,5,0,0:0:0:0:
116,221,45437,2,0,L|69:241,2,40.0000001490117
156,104,45866,5,0,0:0:0:0:
290,65,46080,1,0,0:0:0:0:
338,199,46294,1,0,0:0:0:0:
242,275,46508,5,0,0:0:0:0:
214,292,46615,1,0,0:0:0:0:
182,309,46723,1,0,0:0:0:0:
70,245,46937,5,0,0:0:0:0:
106,147,47151,2,0,P|69:125|69:121,2,40.0000001490117
195,49,47580,5,0,0:0:0:0:
319,78,47794,5,0,0:0:0:0:
324,107,47901,1,0,0:0:0:0:
329,139,48008,1,0,0:0:0:0:
403,235,48223,5,0,0:0:0:0:
302,316,48437,1,0,0:0:0:0:
172,306,48652,5,0,0:0:0:0:
87,232,48866,2,0,L|27:261,2,40.0000001490117
98,69,49294,5,0,0:0:0:0:
212,72,49509,5,0,0:0:0:0:
220,91,49616,1,0,0:0:0:0:
234,112,49723,1,0,0:0:0:0:
366,90,49937,5,0,0:0:0:0:
426,194,50152,5,0,0:0:0:0:
417,212,50259,1,0,0:0:0:0:
409,228,50366,1,0,0:0:0:0:
319,327,50580,5,0,0:0:0:0:
260,222,50794,1,0,0:0:0:0:
178,328,51009,1,0,0:0:0:0:
90,255,51223,6,0,L|22:264,2,40.0000001490117
115,129,51652,1,0,0:0:0:0:
228,78,51866,6,0,L|228:24,2,40.0000001490117
232,200,52294,5,0,0:0:0:0:
337,140,52509,5,0,0:0:0:0:
353,126,52616,1,0,0:0:0:0:
380,109,52723,1,0,0:0:0:0:
424,240,52937,5,0,0:0:0:0:
303,327,53152,1,0,0:0:0:0:
297,218,53366,1,0,0:0:0:0:
137,262,53580,6,0,L|100:287,2,40.0000001490117
286,126,54009,1,0,0:0:0:0:
285,288,54223,6,0,L|295:327,2,40.0000001490117
157,106,54652,1,0,0:0:0:0:
380,168,54866,6,0,P|421:167|422:167,2,40.0000001490117
141,198,55294,1,0,0:0:0:0:
277,76,55509,6,0,L|280:20,2,40.0000001490117
270,274,55937,1,0,0:0:0:0:
141,136,56152,6,0,L|84:104,2,40.0000001490117
380,202,56580,1,0,0:0:0:0:
380,202,56794,5,0,0:0:0:0:
154,111,57009,5,0,0:0:0:0:
135,97,57116,1,0,0:0:0:0:
115,84,57223,1,0,0:0:0:0:
252,313,57437,5,0,0:0:0:0:
256,98,57652,2,0,L|255:49,2,40.0000001490117
137,294,58080,5,0,0:0:0:0:
336,149,58294,5,0,0:0:0:0:
356,135,58402,1,0,0:0:0:0:
385,118,58509,1,0,0:0:0:0:
106,159,58723,5,0,0:0:0:0:
355,256,58937,2,0,L|411:275,2,40.0000001490117
135,81,59366,5,0,0:0:0:0:
385,81,59580,1,0,0:0:0:0:
396,299,59794,1,0,0:0:0:0:
125,300,60009,1,0,0:0:0:0:
251,192,60223,1,0,0:0:0:0:
252,62,60437,5,0,0:0:0:0:
117,186,60652,1,0,0:0:0:0:
245,312,60866,1,0,0:0:0:0:
378,188,61080,1,0,0:0:0:0:
249,187,61294,1,0,0:0:0:0:
365,75,61509,1,0,0:0:0:0:
175,83,61723,5,0,0:0:0:0:
316,270,61937,1,0,0:0:0:0:
308,100,62152,5,0,0:0:0:0:
190,270,62366,1,0,0:0:0:0:
139,128,62580,5,0,0:0:0:0:
378,227,62794,1,0,0:0:0:0:
252,62,63009,5,0,0:0:0:0:
281,293,63223,1,0,0:0:0:0:
354,85,63437,5,0,0:0:0:0:
176,280,63652,1,0,0:0:0:0:
416,175,63866,5,0,0:0:0:0:
149,130,64080,1,0,0:0:0:0:
305,290,64294,5,0,0:0:0:0:
257,50,64509,1,0,0:0:0:0:
189,272,64723,5,0,0:0:0:0:
366,84,64937,1,0,0:0:0:0:
306,270,65152,6,0,L|327:304,1,40.0000001490117
185,109,65366,2,0,L|156:75,1,40.0000001490117
220,270,65580,6,0,L|208:311,1,40.0000001490117
288,123,65794,2,0,L|321:76,1,40.0000001490117
369,261,66009,6,0,L|390:309,1,40.0000001490117
401,119,66223,2,0,L|385:72,1,40.0000001490117
210,133,66437,6,0,L|174:101,1,40.0000001490117
201,290,66652,2,0,L|160:311,1,40.0000001490117
92,201,66866,6,0,L|201:203,1,80.0000002980235
303,208,67294,5,0,0:0:0:0:
428,188,67509,2,0,L|334:131,1,80.0000002980235
228,90,67830,1,0,0:0:0:0:
181,95,67937,1,0,0:0:0:0:
139,115,68044,1,0,0:0:0:0:
110,146,68152,2,0,P|103:261|110:265,1,120.000000447035
118,283,68580,5,0,0:0:0:0:
172,289,68687,1,0,0:0:0:0:
214,291,68794,1,0,0:0:0:0:
348,274,69009,5,0,0:0:0:0:
252,37,69223,1,0,0:0:0:0:
128,174,69437,1,0,0:0:0:0:
361,112,69652,1,0,0:0:0:0:
233,303,69866,1,0,0:0:0:0:
198,45,70080,1,0,0:0:0:0:
434,142,70294,2,0,P|430:268|412:282,1,160.000000596047
307,316,70937,5,0,0:0:0:0:
269,221,71152,1,0,0:0:0:0:
252,116,71366,1,0,0:0:0:0:
181,44,71580,1,0,0:0:0:0:
139,64,71687,1,0,0:0:0:0:
104,97,71794,1,0,0:0:0:0:
79,137,71902,1,0,0:0:0:0:
58,173,72009,2,0,P|136:290|142:288,1,160.000000596047
238,303,72652,5,0,0:0:0:0:
344,280,72866,2,0,P|436:181|433:176,1,160.000000596047
358,95,73509,1,0,0:0:0:0:
123,64,73723,6,0,L|91:98,1,40.0000001490117
181,134,73937,2,0,L|205:175,2,40.0000001490117
309,58,74366,6,0,P|357:64|370:91,1,80.0000002980235
342,160,74794,2,0,P|406:165|417:190,1,80.0000002980235
354,269,75223,5,0,0:0:0:0:
256,337,75437,2,0,L|192:257,2,80.0000002980235
348,270,76080,5,0,0:0:0:0:
294,189,76294,2,0,L|267:152,1,40.0000001490117
383,146,76509,2,0,L|399:105,1,40.0000001490117
309,86,76723,2,0,L|295:45,2,40.0000001490117
148,143,77152,2,0,L|72:94,2,80.0000002980235
142,278,77794,5,0,0:0:0:0:
401,152,78009,1,0,0:0:0:0:
161,78,78223,1,0,0:0:0:0:
312,264,78437,1,0,0:0:0:0:
319,40,78652,1,0,0:0:0:0:
120,221,78866,6,0,P|216:307|220:304,1,160.000000596047
322,265,79402,1,0,0:0:0:0:
382,123,79509,6,0,P|258:75|242:84,1,160.000000596047
167,183,80044,1,0,0:0:0:0:
232,296,80152,6,0,P|346:213|345:210,1,160.000000596047
355,148,80687,1,0,0:0:0:0:
310,81,80794,1,0,0:0:0:0:
221,67,80902,1,0,0:0:0:0:
133,80,81009,2,0,P|79:159|80:161,1,80.0000002980235
80,262,81437,1,0,0:0:0:0:
209,189,81652,5,0,0:0:0:0:
207,225,81759,1,0,0:0:0:0:
214,268,81866,2,0,P|346:303|351:298,1,160.000000596047
256,95,82762,5,0,0:0:0:0:
166,246,83192,2,0,L|212:280,1,40.0000001490117
247,297,83407,2,0,L|263:247,1,40.0000001490117
262,204,83621,2,0,L|215:209,2,40.0000001490117
201,75,84050,6,0,P|151:9|152:5,2,80.0000002980235
338,75,84692,1,0,0:0:0:0:
152,297,84907,5,0,0:0:0:0:
420,186,85121,1,0,0:0:0:0:
109,116,85335,1,0,0:0:0:0:
338,278,85550,1,0,0:0:0:0:
185,276,85764,5,0,0:0:0:0:
157,229,85871,1,0,0:0:0:0:
146,180,85978,1,0,0:0:0:0:
145,131,86085,1,0,0:0:0:0:
156,85,86192,1,0,0:0:0:0:
180,46,86300,1,0,0:0:0:0:
300,43,86407,5,0,0:0:0:0:
330,76,86514,1,0,0:0:0:0:
358,112,86621,1,0,0:0:0:0:
364,154,86728,1,0,0:0:0:0:
355,202,86835,1,0,0:0:0:0:
332,247,86942,1,0,0:0:0:0:
250,168,87050,5,0,0:0:0:0:
230,204,87157,1,0,0:0:0:0:
223,246,87264,1,0,0:0:0:0:
231,287,87371,1,0,0:0:0:0:
259,325,87478,1,0,0:0:0:0:
306,345,87585,1,0,0:0:0:0:
349,330,87692,1,0,0:0:0:0:
271,157,87907,6,0,L|206:101,2,80.0000002980235
429,213,88550,2,0,L|379:215,1,40.0000001490117
291,220,88764,1,0,0:0:0:0:
201,192,88871,2,0,L|135:163,2,40.0000001490117
